Ошибка

Чудеса голубой планеты. Семь континентов / The Magic Of The Big Blue. Seven Continents (Dariusz Sepiolo / Дариуш Сепиоло) (2011, документальный, BDRip 1080p]

Ответить на тему
 
Автор Сообщение

Joe Allesandro

Пол: Пол:Муж

Стаж: 3 года 11 месяцев

Сообщений: 7

США
Рейтинг

post 19-Июл-2013 20:47 0[+]

[Цитировать] 

Чудеса голубой планеты. Семь континентов
The Magic Of The Big Blue. Seven Continents
Эпизод 1: Азия

  • Год производства: 2011
  • Страна: Польша
  • Жанр: документальный
  • Продолжительность: 00:47:04
  • Перевод: Профессиональный (полное дублирование) студия «Омикрон»
  • Субтитры: Отсутствуют
  • Режиссер: Dariusz Sepiolo / Дариуш Сепиоло
  • В ролях: Krystyna Czubówna (Narrator)
  • Описание:
    Эпизод 1: Азия
    Совершите удивительное путешествие по самым красивым и удивительным уголкам нашей голубой планеты и насладитесь её чудесами и природными феноменами.
    Филиппины, Индонезия и Малайзия лежат в центре кораллового треугольника. Здесь встречаются самые разнообразные обитатели подводного мира. Отсюда и начинается наше путешествие.

  • Качество видео: BDRip 1080p /Скачать сэмпл/
  • Формат видео: mkv
  • Видео кодек: H264
  • Аудио кодек: AC3
  • Видео: 1920x1080 (2.40:1), 23.976 fps, 13.0 Mbps, 0.244 bit/pixel
  • Аудио: 48 kHz, AC3 6 ch ~384 kbps avg
  • Автор рипа: falco

Код:

General
Unique ID                      : 226006831824143689049103961849965860303 (0xAA07551F05D84929AFBD1939172C55CF)
Complete name                  : D:\Торенты\The.Magic.Of.The.Big.Blue.Seven.Continents.2011.1080i.BDRip.falco.mkv
Format                         : Matroska
Format version                 : Version 4 / Version 2
File size                      : 4.28 GiB
Duration                       : 47mn 4s
Overall bit rate               : 13.0 Mbps
Encoded date                   : UTC 2013-07-19 09:27:39
Writing application            : mkvmerge v6.3.0 ('You can't stop me!') built on Jun 28 2013 20:09:41
Writing library                : libebml v1.3.0 + libmatroska v1.4.0

Video
ID                             : 1
Format                         : AVC
Format/Info                    : Advanced Video Codec
Format profile                 : High@L5.0
Format settings, CABAC         : Yes
Format settings, ReFrames      : 5 frames
Codec ID                       : V_MPEG4/ISO/AVC
Duration                       : 47mn 4s
Bit rate                       : 12.6 Mbps
Width                          : 1 920 pixels
Height                         : 1 080 pixels
Display aspect ratio           : 16:9
Frame rate                     : 25.000 fps
Color space                    : YUV
Chroma subsampling             : 4:2:0
Bit depth                      : 8 bits
Scan type                      : Progressive
Bits/(Pixel*Frame)             : 0.244
Stream size                    : 4.06 GiB (95%)
Writing library                : x264 core 130 r2273 b3065e6
Encoding settings              : cabac=1 / ref=5 / deblock=1:-1:-1 / analyse=0x3:0x133 / me=umh / subme=7 / psy=1 / psy_rd=1.00:0.20 / mixed_ref=1 / me_range=16 / chroma_me=1 / trellis=2 / 8x8dct=1 / cqm=0 / deadzone=21,11 / fast_pskip=0 / chroma_qp_offset=-3 / threads=6 / lookahead_threads=1 / sliced_threads=0 / nr=0 / decimate=0 / interlaced=0 / bluray_compat=0 / constrained_intra=0 / bframes=3 / b_pyramid=2 / b_adapt=2 / b_bias=0 / direct=3 / weightb=1 / open_gop=0 / weightp=2 / keyint=250 / keyint_min=25 / scenecut=40 / intra_refresh=0 / rc_lookahead=50 / rc=2pass / mbtree=1 / bitrate=12626 / ratetol=1.0 / qcomp=0.60 / qpmin=0 / qpmax=69 / qpstep=4 / cplxblur=20.0 / qblur=0.5 / ip_ratio=1.40 / aq=1:1.00
Default                        : Yes
Forced                         : No

Audio
ID                             : 2
Format                         : AC-3
Format/Info                    : Audio Coding 3
Mode extension                 : CM (complete main)
Format settings, Endianness    : Big
Codec ID                       : A_AC3
Duration                       : 47mn 4s
Bit rate mode                  : Constant
Bit rate                       : 384 Kbps
Channel(s)                     : 6 channels
Channel positions              : Front: L C R, Side: L R, LFE
Sampling rate                  : 48.0 KHz
Bit depth                      : 16 bits
Compression mode               : Lossy
Stream size                    : 129 MiB (3%)
Title                          : Дубляж, студия «Омикрон»
Language                       : Russian
Default                        : Yes
Forced                         : No
info [Профиль]  [ЛС] 

Alex Ander

Пол: Пол:Муж

Стаж: 7 лет 5 месяцев

Сообщений: 2379

СССР
Рейтинг

post 28-Июл-2013 13:29 (спустя 8 дней) [-]1[+]

[Цитировать] 

скриншоты для такого размера необходимы в PNG

_________________
Лучше быть умным и иногда тупить, чем быть тупым и всё время умничать...
info [Профиль]  [ЛС] 
Показать сообщения:    
Ответить на тему

Текущее время: 08-Дек 13:56

Часовой пояс: GMT + 4



Вы не можете начинать темы
Вы не можете отвечать на сообщения
Вы не можете редактировать свои сообщения
Вы не можете удалять свои сообщения
Вы не можете голосовать в опросах
Вы не можете прикреплять файлы к сообщениям
Вы не можете скачивать файлы