Ошибка

(Punk-Rock) NoFX - Discography - 1989-2012, FLAC (image+.cue), lossless

Ответить на тему
 
Автор Сообщение

The Royal

Пол: Пол:Муж

Стаж: 6 лет 11 месяцев

Сообщений: 652

Россия
Рейтинг

post 07-Июл-2013 16:48 1[+]

[Цитировать] 

pic="http://s001.youpic.su/pictures/1373140800/43d9264767e1b5940bc41077e29a1697.jpg"

NoFX - Discography

Жанр: Punk-Rock
Год издания данного носителя: 1989-2012
Страна-производитель носителя: USA
Аудио кодек: FLAC
Тип рипа: image+.cue
Битрейт аудио: lossless
Продолжительность: 06:50:49
Полиграфия: Отсутствует

01. Day To Daze (1:58)
02. Five Feet Under (2:42)
03. Professional Crastination (2:47)
04. Mean People Suck (2:03)
05. Vanilla Sex (2:36)
06. S&M Airlines (4:42)
07. Drug Free America (3:41)
08. Life O'Riley (1:53)
09. You Drink You Drive You Spill (2:23)
10. Scream For Change (2:55)
11. Jaundiced Eye (3:51)
12. Go Your Own Way (2:18)
Exact Audio Copy V0.99 prebeta 4 from 23. January 2008 

EAC extraction logfile from 19. June 2008, 0:47

NoFX / S&M Airlines

Used drive : Optiarc DVD RW AD-7173A Adapter: 1 ID: 1

Read mode : Secure
Utilize accurate stream : Yes
Defeat audio cache : Yes
Make use of C2 pointers : No

Read offset correction : 48
Overread into Lead-In and Lead-Out : No
Fill up missing offset samples with silence : Yes
Delete leading and trailing silent blocks : No
Null samples used in CRC calculations : Yes
Used interface : Installed external ASPI interface

Used output format : Internal WAV Routines
Sample format : 44.100 Hz; 16 Bit; Stereo

TOC of the extracted CD

Track | Start | Length | Start sector | End sector
---------------------------------------------------------
1 | 0:00.00 | 1:58.13 | 0 | 8862
2 | 1:58.13 | 2:42.30 | 8863 | 21042
3 | 4:40.43 | 2:46.70 | 21043 | 33562
4 | 7:27.38 | 2:02.55 | 33563 | 42767
5 | 9:30.18 | 2:35.50 | 42768 | 54442
6 | 12:05.68 | 4:41.67 | 54443 | 75584
7 | 16:47.60 | 3:41.23 | 75585 | 92182
8 | 20:29.08 | 1:53.37 | 92183 | 100694
9 | 22:22.45 | 2:22.58 | 100695 | 111402
10 | 24:45.28 | 2:54.45 | 111403 | 124497
11 | 27:39.73 | 3:50.65 | 124498 | 141812
12 | 31:30.63 | 2:18.35 | 141813 | 152197

Range status and errors

Selected range

Filename C:\Documents and Settings\KARASPUNK\Рабочий стол\1989 - S&M Airlines\NoFX - S&M Airlines.wav

Peak level 100.0 %
Range quality 100.0 %
Copy CRC 24616D91
Copy OK

No errors occurred

End of status report
REM DATE 1989 
REM DISCID 9307ED0C
REM COMMENT "ExactAudioCopy v0.99pb4"
PERFORMER "NoFX"
TITLE "S&M Airlines"
FILE "NoFX - S&M Airlines.flac" WAVE
TRACK 01 AUDIO
TITLE "Day To Daze"
PERFORMER "NoFX"
INDEX 01 00:00:00
TRACK 02 AUDIO
TITLE "Five Feet Under"
PERFORMER "NoFX"
INDEX 00 01:58:06
INDEX 01 01:58:13
TRACK 03 AUDIO
TITLE "Professional Crastination"
PERFORMER "NoFX"
INDEX 00 04:40:13
INDEX 01 04:40:43
TRACK 04 AUDIO
TITLE "Mean People Suck"
PERFORMER "NoFX"
INDEX 00 07:27:06
INDEX 01 07:27:38
TRACK 05 AUDIO
TITLE "Vanilla Sex"
PERFORMER "NoFX"
INDEX 00 09:30:05
INDEX 01 09:30:18
TRACK 06 AUDIO
TITLE "S&M Airlines"
PERFORMER "NoFX"
INDEX 00 12:05:28
INDEX 01 12:05:68
TRACK 07 AUDIO
TITLE "Drug Free America"
PERFORMER "NoFX"
INDEX 00 16:47:05
INDEX 01 16:47:60
TRACK 08 AUDIO
TITLE "Life O'Riley"
PERFORMER "NoFX"
INDEX 00 20:28:36
INDEX 01 20:29:08
TRACK 09 AUDIO
TITLE "You Drink You Drive You Spill"
PERFORMER "NoFX"
INDEX 01 22:22:45
TRACK 10 AUDIO
TITLE "Scream For Change"
PERFORMER "NoFX"
INDEX 00 24:44:56
INDEX 01 24:45:28
TRACK 11 AUDIO
TITLE "Jaundiced Eye"
PERFORMER "NoFX"
INDEX 00 27:39:24
INDEX 01 27:39:73
TRACK 12 AUDIO
TITLE "Go Your Own Way"
PERFORMER "NoFX"
INDEX 00 31:28:48
INDEX 01 31:30:63
01. Shut Up Already (2:47)
02. Freedumb (0:46)
03. Here Comes The Neighborhood (2:58)
04. A200 Club (1:55)
05. Sloppy English (1:21)
06. You Put Your Chocolate In My Peanut Butter (2:32)
07. Mr. Jones (3:18)
08. Vegetarian Mumbo Jumbo (3:32)
09. Beer Bong (2:32)
10. Piece (1:35)
11. I Live In A Cake (1:10)
12. No Problems (1:20)
13. On The Rag (1:42)
14. Truck Stop Blues (3:06)
Exact Audio Copy V0.99 prebeta 4 from 23. January 2008 

EAC extraction logfile from 13. October 2008, 15:46

NoFX / Liberal Animation

Used drive : ASUS CRW-5232AS Adapter: 1 ID: 0

Read mode : Secure
Utilize accurate stream : Yes
Defeat audio cache : Yes
Make use of C2 pointers : No

Read offset correction : 6
Overread into Lead-In and Lead-Out : No
Fill up missing offset samples with silence : Yes
Delete leading and trailing silent blocks : No
Null samples used in CRC calculations : Yes
Used interface : Installed external ASPI interface

Used output format : Internal WAV Routines
Sample format : 44.100 Hz; 16 Bit; Stereo

TOC of the extracted CD

Track | Start | Length | Start sector | End sector
---------------------------------------------------------
1 | 0:00.00 | 2:46.70 | 0 | 12519
2 | 2:46.70 | 0:45.52 | 12520 | 15946
3 | 3:32.47 | 2:58.13 | 15947 | 29309
4 | 6:30.60 | 1:55.27 | 29310 | 37961
5 | 8:26.12 | 1:20.55 | 37962 | 44016
6 | 9:46.67 | 2:31.48 | 44017 | 55389
7 | 12:18.40 | 3:18.35 | 55390 | 70274
8 | 15:37.00 | 3:32.27 | 70275 | 86201
9 | 19:09.27 | 2:32.27 | 86202 | 97628
10 | 21:41.54 | 1:35.28 | 97629 | 104781
11 | 23:17.07 | 1:09.40 | 104782 | 109996
12 | 24:26.47 | 1:20.03 | 109997 | 115999
13 | 25:46.50 | 1:42.35 | 116000 | 123684
14 | 27:29.10 | 3:05.70 | 123685 | 137629

Range status and errors

Selected range

Filename E:\NoFX Lossless [torrents.ru]\1991 - Liberal Animation\NoFX - Liberal Animation.wav

Peak level 94.0 %
Range quality 100.0 %
Copy CRC A886D537
Copy OK

No errors occurred

End of status report
Exact Audio Copy V0.99 prebeta 4 from 23. January 2008 

EAC extraction logfile from 13. October 2008, 15:46

NoFX / Liberal Animation

Used drive : ASUS CRW-5232AS Adapter: 1 ID: 0

Read mode : Secure
Utilize accurate stream : Yes
Defeat audio cache : Yes
Make use of C2 pointers : No

Read offset correction : 6
Overread into Lead-In and Lead-Out : No
Fill up missing offset samples with silence : Yes
Delete leading and trailing silent blocks : No
Null samples used in CRC calculations : Yes
Used interface : Installed external ASPI interface

Used output format : Internal WAV Routines
Sample format : 44.100 Hz; 16 Bit; Stereo

TOC of the extracted CD

Track | Start | Length | Start sector | End sector
---------------------------------------------------------
1 | 0:00.00 | 2:46.70 | 0 | 12519
2 | 2:46.70 | 0:45.52 | 12520 | 15946
3 | 3:32.47 | 2:58.13 | 15947 | 29309
4 | 6:30.60 | 1:55.27 | 29310 | 37961
5 | 8:26.12 | 1:20.55 | 37962 | 44016
6 | 9:46.67 | 2:31.48 | 44017 | 55389
7 | 12:18.40 | 3:18.35 | 55390 | 70274
8 | 15:37.00 | 3:32.27 | 70275 | 86201
9 | 19:09.27 | 2:32.27 | 86202 | 97628
10 | 21:41.54 | 1:35.28 | 97629 | 104781
11 | 23:17.07 | 1:09.40 | 104782 | 109996
12 | 24:26.47 | 1:20.03 | 109997 | 115999
13 | 25:46.50 | 1:42.35 | 116000 | 123684
14 | 27:29.10 | 3:05.70 | 123685 | 137629

Range status and errors

Selected range

Filename E:\NoFX Lossless [torrents.ru]\1991 - Liberal Animation\NoFX - Liberal Animation.wav

Peak level 94.0 %
Range quality 100.0 %
Copy CRC A886D537
Copy OK

No errors occurred

End of status report
01. Green Corn (1:44)
02. The Moron Brothers (2:27)
03. Showerdays (2:11)
04. Food, Sex & Ewe (1:47)
05. Just The Flu (2:04)
06. El Lay (1:14)
07. New Boobs (3:28)
08. Cheese / Where's My Slice (2:17)
09. Together On The Sand (1:12)
10. Nowhere (1:34)
11. Brain Constipation (2:25)
12. Gonoherpasyphlaids (1:44)
13. I Don't Want You Around (1:39)
14. The Malachi Crunch (2:53)
Exact Audio Copy V0.99 prebeta 4 from 23. January 2008 

EAC extraction logfile from 26. June 2008, 16:54

NoFX / Ribbed

Used drive : Optiarc DVD RW AD-7173A Adapter: 1 ID: 1

Read mode : Secure
Utilize accurate stream : Yes
Defeat audio cache : Yes
Make use of C2 pointers : No

Read offset correction : 48
Overread into Lead-In and Lead-Out : No
Fill up missing offset samples with silence : Yes
Delete leading and trailing silent blocks : No
Null samples used in CRC calculations : Yes
Used interface : Installed external ASPI interface

Used output format : Internal WAV Routines
Sample format : 44.100 Hz; 16 Bit; Stereo

TOC of the extracted CD

Track | Start | Length | Start sector | End sector
---------------------------------------------------------
1 | 0:00.00 | 1:44.35 | 0 | 7834
2 | 1:44.35 | 2:26.70 | 7835 | 18854
3 | 4:11.30 | 2:10.62 | 18855 | 28666
4 | 6:22.17 | 1:47.30 | 28667 | 36721
5 | 8:09.47 | 2:03.70 | 36722 | 46016
6 | 10:13.42 | 1:14.03 | 46017 | 51569
7 | 11:27.45 | 3:27.55 | 51570 | 67149
8 | 14:55.25 | 2:16.57 | 67150 | 77406
9 | 17:12.07 | 1:12.28 | 77407 | 82834
10 | 18:24.35 | 1:34.32 | 82835 | 89916
11 | 19:58.67 | 2:24.50 | 89917 | 100766
12 | 22:23.42 | 1:43.43 | 100767 | 108534
13 | 24:07.10 | 1:39.25 | 108535 | 115984
14 | 25:46.35 | 2:53.30 | 115985 | 128989

Range status and errors

Selected range

Filename E:\NoFX Lossless [torrents.ru]\1991 - Ribbed\NoFX - Ribbed.wav

Peak level 98.9 %
Range quality 100.0 %
Copy CRC 71AB293B
Copy OK

No errors occurred

End of status report
REM DATE 1991 
REM DISCID AF06B70E
REM COMMENT "ExactAudioCopy v0.99pb4"
PERFORMER "NoFX"
TITLE "Ribbed"
FILE "NoFX - Ribbed.flac" WAVE
TRACK 01 AUDIO
TITLE "Green Corn"
PERFORMER "NoFX"
INDEX 01 00:00:00
TRACK 02 AUDIO
TITLE "The Moron Brothers"
PERFORMER "NoFX"
INDEX 00 01:44:02
INDEX 01 01:44:35
TRACK 03 AUDIO
TITLE "Showerdays"
PERFORMER "NoFX"
INDEX 00 04:10:65
INDEX 01 04:11:30
TRACK 04 AUDIO
TITLE "Food, Sex & Ewe"
PERFORMER "NoFX"
INDEX 00 06:22:07
INDEX 01 06:22:17
TRACK 05 AUDIO
TITLE "Just The Flu"
PERFORMER "NoFX"
INDEX 01 08:09:47
TRACK 06 AUDIO
TITLE "El Lay"
PERFORMER "NoFX"
INDEX 00 10:13:31
INDEX 01 10:13:42
TRACK 07 AUDIO
TITLE "New Boobs"
PERFORMER "NoFX"
INDEX 00 11:27:20
INDEX 01 11:27:45
TRACK 08 AUDIO
TITLE "Cheese / Where's My Slice"
PERFORMER "NoFX"
INDEX 00 14:54:67
INDEX 01 14:55:25
TRACK 09 AUDIO
TITLE "Together On The Sand"
PERFORMER "NoFX"
INDEX 01 17:12:07
TRACK 10 AUDIO
TITLE "Nowhere"
PERFORMER "NoFX"
INDEX 01 18:24:35
TRACK 11 AUDIO
TITLE "Brain Constipation"
PERFORMER "NoFX"
INDEX 00 19:58:45
INDEX 01 19:58:67
TRACK 12 AUDIO
TITLE "Gonoherpasyphlaids"
PERFORMER "NoFX"
INDEX 00 22:22:27
INDEX 01 22:23:42
TRACK 13 AUDIO
TITLE "I Don't Want You Around"
PERFORMER "NoFX"
INDEX 01 24:07:10
TRACK 14 AUDIO
TITLE "The Malachi Crunch"
PERFORMER "NoFX"
INDEX 00 25:45:72
INDEX 01 25:46:35
01. Soul Doubt (2:46)
02. Stickin In My Eye (2:24)
03. Bob (2:02)
04. You're Bleeding (2:12)
05. Straight Edge (2:11)
06. Liza And Louise (2:22)
07. The Bag (2:46)
08. Please Play This Song On The Radio (2:17)
09. Warm (3:31)
10. I Wanna Be Your Baby (2:56)
11. Johnny Appleseed (2:38)
12. She's Gone (2:57)
13. Buggley Eyes (1:20)
Exact Audio Copy V0.99 prebeta 4 from 23. January 2008 

EAC extraction logfile from 13. October 2008, 14:56

NoFX / White Trash, Two Heebs And A Bean

Used drive : ASUS CRW-5232AS Adapter: 1 ID: 0

Read mode : Secure
Utilize accurate stream : Yes
Defeat audio cache : Yes
Make use of C2 pointers : No

Read offset correction : 6
Overread into Lead-In and Lead-Out : No
Fill up missing offset samples with silence : Yes
Delete leading and trailing silent blocks : No
Null samples used in CRC calculations : Yes
Used interface : Installed external ASPI interface

Used output format : Internal WAV Routines
Sample format : 44.100 Hz; 16 Bit; Stereo

TOC of the extracted CD

Track | Start | Length | Start sector | End sector
---------------------------------------------------------
1 | 0:00.00 | 2:46.25 | 0 | 12474
2 | 2:46.25 | 2:24.35 | 12475 | 23309
3 | 5:10.60 | 2:02.13 | 23310 | 32472
4 | 7:12.73 | 2:12.10 | 32473 | 42382
5 | 9:25.08 | 2:11.15 | 42383 | 52222
6 | 11:36.23 | 2:22.35 | 52223 | 62907
7 | 13:58.58 | 2:46.00 | 62908 | 75357
8 | 16:44.58 | 2:16.50 | 75358 | 85607
9 | 19:01.33 | 3:30.65 | 85608 | 101422
10 | 22:32.23 | 2:56.25 | 101423 | 114647
11 | 25:28.48 | 2:37.72 | 114648 | 126494
12 | 28:06.45 | 2:56.50 | 126495 | 139744
13 | 31:03.20 | 1:19.73 | 139745 | 145742

Range status and errors

Selected range

Filename E:\NoFX Lossless [torrents.ru]\1992 - White Trash, Two Heebs And A Bean\NoFX - White Trash, Two Heebs And A Bean.wav

Peak level 96.2 %
Range quality 99.9 %
Copy CRC 5C3D5BC5
Copy OK

No errors occurred

End of status report
REM DATE 1992 
REM DISCID A807970D
REM COMMENT "ExactAudioCopy v0.99pb4"
PERFORMER "NoFX"
TITLE "White Trash, Two Heebs And A Bean"
FILE "NoFX - White Trash, Two Heebs And A Bean.flac" WAVE
TRACK 01 AUDIO
TITLE "Soul Doubt"
PERFORMER "NoFX"
INDEX 01 00:00:00
TRACK 02 AUDIO
TITLE "Stickin In My Eye"
PERFORMER "NoFX"
INDEX 00 02:44:30
INDEX 01 02:46:25
TRACK 03 AUDIO
TITLE "Bob"
PERFORMER "NoFX"
INDEX 00 05:08:13
INDEX 01 05:10:60
TRACK 04 AUDIO
TITLE "You're Bleeding"
PERFORMER "NoFX"
INDEX 00 07:11:63
INDEX 01 07:12:73
TRACK 05 AUDIO
TITLE "Straight Edge"
PERFORMER "NoFX"
INDEX 00 09:24:25
INDEX 01 09:25:08
TRACK 06 AUDIO
TITLE "Liza And Louise"
PERFORMER "NoFX"
INDEX 00 11:36:10
INDEX 01 11:36:23
TRACK 07 AUDIO
TITLE "The Bag"
PERFORMER "NoFX"
INDEX 00 13:58:03
INDEX 01 13:58:58
TRACK 08 AUDIO
TITLE "Please Play This Song On The Radio"
PERFORMER "NoFX"
INDEX 00 16:43:15
INDEX 01 16:44:58
TRACK 09 AUDIO
TITLE "Warm"
PERFORMER "NoFX"
INDEX 00 19:00:48
INDEX 01 19:01:33
TRACK 10 AUDIO
TITLE "I Wanna Be Your Baby"
PERFORMER "NoFX"
INDEX 01 22:32:23
TRACK 11 AUDIO
TITLE "Johnny Appleseed"
PERFORMER "NoFX"
INDEX 01 25:28:48
TRACK 12 AUDIO
TITLE "She's Gone"
PERFORMER "NoFX"
INDEX 00 28:05:15
INDEX 01 28:06:45
TRACK 13 AUDIO
TITLE "Buggley Eyes"
PERFORMER "NoFX"
INDEX 00 31:02:43
INDEX 01 31:03:20
01. Linoleum (2:11)
02. Leave It Alone (2:05)
03. Dig (2:15)
04. The Cause (1:38)
05. Don't Call Me White (2:33)
06. My Heart Is Yearning (2:24)
07. Perfect Government (2:06)
08. The Brews (2:41)
09. The Quass (1:19)
10. Dying Degree (1:50)
11. Fleas (1:48)
12. Lori Meyers (2:20)
13. Jeff Wears Birkenstocks (1:27)
14. Punk Guy (1:09)
15. Happy Guy (1:59)
16. Reeko (3:05)
17. Scavenger Type (7:13)
Exact Audio Copy V0.99 prebeta 4 from 23. January 2008 

EAC extraction logfile from 18. September 2008, 23:10

NoFX / Punk In Drublic

Used drive : ASUS CRW-5232AS Adapter: 1 ID: 0

Read mode : Secure
Utilize accurate stream : Yes
Defeat audio cache : Yes
Make use of C2 pointers : No

Read offset correction : 6
Overread into Lead-In and Lead-Out : No
Fill up missing offset samples with silence : Yes
Delete leading and trailing silent blocks : No
Null samples used in CRC calculations : Yes
Used interface : Installed external ASPI interface

Used output format : Internal WAV Routines
Sample format : 44.100 Hz; 16 Bit; Stereo

TOC of the extracted CD

Track | Start | Length | Start sector | End sector
---------------------------------------------------------
1 | 0:00.00 | 2:11.00 | 0 | 9824
2 | 2:11.00 | 2:04.70 | 9825 | 19194
3 | 4:15.70 | 2:15.05 | 19195 | 29324
4 | 6:31.00 | 1:38.00 | 29325 | 36674
5 | 8:09.00 | 2:33.00 | 36675 | 48149
6 | 10:42.00 | 2:24.00 | 48150 | 58949
7 | 13:06.00 | 2:06.00 | 58950 | 68399
8 | 15:12.00 | 2:41.00 | 68400 | 80474
9 | 17:53.00 | 1:18.60 | 80475 | 86384
10 | 19:11.60 | 1:50.15 | 86385 | 94649
11 | 21:02.00 | 1:48.00 | 94650 | 102749
12 | 22:50.00 | 2:20.00 | 102750 | 113249
13 | 25:10.00 | 1:27.00 | 113250 | 119774
14 | 26:37.00 | 1:09.00 | 119775 | 124949
15 | 27:46.00 | 1:59.00 | 124950 | 133874
16 | 29:45.00 | 3:05.00 | 133875 | 147749
17 | 32:50.00 | 7:12.62 | 147750 | 180211

Range status and errors

Selected range

Filename E:\NoFX Lossless [torrents.ru]\1994 - Punk In Drublic (12'' Vinyl)\NoFX - Punk In Drublic.wav

Peak level 91.6 %
Range quality 99.9 %
Copy CRC 89233FAE
Copy OK

No errors occurred

End of status report
REM DATE 1994 
REM DISCID F8096211
REM COMMENT "ExactAudioCopy v0.99pb4"
PERFORMER "NoFX"
TITLE "Punk In Drublic"
FILE "NoFX - Punk In Drublic.flac" WAVE
TRACK 01 AUDIO
TITLE "Linoleum"
PERFORMER "NoFX"
INDEX 01 00:00:00
TRACK 02 AUDIO
TITLE "Leave It Alone"
PERFORMER "NoFX"
INDEX 01 02:11:00
TRACK 03 AUDIO
TITLE "Dig"
PERFORMER "NoFX"
INDEX 01 04:15:70
TRACK 04 AUDIO
TITLE "The Cause"
PERFORMER "NoFX"
INDEX 01 06:31:00
TRACK 05 AUDIO
TITLE "Don't Call Me White"
PERFORMER "NoFX"
INDEX 01 08:09:00
TRACK 06 AUDIO
TITLE "My Heart Is Yearning"
PERFORMER "NoFX"
INDEX 01 10:42:00
TRACK 07 AUDIO
TITLE "Perfect Government"
PERFORMER "NoFX"
INDEX 01 13:06:00
TRACK 08 AUDIO
TITLE "The Brews"
PERFORMER "NoFX"
INDEX 01 15:12:00
TRACK 09 AUDIO
TITLE "The Quass"
PERFORMER "NoFX"
INDEX 01 17:53:00
TRACK 10 AUDIO
TITLE "Dying Degree"
PERFORMER "NoFX"
INDEX 01 19:11:60
TRACK 11 AUDIO
TITLE "Fleas"
PERFORMER "NoFX"
INDEX 01 21:02:00
TRACK 12 AUDIO
TITLE "Lori Meyers"
PERFORMER "NoFX"
INDEX 01 22:50:00
TRACK 13 AUDIO
TITLE "Jeff Wears Birkenstocks"
PERFORMER "NoFX"
INDEX 01 25:10:00
TRACK 14 AUDIO
TITLE "Punk Guy"
PERFORMER "NoFX"
INDEX 01 26:37:00
TRACK 15 AUDIO
TITLE "Happy Guy"
PERFORMER "NoFX"
INDEX 01 27:46:00
TRACK 16 AUDIO
TITLE "Reeko"
PERFORMER "NoFX"
INDEX 01 29:45:00
TRACK 17 AUDIO
TITLE "Scavenger Type"
PERFORMER "NoFX"
INDEX 01 32:50:00
01. Linoleum (2:11)
02. Leave It Alone (2:04)
03. Dig (2:16)
04. The Cause (1:38)
05. Don't Call Me White (2:33)
06. My Heart Is Yearning (2:23)
07. Perfect Government (2:07)
08. The Brews (2:41)
09. The Quass (1:18)
10. Dying Degree (1:51)
11. Fleas (1:48)
12. Lori Meyers (2:21)
13. Jeff Wears Birkenstocks (1:27)
14. Punk Guy (1:09)
15. Happy Guy (1:59)
16. Reeko (3:06)
17. Scavenger Type (7:15)
Exact Audio Copy V0.99 prebeta 4 from 23. January 2008 

EAC extraction logfile from 18. October 2008, 11:48

NoFX / Punk In Drublic

Used drive : ASUS CRW-5232AS Adapter: 1 ID: 0

Read mode : Secure
Utilize accurate stream : Yes
Defeat audio cache : Yes
Make use of C2 pointers : No

Read offset correction : 6
Overread into Lead-In and Lead-Out : No
Fill up missing offset samples with silence : Yes
Delete leading and trailing silent blocks : No
Null samples used in CRC calculations : Yes
Used interface : Installed external ASPI interface

Used output format : Internal WAV Routines
Sample format : 44.100 Hz; 16 Bit; Stereo

TOC of the extracted CD

Track | Start | Length | Start sector | End sector
---------------------------------------------------------
1 | 0:00.00 | 2:10.42 | 0 | 9791
2 | 2:10.42 | 2:04.33 | 9792 | 19124
3 | 4:15.00 | 2:16.27 | 19125 | 29351
4 | 6:31.27 | 1:37.65 | 29352 | 36691
5 | 8:09.17 | 2:33.33 | 36692 | 48199
6 | 10:42.50 | 2:23.22 | 48200 | 58946
7 | 13:05.72 | 2:06.45 | 58947 | 68441
8 | 15:12.42 | 2:40.50 | 68442 | 80491
9 | 17:53.17 | 1:17.73 | 80492 | 86339
10 | 19:11.15 | 1:51.15 | 86340 | 94679
11 | 21:02.30 | 1:47.62 | 94680 | 102766
12 | 22:50.17 | 2:21.25 | 102767 | 113366
13 | 25:11.42 | 1:26.63 | 113367 | 119879
14 | 26:38.30 | 1:09.15 | 119880 | 125069
15 | 27:47.45 | 1:58.55 | 125070 | 133974
16 | 29:46.25 | 3:05.52 | 133975 | 147901
17 | 32:52.02 | 7:14.73 | 147902 | 180524

Range status and errors

Selected range

Filename E:\NoFX Lossless [torrents.ru]\1994 - Punk In Drublic (Japanese)\NoFX - Punk In Drublic.wav

Peak level 99.6 %
Range quality 100.0 %
Copy CRC 0683F454
Copy OK

No errors occurred

End of status report
REM DATE 1994 
REM DISCID EA096711
REM COMMENT "ExactAudioCopy v0.99pb4"
PERFORMER "NoFX"
TITLE "Punk In Drublic"
FILE "NoFX - Punk In Drublic.flac" WAVE
TRACK 01 AUDIO
TITLE "Linoleum"
PERFORMER "NoFX"
INDEX 01 00:00:00
TRACK 02 AUDIO
TITLE "Leave It Alone"
PERFORMER "NoFX"
INDEX 01 02:10:42
TRACK 03 AUDIO
TITLE "Dig"
PERFORMER "NoFX"
INDEX 01 04:15:00
TRACK 04 AUDIO
TITLE "The Cause"
PERFORMER "NoFX"
INDEX 01 06:31:27
TRACK 05 AUDIO
TITLE "Don't Call Me White"
PERFORMER "NoFX"
INDEX 01 08:09:17
TRACK 06 AUDIO
TITLE "My Heart Is Yearning"
PERFORMER "NoFX"
INDEX 01 10:42:50
TRACK 07 AUDIO
TITLE "Perfect Government"
PERFORMER "NoFX"
INDEX 01 13:05:72
TRACK 08 AUDIO
TITLE "The Brews"
PERFORMER "NoFX"
INDEX 00 15:11:37
INDEX 01 15:12:42
TRACK 09 AUDIO
TITLE "The Quass"
PERFORMER "NoFX"
INDEX 01 17:53:17
TRACK 10 AUDIO
TITLE "Dying Degree"
PERFORMER "NoFX"
INDEX 01 19:11:15
TRACK 11 AUDIO
TITLE "Fleas"
PERFORMER "NoFX"
INDEX 01 21:02:30
TRACK 12 AUDIO
TITLE "Lori Meyers"
PERFORMER "NoFX"
INDEX 01 22:50:17
TRACK 13 AUDIO
TITLE "Jeff Wears Birkenstocks"
PERFORMER "NoFX"
INDEX 01 25:11:42
TRACK 14 AUDIO
TITLE "Punk Guy"
PERFORMER "NoFX"
INDEX 01 26:38:30
TRACK 15 AUDIO
TITLE "Happy Guy"
PERFORMER "NoFX"
INDEX 01 27:47:45
TRACK 16 AUDIO
TITLE "Reeko"
PERFORMER "NoFX"
INDEX 01 29:46:25
TRACK 17 AUDIO
TITLE "Scavenger Type"
PERFORMER "NoFX"
INDEX 00 32:48:07
INDEX 01 32:52:02
01. Hobophobic (Scared Of Bums) (0:49)
02. Philthy Phil Philanthropist (3:10)
03. Freedom Lika Shopping Cart (3:43)
04. Bleeding Heart Disease (3:37)
05. Hot Dog In A Hallway (2:52)
06. Release The Hostages (2:29)
07. Liza (2:56)
08. What's The Matter With Kids Today? (1:14)
09. Love Story (2:37)
10. The Black And White (3:37)
11. Whatever Didi Wants (3:02)
12. August 8th (1:36)
13. Drop The World (3:22)
Exact Audio Copy V0.99 prebeta 4 from 23. January 2008 

EAC extraction logfile from 26. June 2008, 18:09

NoFX / Heavy Petting Zoo

Used drive : Optiarc DVD RW AD-7173A Adapter: 1 ID: 1

Read mode : Secure
Utilize accurate stream : Yes
Defeat audio cache : Yes
Make use of C2 pointers : No

Read offset correction : 48
Overread into Lead-In and Lead-Out : No
Fill up missing offset samples with silence : Yes
Delete leading and trailing silent blocks : No
Null samples used in CRC calculations : Yes
Used interface : Installed external ASPI interface

Used output format : Internal WAV Routines
Sample format : 44.100 Hz; 16 Bit; Stereo

TOC of the extracted CD

Track | Start | Length | Start sector | End sector
---------------------------------------------------------
1 | 0:00.00 | 0:49.05 | 0 | 3679
2 | 0:49.05 | 3:10.17 | 3680 | 17946
3 | 3:59.22 | 3:43.23 | 17947 | 34694
4 | 7:42.45 | 3:36.52 | 34695 | 50946
5 | 11:19.22 | 2:51.45 | 50947 | 63816
6 | 14:10.67 | 2:29.23 | 63817 | 75014
7 | 16:40.15 | 2:55.47 | 75015 | 88186
8 | 19:35.62 | 1:13.73 | 88187 | 93734
9 | 20:49.60 | 2:37.32 | 93735 | 105541
10 | 23:27.17 | 3:36.60 | 105542 | 121801
11 | 27:04.02 | 3:02.23 | 121802 | 135474
12 | 30:06.25 | 1:35.70 | 135475 | 142669
13 | 31:42.20 | 3:22.22 | 142670 | 157841

Range status and errors

Selected range

Filename E:\NoFX Lossless [torrents.ru]\1996 - Heavy Petting Zoo\NoFX - Heavy Petting Zoo.wav

Peak level 100.0 %
Range quality 100.0 %
Copy CRC BD226782
Copy OK

No errors occurred

End of status report
REM DATE 1996 
REM DISCID 9308380D
REM COMMENT "ExactAudioCopy v0.99pb4"
PERFORMER "NoFX"
TITLE "Heavy Petting Zoo"
FILE "NoFX - Heavy Petting Zoo.flac" WAVE
TRACK 01 AUDIO
TITLE "Hobophobic (Scared Of Bums)"
PERFORMER "NoFX"
INDEX 01 00:00:00
TRACK 02 AUDIO
TITLE "Philthy Phil Philanthropist"
PERFORMER "NoFX"
INDEX 01 00:49:05
TRACK 03 AUDIO
TITLE "Freedom Lika Shopping Cart"
PERFORMER "NoFX"
INDEX 01 03:59:22
TRACK 04 AUDIO
TITLE "Bleeding Heart Disease"
PERFORMER "NoFX"
INDEX 01 07:42:45
TRACK 05 AUDIO
TITLE "Hot Dog In A Hallway"
PERFORMER "NoFX"
INDEX 01 11:19:22
TRACK 06 AUDIO
TITLE "Release The Hostages"
PERFORMER "NoFX"
INDEX 01 14:10:67
TRACK 07 AUDIO
TITLE "Liza"
PERFORMER "NoFX"
INDEX 01 16:40:15
TRACK 08 AUDIO
TITLE "What's The Matter With Kids Today?"
PERFORMER "NoFX"
INDEX 01 19:35:62
TRACK 09 AUDIO
TITLE "Love Story"
PERFORMER "NoFX"
INDEX 01 20:49:60
TRACK 10 AUDIO
TITLE "The Black And White"
PERFORMER "NoFX"
INDEX 01 23:27:17
TRACK 11 AUDIO
TITLE "Whatever Didi Wants"
PERFORMER "NoFX"
INDEX 01 27:04:02
TRACK 12 AUDIO
TITLE "August 8th"
PERFORMER "NoFX"
INDEX 01 30:06:25
TRACK 13 AUDIO
TITLE "Drop The World"
PERFORMER "NoFX"
INDEX 01 31:42:20
01. It's My Job To Keep Punk Rock Elite (1:21)
02. Kids Of The K-Hole (2:17)
03. Murder The Government (0:46)
04. Monosyllabic Girl (0:54)
05. 180 Degrees (2:11)
06. All His Suits Are Torn (2:18)
07. All Outta Angst (1:52)
08. I'm Telling Tim (1:17)
09. Champs Elysees (2:02)
10. Dad's Bad News (2:02)
11. Kill Rock Stars (1:33)
12. Eat The Meek (3:32)
13. The Desperation's Gone (2:25)
14. Flossing A Dead Horse (1:46)
15. Quart In Session (1:38)
16. Falling In Love (5:14)
Exact Audio Copy V0.99 prebeta 4 from 23. January 2008 

EAC extraction logfile from 26. June 2008, 15:58

NoFX / So Long And Thanks For All The Shoes

Used drive : Optiarc DVD RW AD-7173A Adapter: 1 ID: 1

Read mode : Secure
Utilize accurate stream : Yes
Defeat audio cache : Yes
Make use of C2 pointers : No

Read offset correction : 48
Overread into Lead-In and Lead-Out : No
Fill up missing offset samples with silence : Yes
Delete leading and trailing silent blocks : No
Null samples used in CRC calculations : Yes
Used interface : Installed external ASPI interface

Used output format : Internal WAV Routines
Sample format : 44.100 Hz; 16 Bit; Stereo

TOC of the extracted CD

Track | Start | Length | Start sector | End sector
---------------------------------------------------------
1 | 0:00.00 | 1:20.62 | 0 | 6061
2 | 1:20.62 | 2:16.68 | 6062 | 16329
3 | 3:37.55 | 0:45.72 | 16330 | 19776
4 | 4:23.52 | 0:54.35 | 19777 | 23861
5 | 5:18.12 | 2:10.38 | 23862 | 33649
6 | 7:28.50 | 2:18.30 | 33650 | 44029
7 | 9:47.05 | 1:52.37 | 44030 | 52466
8 | 11:39.42 | 1:17.05 | 52467 | 58246
9 | 12:56.47 | 2:01.73 | 58247 | 67394
10 | 14:58.45 | 2:01.70 | 67395 | 76539
11 | 17:00.40 | 1:32.55 | 76540 | 83494
12 | 18:33.20 | 3:31.50 | 83495 | 99369
13 | 22:04.70 | 2:24.45 | 99370 | 110214
14 | 24:29.40 | 1:45.70 | 110215 | 118159
15 | 26:15.35 | 1:38.32 | 118160 | 125541
16 | 27:53.67 | 5:13.38 | 125542 | 149054

Range status and errors

Selected range

Filename E:\NoFX Lossless [torrents.ru]\1997 - So Long And Thanks For All The Shoes\NoFX - So Long And Thanks For All The Shoes.wav

Peak level 99.9 %
Range quality 99.9 %
Copy CRC DE7084BA
Copy OK

No errors occurred

End of status report
REM DATE 1997 
REM DISCID BD07C310
REM COMMENT "ExactAudioCopy v0.99pb4"
PERFORMER "NoFX"
TITLE "So Long And Thanks For All The Shoes"
FILE "NoFX - So Long And Thanks For All The Shoes.flac" WAVE
TRACK 01 AUDIO
TITLE "It's My Job To Keep Punk Rock Elite"
PERFORMER "NoFX"
INDEX 01 00:00:00
TRACK 02 AUDIO
TITLE "Kids Of The K-Hole"
PERFORMER "NoFX"
INDEX 01 01:20:62
TRACK 03 AUDIO
TITLE "Murder The Government"
PERFORMER "NoFX"
INDEX 01 03:37:55
TRACK 04 AUDIO
TITLE "Monosyllabic Girl"
PERFORMER "NoFX"
INDEX 01 04:23:52
TRACK 05 AUDIO
TITLE "180 Degrees"
PERFORMER "NoFX"
INDEX 01 05:18:12
TRACK 06 AUDIO
TITLE "All His Suits Are Torn"
PERFORMER "NoFX"
INDEX 01 07:28:50
TRACK 07 AUDIO
TITLE "All Outta Angst"
PERFORMER "NoFX"
INDEX 01 09:47:05
TRACK 08 AUDIO
TITLE "I'm Telling Tim"
PERFORMER "NoFX"
INDEX 01 11:39:42
TRACK 09 AUDIO
TITLE "Champs Elysees"
PERFORMER "NoFX"
INDEX 01 12:56:47
TRACK 10 AUDIO
TITLE "Dad's Bad News"
PERFORMER "NoFX"
INDEX 01 14:58:45
TRACK 11 AUDIO
TITLE "Kill Rock Stars"
PERFORMER "NoFX"
INDEX 01 17:00:40
TRACK 12 AUDIO
TITLE "Eat The Meek"
PERFORMER "NoFX"
INDEX 01 18:33:20
TRACK 13 AUDIO
TITLE "The Desperation's Gone"
PERFORMER "NoFX"
INDEX 00 22:03:65
INDEX 01 22:04:70
TRACK 14 AUDIO
TITLE "Flossing A Dead Horse"
PERFORMER "NoFX"
INDEX 01 24:29:40
TRACK 15 AUDIO
TITLE "Quart In Session"
PERFORMER "NoFX"
INDEX 01 26:15:35
TRACK 16 AUDIO
TITLE "Falling In Love"
PERFORMER "NoFX"
INDEX 01 27:53:67
01. And Now For Something Completely Similar (0:58)
02. Take Two Placebos And Call Me Lame (2:25)
03. What's The Matter With Parents Today? (1:58)
04. Dinosaurs Will Die (2:59)
05. Thank God It's Monday (1:39)
06. Clams Have Feelings Too (Actually They Don't) (2:32)
07. Louise (1:50)
08. Stranger Than Fishin (1:06)
09. Pharmacist's Daughter (1:59)
10. Bottles To The Ground (2:20)
11. Total Bummer (2:13)
12. My Vagina (2:37)
13. Herojuana (2:46)
14. Theme From A NoFX Album (4:17)
Exact Audio Copy V0.99 prebeta 4 from 23. January 2008 

EAC extraction logfile from 12. June 2008, 14:24

NoFX / Pump Up The Valuum

Used drive : Optiarc DVD RW AD-7173A Adapter: 1 ID: 1

Read mode : Secure
Utilize accurate stream : Yes
Defeat audio cache : Yes
Make use of C2 pointers : No

Read offset correction : 48
Overread into Lead-In and Lead-Out : No
Fill up missing offset samples with silence : Yes
Delete leading and trailing silent blocks : No
Null samples used in CRC calculations : Yes
Used interface : Installed external ASPI interface

Used output format : Internal WAV Routines
Sample format : 44.100 Hz; 16 Bit; Stereo

TOC of the extracted CD

Track | Start | Length | Start sector | End sector
---------------------------------------------------------
1 | 0:00.00 | 0:58.00 | 0 | 4349
2 | 0:58.00 | 2:25.35 | 4350 | 15259
3 | 3:23.35 | 1:58.00 | 15260 | 24109
4 | 5:21.35 | 2:58.43 | 24110 | 37502
5 | 8:20.03 | 1:39.25 | 37503 | 44952
6 | 9:59.28 | 2:32.32 | 44953 | 56384
7 | 12:31.60 | 1:49.48 | 56385 | 64607
8 | 14:21.33 | 1:05.42 | 64608 | 69524
9 | 15:27.00 | 1:58.38 | 69525 | 78412
10 | 17:25.38 | 2:20.25 | 78413 | 88937
11 | 19:45.63 | 2:13.15 | 88938 | 98927
12 | 21:59.03 | 2:36.50 | 98928 | 110677
13 | 24:35.53 | 2:46.20 | 110678 | 123147
14 | 27:21.73 | 4:17.00 | 123148 | 142422

Range status and errors

Selected range

Filename C:\Documents and Settings\KARASPUNK\Рабочий стол\Pump Up The Valuum [FLAC.EAC.LOG.CUE.SFV]\NoFX - Pump Up The Valuum.wav

Peak level 98.8 %
Range quality 100.0 %
Copy CRC 4809A17E
Copy OK

No errors occurred

End of status report
REM GENRE "Punk Rock" 
REM DATE 2000
REM DISCID 9E076A0E
REM COMMENT "ExactAudioCopy v0.99pb4"
PERFORMER "NoFX"
TITLE "Pump Up The Valuum"
FILE "NoFX - Pump Up The Valuum.flac" WAVE
TRACK 01 AUDIO
TITLE "And Now For Something Completely Similar"
PERFORMER "NoFX"
INDEX 01 00:00:00
TRACK 02 AUDIO
TITLE "Take Two Placebos And Call Me Lame"
PERFORMER "NoFX"
INDEX 01 00:58:00
TRACK 03 AUDIO
TITLE "What's The Matter With Parents Today?"
PERFORMER "NoFX"
INDEX 01 03:23:35
TRACK 04 AUDIO
TITLE "Dinosaurs Will Die"
PERFORMER "NoFX"
INDEX 01 05:21:35
TRACK 05 AUDIO
TITLE "Thank God It's Monday"
PERFORMER "NoFX"
INDEX 01 08:20:03
TRACK 06 AUDIO
TITLE "Clams Have Feelings Too (Actually They Don't)"
PERFORMER "NoFX"
INDEX 01 09:59:28
TRACK 07 AUDIO
TITLE "Louise"
PERFORMER "NoFX"
INDEX 01 12:31:60
TRACK 08 AUDIO
TITLE "Stranger Than Fishin"
PERFORMER "NoFX"
INDEX 01 14:21:33
TRACK 09 AUDIO
TITLE "Pharmacist's Daughter"
PERFORMER "NoFX"
INDEX 01 15:27:00
TRACK 10 AUDIO
TITLE "Bottles To The Ground"
PERFORMER "NoFX"
INDEX 01 17:25:38
TRACK 11 AUDIO
TITLE "Total Bummer"
PERFORMER "NoFX"
INDEX 01 19:45:63
TRACK 12 AUDIO
TITLE "My Vagina"
PERFORMER "NoFX"
INDEX 01 21:59:03
TRACK 13 AUDIO
TITLE "Herojuana"
PERFORMER "NoFX"
INDEX 01 24:35:53
TRACK 14 AUDIO
TITLE "Theme From A NoFX Album"
PERFORMER "NoFX"
INDEX 00 27:20:48
INDEX 01 27:21:73
01. The Separation Of Church And Skate (3:10)
02. The Irrationality Of Rationality (2:32)
03. Franco Un-American (2:25)
04. Idiots Are Taking Over (3:23)
05. She's Nubs (2:05)
06. Mattersville (2:29)
07. Decom-Posuer (2:54)
08. Medio-Core (3:05)
09. Anarchy Camp (2:54)
10. American Errorist (I Hate Hate Haters) (1:52)
11. We Got Two Jealous Agains (2:04)
12. 13 Stitches (1:55)
13. Re-Gaining Unconsciousness (2:39)
14. Whoops, I OD'd (2:50)
Exact Audio Copy V0.99 prebeta 4 from 23. January 2008 

EAC extraction logfile from 17. October 2008, 19:57

NoFX / The War On Errorism

Used drive : ASUS CRW-5232AS Adapter: 1 ID: 0

Read mode : Secure
Utilize accurate stream : Yes
Defeat audio cache : Yes
Make use of C2 pointers : No

Read offset correction : 6
Overread into Lead-In and Lead-Out : No
Fill up missing offset samples with silence : Yes
Delete leading and trailing silent blocks : No
Null samples used in CRC calculations : Yes
Used interface : Installed external ASPI interface

Used output format : Internal WAV Routines
Sample format : 44.100 Hz; 16 Bit; Stereo

TOC of the extracted CD

Track | Start | Length | Start sector | End sector
---------------------------------------------------------
1 | 0:00.00 | 3:09.55 | 0 | 14229
2 | 3:09.55 | 2:32.05 | 14230 | 25634
3 | 5:41.60 | 2:25.35 | 25635 | 36544
4 | 8:07.20 | 3:22.40 | 36545 | 51734
5 | 11:29.60 | 2:05.00 | 51735 | 61109
6 | 13:34.60 | 2:28.72 | 61110 | 72281
7 | 16:03.57 | 2:54.35 | 72282 | 85366
8 | 18:58.17 | 3:05.03 | 85367 | 99244
9 | 22:03.20 | 2:53.52 | 99245 | 112271
10 | 24:56.72 | 1:51.40 | 112272 | 120636
11 | 26:48.37 | 2:03.38 | 120637 | 129899
12 | 28:52.00 | 1:55.32 | 129900 | 138556
13 | 30:47.32 | 2:39.10 | 138557 | 150491
14 | 33:26.42 | 2:49.40 | 150492 | 163206
15 | 38:48.07 | 17:18.60 | 174607 | 252516

Range status and errors

Selected range

Filename E:\NoFX Lossless [torrents.ru]\2003 - The War On Errorism\NoFX - The War On Errorism.wav

Peak level 100.0 %
Range quality 99.9 %
Copy CRC A3B6FD39
Copy OK

No errors occurred

End of status report
REM DATE 2003 
REM DISCID C50D260F
REM COMMENT "ExactAudioCopy v0.99pb4"
PERFORMER "NoFX"
TITLE "The War On Errorism"
FILE "NoFX - The War On Errorism.flac" WAVE
TRACK 01 AUDIO
TITLE "The Separation Of Church And Skate"
PERFORMER "NoFX"
INDEX 01 00:00:00
TRACK 02 AUDIO
TITLE "The Irrationality Of Rationality"
PERFORMER "NoFX"
INDEX 01 03:09:55
TRACK 03 AUDIO
TITLE "Franco Un-American"
PERFORMER "NoFX"
INDEX 01 05:41:60
TRACK 04 AUDIO
TITLE "Idiots Are Taking Over"
PERFORMER "NoFX"
INDEX 01 08:07:20
TRACK 05 AUDIO
TITLE "She's Nubs"
PERFORMER "NoFX"
INDEX 00 11:28:57
INDEX 01 11:29:60
TRACK 06 AUDIO
TITLE "Mattersville"
PERFORMER "NoFX"
INDEX 01 13:34:60
TRACK 07 AUDIO
TITLE "Decom-Posuer"
PERFORMER "NoFX"
INDEX 01 16:03:57
TRACK 08 AUDIO
TITLE "Medio-Core"
PERFORMER "NoFX"
INDEX 00 18:57:05
INDEX 01 18:58:17
TRACK 09 AUDIO
TITLE "Anarchy Camp"
PERFORMER "NoFX"
INDEX 01 22:03:20
TRACK 10 AUDIO
TITLE "American Errorist (I Hate Hate Haters)"
PERFORMER "NoFX"
INDEX 01 24:56:72
TRACK 11 AUDIO
TITLE "We Got Two Jealous Agains"
PERFORMER "NoFX"
INDEX 01 26:48:37
TRACK 12 AUDIO
TITLE "13 Stitches"
PERFORMER "NoFX"
INDEX 01 28:52:00
TRACK 13 AUDIO
TITLE "Re-Gaining Unconsciousness"
PERFORMER "NoFX"
INDEX 01 30:47:32
TRACK 14 AUDIO
TITLE "Whoops, I OD'd"
PERFORMER "NoFX"
INDEX 00 33:23:37
INDEX 01 33:26:42
01. 60% (2:25)
02. USA-holes (2:14)
03. Seeing Double At The Triple Rock (2:10)
04. We March To The Beat Of Indifferent Drum (2:38)
05. The Marxist Brothers (2:44)
06. The Man I Killed (1:19)
07. Benny Got Blowed Up (1:05)
08. Leaving Jesusland (2:54)
09. Getting High On The Down Low (1:14)
10. Cool And Unusual Punishment (2:05)
11. Wolves In Wolves' Clothing (1:57)
12. Cantado En Espanol (1:27)
13. 100 Times Fuckeder (1:57)
14. Instant Crassic (0:35)
15. You Will Lose Faith (2:32)
16. One Celled Creature (1:32)
17. Doornails (2:15)
18. 60% (Reprise) (1:54)
19. Hidden Track (11:29)
Exact Audio Copy V0.99 prebeta 4 from 23. January 2008 

EAC extraction logfile from 9. July 2008, 23:46

NoFX / Wolves In Wolves' Clothing (CD 1)

Used drive : ASUS CRW-5232AS Adapter: 1 ID: 0

Read mode : Secure
Utilize accurate stream : Yes
Defeat audio cache : Yes
Make use of C2 pointers : No

Read offset correction : 6
Overread into Lead-In and Lead-Out : No
Fill up missing offset samples with silence : Yes
Delete leading and trailing silent blocks : No
Null samples used in CRC calculations : Yes
Used interface : Installed external ASPI interface

Used output format : Internal WAV Routines
Sample format : 44.100 Hz; 16 Bit; Stereo

TOC of the extracted CD

Track | Start | Length | Start sector | End sector
---------------------------------------------------------
1 | 0:00.00 | 2:25.27 | 0 | 10901
2 | 2:25.27 | 2:13.70 | 10902 | 20946
3 | 4:39.22 | 2:09.50 | 20947 | 30671
4 | 6:48.72 | 2:38.08 | 30672 | 42529
5 | 9:27.05 | 2:43.72 | 42530 | 54826
6 | 12:11.02 | 1:18.60 | 54827 | 60736
7 | 13:29.62 | 1:05.03 | 60737 | 65614
8 | 14:34.65 | 2:54.17 | 65615 | 78681
9 | 17:29.07 | 1:13.70 | 78682 | 84226
10 | 18:43.02 | 2:05.10 | 84227 | 93611
11 | 20:48.12 | 1:57.15 | 93612 | 102401
12 | 22:45.27 | 1:26.38 | 102402 | 108889
13 | 24:11.65 | 1:57.35 | 108890 | 117699
14 | 26:09.25 | 0:34.62 | 117700 | 120311
15 | 26:44.12 | 2:31.65 | 120312 | 131701
16 | 29:16.02 | 1:31.68 | 131702 | 138594
17 | 30:47.70 | 2:14.65 | 138595 | 148709
18 | 33:02.60 | 1:54.05 | 148710 | 157264
19 | 34:56.65 | 11:29.02 | 157265 | 208941

Range status and errors

Selected range

Filename C:\Documents and Settings\KARASPUNK\Рабочий стол\2006 - Wolves In Wolves' Clothing\CD 1\NoFX - Wolves In Wolves' Clothing (CD 1).wav

Peak level 97.7 %
Range quality 100.0 %
Copy CRC 25ACE196
Copy OK

No errors occurred

End of status report
REM DATE 2006 
REM DISCID 040AE113
REM COMMENT "ExactAudioCopy v0.99pb4"
PERFORMER "NoFX"
TITLE "Wolves In Wolves' Clothing (CD 1)"
FILE "NoFX - Wolves In Wolves' Clothing (CD 1).flac" WAVE
TRACK 01 AUDIO
TITLE "60%"
PERFORMER "NoFX"
INDEX 01 00:00:00
TRACK 02 AUDIO
TITLE "USA-holes"
PERFORMER "NoFX"
INDEX 01 02:25:27
TRACK 03 AUDIO
TITLE "Seeing Double At The Triple Rock"
PERFORMER "NoFX"
INDEX 01 04:39:22
TRACK 04 AUDIO
TITLE "We March To The Beat Of Indifferent Drum"
PERFORMER "NoFX"
INDEX 01 06:48:72
TRACK 05 AUDIO
TITLE "The Marxist Brothers"
PERFORMER "NoFX"
INDEX 01 09:27:05
TRACK 06 AUDIO
TITLE "The Man I Killed"
PERFORMER "NoFX"
INDEX 01 12:11:02
TRACK 07 AUDIO
TITLE "Benny Got Blowed Up"
PERFORMER "NoFX"
INDEX 01 13:29:62
TRACK 08 AUDIO
TITLE "Leaving Jesusland"
PERFORMER "NoFX"
INDEX 01 14:34:65
TRACK 09 AUDIO
TITLE "Getting High On The Down Low"
PERFORMER "NoFX"
INDEX 01 17:29:07
TRACK 10 AUDIO
TITLE "Cool And Unusual Punishment"
PERFORMER "NoFX"
INDEX 01 18:43:02
TRACK 11 AUDIO
TITLE "Wolves In Wolves' Clothing"
PERFORMER "NoFX"
INDEX 01 20:48:12
TRACK 12 AUDIO
TITLE "Cantado En Espanol"
PERFORMER "NoFX"
INDEX 01 22:45:27
TRACK 13 AUDIO
TITLE "100 Times Fuckeder"
PERFORMER "NoFX"
INDEX 01 24:11:65
TRACK 14 AUDIO
TITLE "Instant Crassic"
PERFORMER "NoFX"
INDEX 01 26:09:25
TRACK 15 AUDIO
TITLE "You Will Lose Faith"
PERFORMER "NoFX"
INDEX 01 26:44:12
TRACK 16 AUDIO
TITLE "One Celled Creature"
PERFORMER "NoFX"
INDEX 01 29:16:02
TRACK 17 AUDIO
TITLE "Doornails"
PERFORMER "NoFX"
INDEX 01 30:47:70
TRACK 18 AUDIO
TITLE "60% (Reprise)"
PERFORMER "NoFX"
INDEX 01 33:02:60
TRACK 19 AUDIO
TITLE "Hidden Track"
PERFORMER "NoFX"
INDEX 01 34:56:65
01. 100K (2:45)
02. Jane (2:56)
03. Ring Of Fire = 4 Points (2:32)
04. Burn Guelph Burn (2:49)
05. Under My Feet (2:26)
06. You Suck! But Your Peanut Butter Is OK (1:43)
07. The Devil's Takin' Names (2:01)
08. Like A Record Player (2:02)
09. California's Burning (2:29)
10. Filter (1:53)
11. Bombs Over Brooklyn (3:24)
12. Pray For Me (2:24)
13. Charged Words (1:34)
14. Mailer, Meet Jim (1:38)
15. Out Of Mind (2:22)
16. Shame (1:49)
Exact Audio Copy V0.99 prebeta 4 from 23. January 2008 

EAC extraction logfile from 10. July 2008, 0:42

Various / Wolves In Wolves' Clothing (CD 2: Free Fat Sampler)

Used drive : ASUS CRW-5232AS Adapter: 1 ID: 0

Read mode : Secure
Utilize accurate stream : Yes
Defeat audio cache : Yes
Make use of C2 pointers : No

Read offset correction : 6
Overread into Lead-In and Lead-Out : No
Fill up missing offset samples with silence : Yes
Delete leading and trailing silent blocks : No
Null samples used in CRC calculations : Yes
Used interface : Installed external ASPI interface

Used output format : Internal WAV Routines
Sample format : 44.100 Hz; 16 Bit; Stereo

TOC of the extracted CD

Track | Start | Length | Start sector | End sector
---------------------------------------------------------
1 | 0:00.00 | 2:44.47 | 0 | 12346
2 | 2:44.47 | 2:55.45 | 12347 | 25516
3 | 5:40.17 | 2:31.48 | 25517 | 36889
4 | 8:11.65 | 2:48.40 | 36890 | 49529
5 | 11:00.30 | 2:25.52 | 49530 | 60456
6 | 13:26.07 | 1:42.38 | 60457 | 68144
7 | 15:08.45 | 2:00.57 | 68145 | 77201
8 | 17:09.27 | 2:02.08 | 77202 | 86359
9 | 19:11.35 | 2:29.19 | 86360 | 97553
10 | 21:40.54 | 1:53.31 | 97554 | 106059
11 | 23:34.10 | 3:24.20 | 106060 | 121379
12 | 26:58.30 | 2:24.32 | 121380 | 132211
13 | 29:22.62 | 1:33.58 | 132212 | 139244
14 | 30:56.45 | 1:37.60 | 139245 | 146579
15 | 32:34.30 | 2:21.45 | 146580 | 157199
16 | 34:56.00 | 1:48.47 | 157200 | 165346

Range status and errors

Selected range

Filename C:\Documents and Settings\KARASPUNK\Рабочий стол\2006 - Wolves In Wolves' Clothing\CD 2_ Free Fat Sampler\Various - Wolves In Wolves' Clothing (CD 2 Free Fat Sampler).wav

Peak level 93.3 %
Range quality 100.0 %
Copy CRC 916E7CC9
Copy OK

No errors occurred

End of status report
REM DATE 2006 
REM DISCID CA089C10
REM COMMENT "ExactAudioCopy v0.99pb4"
PERFORMER "Various"
TITLE "Wolves In Wolves' Clothing (CD 2: Free Fat Sampler)"
FILE "Various - Wolves In Wolves' Clothing (CD 2 Free Fat Sampler).flac" WAVE
TRACK 01 AUDIO
TITLE "100K"
PERFORMER "The Loved Ones"
FLAGS DCP
INDEX 01 00:00:00
TRACK 02 AUDIO
TITLE "Jane "
PERFORMER "The Loved Ones"
FLAGS DCP
INDEX 01 02:44:47
TRACK 03 AUDIO
TITLE "Ring Of Fire = 4 Points"
PERFORMER "The Sainte Catherines"
FLAGS DCP
INDEX 01 05:40:17
TRACK 04 AUDIO
TITLE "Burn Guelph Burn"
PERFORMER "The Sainte Catherines"
FLAGS DCP
INDEX 01 08:11:65
TRACK 05 AUDIO
TITLE "Under My Feet"
PERFORMER "None More Black"
FLAGS DCP
INDEX 01 11:00:30
TRACK 06 AUDIO
TITLE "You Suck! But Your Peanut Butter Is OK"
PERFORMER "None More Black"
FLAGS DCP
INDEX 01 13:26:07
TRACK 07 AUDIO
TITLE "The Devil's Takin' Names"
PERFORMER "The Lawrence Arms"
FLAGS DCP
INDEX 01 15:08:45
TRACK 08 AUDIO
TITLE "Like A Record Player"
PERFORMER "The Lawrence Arms"
FLAGS DCP
INDEX 01 17:09:27
TRACK 09 AUDIO
TITLE "California's Burning"
PERFORMER "Smoke Or Fire"
FLAGS DCP
INDEX 01 19:11:35
TRACK 10 AUDIO
TITLE "Filter"
PERFORMER "Smoke Or Fire"
FLAGS DCP
INDEX 01 21:40:54
TRACK 11 AUDIO
TITLE "Bombs Over Brooklyn"
PERFORMER "Love Equals Death"
FLAGS DCP
INDEX 01 23:34:10
TRACK 12 AUDIO
TITLE "Pray For Me"
PERFORMER "Love Equals Death"
FLAGS DCP
INDEX 01 26:58:30
TRACK 13 AUDIO
TITLE "Charged Words"
PERFORMER "Western Addiction"
FLAGS DCP
INDEX 01 29:22:62
TRACK 14 AUDIO
TITLE "Mailer, Meet Jim"
PERFORMER "Western Addiction"
FLAGS DCP
INDEX 01 30:56:45
TRACK 15 AUDIO
TITLE "Out Of Mind"
PERFORMER "Good Riddance"
FLAGS DCP
INDEX 01 32:34:30
TRACK 16 AUDIO
TITLE "Shame"
PERFORMER "Good Riddance"
FLAGS DCP
INDEX 01 34:56:00
01. We Called It America (2:08)
02. The Quitter (1:52)
03. First Call (2:34)
04. My Orphan Year (2:59)
05. Blasphemy (The Victimless Crime) (2:54)
06. Creeping Out Sara (2:46)
07. Eddie, Bruce and Paul (3:53)
08. Best God in Show (3:30)
09. Suits and Ladders (2:26)
10. The Agony of Victory (2:08)
11. I Am an Alcoholic (2:37)
12. One Million Coasters (?)
Exact Audio Copy V0.99 prebeta 4 from 23. January 2008 

Отчёт EAC об извлечении, выполненном 15. мая 2009, 20:38

NOFX / Coaster

Дисковод: Optiarc DVD RW AD-7203A Adapter: 4 ID: 0

Режим чтения : Достоверность
Использование точного потока : Да
Отключение кэша аудио : Да
Использование указателей C2 : Нет

Коррекция смещения при чтении : 48
Способность читать области Lead-in и Lead-out : Нет
Заполнение пропущенных сэмплов тишиной : Да
Удаление блоков с тишиной в начале и конце : Нет
При вычислениях CRC использовались нулевые сэмплы : Да
Интерфейс : Встроенный Win32-интерфейс для Win NT/2000

Выходной формат : Внутренние WAV-операции
Формат сэмплов : 44.100 Гц; 16 бит; стерео

TOC извлечённого CD

Трек | Старт | Длительность | Начальный сектор | Конечный сектор
---------------------------------------------------------------------
1 | 0:00.00 | 2:07.64 | 0 | 9588
2 | 2:07.64 | 1:51.72 | 9589 | 17985
3 | 3:59.61 | 2:33.48 | 17986 | 29508
4 | 6:33.34 | 2:59.31 | 29509 | 42964
5 | 9:32.65 | 2:53.74 | 42965 | 56013
6 | 12:26.64 | 2:45.49 | 56014 | 68437
7 | 15:12.38 | 3:53.17 | 68438 | 85929
8 | 19:05.55 | 3:29.41 | 85930 | 101645
9 | 22:35.21 | 2:25.60 | 101646 | 112580
10 | 25:01.06 | 2:07.46 | 112581 | 122151
11 | 27:08.52 | 2:36.56 | 122152 | 133907
12 | 29:45.33 | 3:09.07 | 133908 | 148089

Характеристики диапазона извлечения и сообщения об ошибках

Выбранный диапазон

Имя файла D:\NOFX - Coaster.wav

Пиковый уровень 98.8 %
Качество диапазона 100.0 %
CRC копии 0741BBA8
Копирование... OK

Ошибок не произошло

Конец отчёта
REM GENRE "Punk Rock" 
REM DATE 2009
REM DISCID 9E07B60C
REM COMMENT "ExactAudioCopy v0.99pb4"
PERFORMER "NOFX"
TITLE "Coaster"
FILE "NOFX - Coaster.wav" WAVE
TRACK 01 AUDIO
TITLE "We Called It America"
PERFORMER "NOFX"
INDEX 01 00:00:00
TRACK 02 AUDIO
TITLE "The Quitter"
PERFORMER "NOFX"
INDEX 01 02:07:64
TRACK 03 AUDIO
TITLE "First Call"
PERFORMER "NOFX"
INDEX 01 03:59:61
TRACK 04 AUDIO
TITLE "My Orphan Year"
PERFORMER "NOFX"
INDEX 01 06:33:34
TRACK 05 AUDIO
TITLE "Blasphemy (The Victimless Crime)"
PERFORMER "NOFX"
INDEX 01 09:32:65
TRACK 06 AUDIO
TITLE "Creeping Out Sara"
PERFORMER "NOFX"
INDEX 01 12:26:64
TRACK 07 AUDIO
TITLE "Eddie, Bruce and Paul"
PERFORMER "NOFX"
INDEX 01 15:12:38
TRACK 08 AUDIO
TITLE "Best God in Show"
PERFORMER "NOFX"
INDEX 01 19:05:55
TRACK 09 AUDIO
TITLE "Suits and Ladders"
PERFORMER "NOFX"
INDEX 01 22:35:21
TRACK 10 AUDIO
TITLE "The Agony of Victory"
PERFORMER "NOFX"
INDEX 01 25:01:06
TRACK 11 AUDIO
TITLE "I Am an Alcoholic"
PERFORMER "NOFX"
INDEX 01 27:08:52
TRACK 12 AUDIO
TITLE "One Million Coasters "
PERFORMER "NOFX"
INDEX 01 29:45:33
01. 72 Hookers (3:36)
02. I Believe In Goddess (1:35)
03. Ronnie & Mags (2:09)
04. She Didn't Lose Her Baby (2:56)
05. Secret Society (2:53)
06. I,Fatty (1:36)
07. Cell Out (2:03)
08. Down With The Ship (2:23)
09. My Sycophant Others (2:46)
10. This Machine Is 4 (2:07)
11. I've Got One Jealous Again,Again (3:02)
12. Xmas Has Been X'ed (2:44)
X Lossless Decoder version 20110821 (136.1) 

XLD extraction logfile from 2012-09-11 20:19:19 -0700

NOFX / Self/Entitled

Used drive : PIONEER DVD-RW DVR-112D (revision 1.21)

Ripper mode : XLD Secure Ripper
Disable audio cache : OK for the drive with a cache less than 1375KiB
Make use of C2 pointers : NO
Read offset correction : 48
Max retry count : 100
Gap status : Analyzed, Appended

TOC of the extracted CD
Track | Start | Length | Start sector | End sector
---------------------------------------------------------
1 | 00:00:00 | 03:36:12 | 0 | 16211
2 | 03:36:12 | 01:34:55 | 16212 | 23316
3 | 05:10:67 | 02:09:18 | 23317 | 33009
4 | 07:20:10 | 02:56:34 | 33010 | 46243
5 | 10:16:44 | 02:53:16 | 46244 | 59234
6 | 13:09:60 | 01:35:70 | 59235 | 66429
7 | 14:45:55 | 02:02:56 | 66430 | 75635
8 | 16:48:36 | 02:23:25 | 75636 | 86385
9 | 19:11:61 | 02:46:34 | 86386 | 98869
10 | 21:58:20 | 02:07:03 | 98870 | 108397
11 | 24:05:23 | 03:02:34 | 108398 | 122081
12 | 27:07:57 | 02:43:71 | 122082 | 134377

AccurateRip Summary
Disc not found in AccurateRip DB.

All Tracks
Album gain : -10.44 dB
Peak : 0.944092
Statistics
Read error : 0
Jitter error (maybe fixed) : 0
Retry sector count : 0
Damaged sector count : 0

Track 01
Filename : /Users/daveyjones/Desktop/! NEW RIPS/01 72 Hookers.flac
Pre-gap length : 00:02:00

Track gain : -10.52 dB
Peak : 0.944092
CRC32 hash (test run) : 894C7D78
CRC32 hash : 894C7D78
CRC32 hash (skip zero) : 0967891C
AccurateRip signature : B378BF73
->Track not present in AccurateRip database.
Statistics
Read error : 0
Jitter error (maybe fixed) : 0
Retry sector count : 0
Damaged sector count : 0

Track 02
Filename : /Users/daveyjones/Desktop/! NEW RIPS/02 I Believe In Goddess.flac

Track gain : -10.01 dB
Peak : 0.944092
CRC32 hash (test run) : FF7EE1F3
CRC32 hash : FF7EE1F3
CRC32 hash (skip zero) : 253A2E4C
AccurateRip signature : 5940E4B9
->Track not present in AccurateRip database.
Statistics
Read error : 0
Jitter error (maybe fixed) : 0
Retry sector count : 0
Damaged sector count : 0

Track 03
Filename : /Users/daveyjones/Desktop/! NEW RIPS/03 Ronnie & Mags.flac

Track gain : -10.73 dB
Peak : 0.944092
CRC32 hash (test run) : A72AA88F
CRC32 hash : A72AA88F
CRC32 hash (skip zero) : BC1D69F2
AccurateRip signature : A4D0619B
->Track not present in AccurateRip database.
Statistics
Read error : 0
Jitter error (maybe fixed) : 0
Retry sector count : 0
Damaged sector count : 0

Track 04
Filename : /Users/daveyjones/Desktop/! NEW RIPS/04 She Didn't Lose Her Baby.flac

Track gain : -10.50 dB
Peak : 0.944092
CRC32 hash (test run) : 1961C41D
CRC32 hash : 1961C41D
CRC32 hash (skip zero) : FA894580
AccurateRip signature : 1B97C61D
->Track not present in AccurateRip database.
Statistics
Read error : 0
Jitter error (maybe fixed) : 0
Retry sector count : 0
Damaged sector count : 0

Track 05
Filename : /Users/daveyjones/Desktop/! NEW RIPS/05 Secret Society.flac

Track gain : -10.28 dB
Peak : 0.944092
CRC32 hash (test run) : 9C26586D
CRC32 hash : 9C26586D
CRC32 hash (skip zero) : 75765EEE
AccurateRip signature : 4031F605
->Track not present in AccurateRip database.
Statistics
Read error : 0
Jitter error (maybe fixed) : 0
Retry sector count : 0
Damaged sector count : 0

Track 06
Filename : /Users/daveyjones/Desktop/! NEW RIPS/06 I,Fatty.flac

Track gain : -10.73 dB
Peak : 0.944092
CRC32 hash (test run) : 35FE0944
CRC32 hash : 35FE0944
CRC32 hash (skip zero) : 87643BA8
AccurateRip signature : 57C13871
->Track not present in AccurateRip database.
Statistics
Read error : 0
Jitter error (maybe fixed) : 0
Retry sector count : 0
Damaged sector count : 0

Track 07
Filename : /Users/daveyjones/Desktop/! NEW RIPS/07 Cell Out.flac

Track gain : -10.33 dB
Peak : 0.944092
CRC32 hash (test run) : 7F2BFFA6
CRC32 hash : 7F2BFFA6
CRC32 hash (skip zero) : 9579518B
AccurateRip signature : 5DD13662
->Track not present in AccurateRip database.
Statistics
Read error : 0
Jitter error (maybe fixed) : 0
Retry sector count : 0
Damaged sector count : 0

Track 08
Filename : /Users/daveyjones/Desktop/! NEW RIPS/08 Down With The Ship.flac

Track gain : -10.60 dB
Peak : 0.944092
CRC32 hash (test run) : C8DEF3B0
CRC32 hash : C8DEF3B0
CRC32 hash (skip zero) : 9A1D6195
AccurateRip signature : E1AC22D8
->Track not present in AccurateRip database.
Statistics
Read error : 0
Jitter error (maybe fixed) : 0
Retry sector count : 0
Damaged sector count : 0

Track 09
Filename : /Users/daveyjones/Desktop/! NEW RIPS/09 My Sycophant Others.flac

Track gain : -10.74 dB
Peak : 0.944092
CRC32 hash (test run) : E9FFEB8F
CRC32 hash : E9FFEB8F
CRC32 hash (skip zero) : 27FDB63C
AccurateRip signature : 27FCE7D1
->Track not present in AccurateRip database.
Statistics
Read error : 0
Jitter error (maybe fixed) : 0
Retry sector count : 0
Damaged sector count : 0

Track 10
Filename : /Users/daveyjones/Desktop/! NEW RIPS/10 This Machine Is 4.flac

Track gain : -10.45 dB
Peak : 0.944092
CRC32 hash (test run) : E11ED2B0
CRC32 hash : E11ED2B0
CRC32 hash (skip zero) : ED7FAE49
AccurateRip signature : DD4286BA
->Track not present in AccurateRip database.
Statistics
Read error : 0
Jitter error (maybe fixed) : 0
Retry sector count : 0
Damaged sector count : 0

Track 11
Filename : /Users/daveyjones/Desktop/! NEW RIPS/11 I've Got One Jealous Again,Again.flac

Track gain : -9.84 dB
Peak : 0.944092
CRC32 hash (test run) : 4E0B3A4D
CRC32 hash : 4E0B3A4D
CRC32 hash (skip zero) : 1412E763
AccurateRip signature : A47FB909
->Track not present in AccurateRip database.
Statistics
Read error : 0
Jitter error (maybe fixed) : 0
Retry sector count : 0
Damaged sector count : 0

Track 12
Filename : /Users/daveyjones/Desktop/! NEW RIPS/12 Xmas Has Been X'ed.flac

Track gain : -9.77 dB
Peak : 0.944092
CRC32 hash (test run) : D61D21AB
CRC32 hash : D61D21AB
CRC32 hash (skip zero) : 2BBCBEEB
AccurateRip signature : C0D169B8
->Track not present in AccurateRip database.
Statistics
Read error : 0
Jitter error (maybe fixed) : 0
Retry sector count : 0
Damaged sector count : 0

No errors occurred

End of status report
TITLE "Self/Entitled" 
PERFORMER "NOFX"
REM GENRE "Punk"
REM DATE "2012"
REM DISCID 8806FF0C
REM REPLAYGAIN_ALBUM_GAIN -10.44 dB
REM REPLAYGAIN_ALBUM_PEAK 0.944092
FILE "01 72 Hookers.flac" WAVE
TRACK 01 AUDIO
TITLE "72 Hookers"
ISRC USFW41277701
REM REPLAYGAIN_TRACK_GAIN -10.52 dB
REM REPLAYGAIN_TRACK_PEAK 0.944092
INDEX 01 00:00:00
FILE "02 I Believe In Goddess.flac" WAVE
TRACK 02 AUDIO
TITLE "I Believe In Goddess"
ISRC USFW41277702
REM REPLAYGAIN_TRACK_GAIN -10.01 dB
REM REPLAYGAIN_TRACK_PEAK 0.944092
INDEX 01 00:00:00
FILE "03 Ronnie & Mags.flac" WAVE
TRACK 03 AUDIO
TITLE "Ronnie & Mags"
ISRC USFW41277703
REM REPLAYGAIN_TRACK_GAIN -10.73 dB
REM REPLAYGAIN_TRACK_PEAK 0.944092
INDEX 01 00:00:00
FILE "04 She Didn't Lose Her Baby.flac" WAVE
TRACK 04 AUDIO
TITLE "She Didn't Lose Her Baby"
ISRC USFW41277704
REM REPLAYGAIN_TRACK_GAIN -10.50 dB
REM REPLAYGAIN_TRACK_PEAK 0.944092
INDEX 01 00:00:00
FILE "05 Secret Society.flac" WAVE
TRACK 05 AUDIO
TITLE "Secret Society"
ISRC USFW41277705
REM REPLAYGAIN_TRACK_GAIN -10.28 dB
REM REPLAYGAIN_TRACK_PEAK 0.944092
INDEX 01 00:00:00
FILE "06 I, Fatty.flac" WAVE
TRACK 06 AUDIO
TITLE "I,Fatty"
ISRC USFW41277706
REM REPLAYGAIN_TRACK_GAIN -10.73 dB
REM REPLAYGAIN_TRACK_PEAK 0.944092
INDEX 01 00:00:00
FILE "07 Cell Out.flac" WAVE
TRACK 07 AUDIO
TITLE "Cell Out"
ISRC USFW41277707
REM REPLAYGAIN_TRACK_GAIN -10.33 dB
REM REPLAYGAIN_TRACK_PEAK 0.944092
INDEX 01 00:00:00
FILE "08 Down With The Ship.flac" WAVE
TRACK 08 AUDIO
TITLE "Down With The Ship"
ISRC USFW41277708
REM REPLAYGAIN_TRACK_GAIN -10.60 dB
REM REPLAYGAIN_TRACK_PEAK 0.944092
INDEX 01 00:00:00
FILE "09 My Sycophant Others.flac" WAVE
TRACK 09 AUDIO
TITLE "My Sycophant Others"
ISRC USFW41277709
REM REPLAYGAIN_TRACK_GAIN -10.74 dB
REM REPLAYGAIN_TRACK_PEAK 0.944092
INDEX 01 00:00:00
FILE "10 This Machine Is 4.flac" WAVE
TRACK 10 AUDIO
TITLE "This Machine Is 4"
ISRC USFW41277710
REM REPLAYGAIN_TRACK_GAIN -10.45 dB
REM REPLAYGAIN_TRACK_PEAK 0.944092
INDEX 01 00:00:00
FILE "11 I've Got One Jealous Again, Again.flac" WAVE
TRACK 11 AUDIO
TITLE "I've Got One Jealous Again,Again"
ISRC USFW41277711
REM REPLAYGAIN_TRACK_GAIN -9.84 dB
REM REPLAYGAIN_TRACK_PEAK 0.944092
INDEX 01 00:00:00
FILE "12 Xmas Has Been X'ed.flac" WAVE
TRACK 12 AUDIO
TITLE "Xmas Has Been X'ed"
ISRC USFW41277712
REM REPLAYGAIN_TRACK_GAIN -9.77 dB
REM REPLAYGAIN_TRACK_PEAK 0.944092
INDEX 01 00:00:00
info [Профиль]  [ЛС] 

happyrodger

Пол: Пол:Муж

Стаж: 7 лет 2 месяца

Сообщений: 54

Рейтинг

post 08-Июл-2013 01:04 (спустя 8 часов) [-]0[+]

[Цитировать] 

спасибо конечно, но на вскидку здесь отсутствует как минимум половина материала...
info [Профиль]  [ЛС] 

The Royal

Пол: Пол:Муж

Стаж: 6 лет 11 месяцев

Сообщений: 652

Россия
Рейтинг

post 09-Июл-2013 09:29 (спустя 1 день 8 часов) [-]0[+]

[Цитировать] 

R39Custom, синглы, песни из которых присутствуют в альбомах?
info [Профиль]  [ЛС] 

RtTrid

Пол: Пол:Муж

Стаж: 2 года 6 месяцев

Сообщений: 1

Рейтинг

post 20-Май-2014 22:24 (спустя 10 месяцев 11 дней) [-]0[+]

[Цитировать] 

The Royal писал(а):

R39Custom, синглы, песни из которых присутствуют в альбомах?
Чего стоет 7-дюймовок, часть которых не присутствует ни на одном альбоме, плюс два лайва, плюс компиляции "неизданного" материала, которого нет ни на одном альбоме, и отсутсвует "альбом" Maximum Rock'n'roll
info [Профиль]  [ЛС] 
Показать сообщения:    
Ответить на тему

Текущее время: 05-Дек 00:23

Часовой пояс: GMT + 4



Вы не можете начинать темы
Вы не можете отвечать на сообщения
Вы не можете редактировать свои сообщения
Вы не можете удалять свои сообщения
Вы не можете голосовать в опросах
Вы не можете прикреплять файлы к сообщениям
Вы не можете скачивать файлы