Ошибка

Вечеринка мёртвых: пропавшая запись | Corpse Party: Missing Footage [OVA][2012][приключения][DVDRip][Любительский(JAP+SUB)]

Ответить на тему
 
Автор Сообщение

BlackHorror

Пол: Пол:Муж

Стаж: 3 года 9 месяцев

Сообщений: 654

Рейтинг

post 28-Июн-2013 16:46 0[+]

[Цитировать] 

Вечеринка мёртвых: пропавшая запись
Corpse Party: Missing Footage | コープスパーティー Missing Footage

Оригинальное Название: コープスパーティー Missing Footage
Английское Название: Corpse Party: Missing Footage
Год выпуска: 2012
Страна:
Жанр: приключения
Продолжительность: OVA (1 эп.), 12 мин.
Перевод: Любительский(Двухголосый) [DemonOFmooN & MezIdA] | Субтитры RUS: ASS [Iby,Nesitach,Stan WarHammer]
Режиссёр: Иванага Акира / Iwanaga Akira / 岩永彰
Автор оригинала: Кэдоин Макото / Kedouin Makoto / 祁答院慎
Студия:
Описание:

    Сюжет крутится вокруг группы школьников, которые решили провести обряд, чтобы скрепить свою дружбу навечно. Однако они вызывают злого духа, который в прошлом многих убил, а одна из жертв стала призраком, блуждающим в школе.
Качество:DVDRip
Формат:MKV
Тип видео: Без хардсаба
Видео: H.264(Hi10p), 720х480, 2400 kbps, 23.976 fps, 16:9, High 10@L4.1
Аудио#1: AC-3, 2 channels, 48 kHz, 192 kbps [RUS - DemonOFmooN & MezIdA]
Аудио#2: AC-3, 2 channels, 48 kHz, 192 kbps [JAP]
Релиз от:
General
Format : Matroska
File size : 219 MiB
Duration : 10mn 59s
Overall bit rate : 2 783 Kbps
Encoded date : UTC 2012-08-29 23:27:08
Writing application : mkvmerge v5.7.0 ('The Whirlwind') built on Jul 8 2012 20:08:51
Writing library : libebml v1.2.3 + libmatroska v1.3.0

Video
ID : 1
Format : AVC
Format/Info : Advanced Video Codec
Format profile : High 10@L4.1
Format settings, CABAC : Yes
Format settings, ReFrames : 16 frames
Muxing mode : Container profile=Unknown@4.1
Codec ID : V_MPEG4/ISO/AVC
Duration : 10mn 59s
Bit rate : 2 400 Kbps
Width : 720 pixels
Height : 480 pixels
Display aspect ratio : 16:9
Original display aspect ratio : 16:9
Frame rate : 23.976 fps
Standard : NTSC
Color space : YUV
Chroma subsampling : 4:2:0
Bit depth : 10 bits
Scan type : Progressive
Bits/(Pixel*Frame) : 0.290
Stream size : 184 MiB (84%)
Writing library : x264 core 125 r2200 999b753
Encoding settings : cabac=1 / ref=16 / deblock=1:-1:-1 / analyse=0x3:0x133 / me=umh / subme=9 / psy=1 / psy_rd=1.00:0.00 / mixed_ref=1 / me_range=16 / chroma_me=1 / trellis=2 / 8x8dct=1 / cqm=0 / deadzone=21,11 / fast_pskip=1 / chroma_qp_offset=-2 / threads=3 / lookahead_threads=1 / sliced_threads=0 / nr=0 / decimate=0 / interlaced=0 / bluray_compat=0 / constrained_intra=0 / bframes=5 / b_pyramid=2 / b_adapt=2 / b_bias=0 / direct=3 / weightb=1 / open_gop=0 / weightp=2 / keyint=250 / keyint_min=23 / scenecut=40 / intra_refresh=0 / rc=2pass / mbtree=0 / bitrate=2400 / ratetol=1.0 / qcomp=0.60 / qpmin=10 / qpmax=51 / qpstep=4 / cplxblur=0.0 / qblur=0.5 / ip_ratio=1.40 / pb_ratio=1.30 / aq=1:1.00

Audio #1
ID : 2
Format : AC-3
Format/Info : Audio Coding 3
Mode extension : CM (complete main)
Codec ID : A_AC3
Duration : 10mn 59s
Bit rate mode : Constant
Bit rate : 192 Kbps
Channel(s) : 2 channels
Channel positions : Front: L R
Sampling rate : 48.0 KHz
Stream size : 15.1 MiB (7%)
Title : DemonOFmooN, MezIdA
Language : Russian

Audio #2
ID : 3
Format : AC-3
Format/Info : Audio Coding 3
Mode extension : CM (complete main)
Codec ID : A_AC3
Duration : 10mn 59s
Bit rate mode : Constant
Bit rate : 192 Kbps
Channel(s) : 2 channels
Channel positions : Front: L R
Sampling rate : 48.0 KHz
Stream size : 15.1 MiB (7%)
Title : Original
Language : Japanese

Text #1
ID : 4
Format : ASS
Codec ID : S_TEXT/ASS
Codec ID/Info : Advanced Sub Station Alpha
Title : только надписи

Text #2
ID : 5
Format : ASS
Codec ID : S_TEXT/ASS
Codec ID/Info : Advanced Sub Station Alpha
Title : полный перевод
info [Профиль]  [ЛС] 

BlackHorror

Пол: Пол:Муж

Стаж: 3 года 9 месяцев

Сообщений: 654

Рейтинг

post 28-Июн-2013 16:52 (спустя 5 минут) [-]0[+]

[Цитировать] 

Помимо "Пропавшей записи" планируется Tortured Souls. Показ намечен на 24.07.2013
OVA основана на консольной серии игр Corpse Party, скачать их вы можете здесь

_________________
info [Профиль]  [ЛС] 

precentor frost

Пол: Пол:Муж

Стаж: 7 лет 8 месяцев

Сообщений: 669

Рейтинг

post 28-Июн-2013 17:47 (спустя 55 минут) [-]0[+]

[Цитировать] 

Цитата:

  • Все скриншоты должны быть в формате .PNG и представлены в виде превью, и сняты с источника раздаваемого.
  • Запрещается перекодировать скриншоты из формата .JPG в .PNG.

_________________
Cилы добра, света и справедливости - это три совершенно разные фракции.
info [Профиль]  [ЛС] 

BlackHorror

Пол: Пол:Муж

Стаж: 3 года 9 месяцев

Сообщений: 654

Рейтинг

post 28-Июн-2013 18:19 (спустя 31 минута) [-]0[+]

[Цитировать] 

precentor frost
Готово anime_63

_________________
info [Профиль]  [ЛС] 

teshigawara1

Пол: Пол:Муж

Стаж: 3 года 11 месяцев

Сообщений: 42

Россия
Рейтинг

post 29-Июн-2013 14:42 (спустя 20 часов) [-]0[+]

[Цитировать] 

Чото мало, для затравки что ли сделали
info [Профиль]  [ЛС] 

BlackHorror

Пол: Пол:Муж

Стаж: 3 года 9 месяцев

Сообщений: 654

Рейтинг

post 29-Июн-2013 14:48 (спустя 5 минут) [-]0[+]

[Цитировать] 

teshigawara1 писал(а):

Чото мало, для затравки что ли сделали
Этот выпуск шел как бонус к игре. К концу следующего месяца будет уже более-менее "Полноценная" история транслироваться =)

_________________
info [Профиль]  [ЛС] 
Показать сообщения:    
Ответить на тему

Текущее время: 06-Дек 18:14

Часовой пояс: GMT + 4



Вы не можете начинать темы
Вы не можете отвечать на сообщения
Вы не можете редактировать свои сообщения
Вы не можете удалять свои сообщения
Вы не можете голосовать в опросах
Вы не можете прикреплять файлы к сообщениям
Вы не можете скачивать файлы