Ошибка

Монстры на каникулах 3D(Генндий Тартаковский) [Вертикальная анаморфная стереопара] / Hotel Transylvania 3D (Genndy Tartakovsky ) [Half OverUnd] [BDRip, Мультфильм, фэнтези, комедия, семейный, 1080p]

Ответить на тему
 
Автор Сообщение

zayatz

Пол: Пол:Муж

Стаж: 3 года 10 месяцев

Сообщений: 530

Россия
Рейтинг

post 24-Июн-2013 10:47 0[+]

[Цитировать] 

Монстры на каникулах 3D /Hotel Transylvania 3D
«Будет страшно смешно»

Год выпуска: 2012
Страна: США
Жанр: мультфильм, фэнтези, комедия, семейный
Продолжительность: 01:31:31
Перевод: Профессиональный (полное дублирование)
Язык субтитров: русские, английские
Режиссер: Генндий Тартаковский
Сценарий: Питер Бейнхэм, Роберт Шмигель, Тодд Дархэм
Продюссер: Мишель Мурдокка, Лидия Боттегони, Адам Сэндлер
Художник: Марсело Винали, Рон Лукас, Ноэль Тиоро
Компазитор: Марк Мазерсбо
В ролях:
  • Адам Сэндлер, Энди Сэмберг, Селена Гомес, Кевин Джеймс, Фрэн Дрешер, Стив Бушеми, Молли Шеннон, Дэвид Спейд, Си-Ло, Джон Ловиц


Роли озвучивали:
  • Сергей Бурунов, Александр Пушной, Полина Гагарина, Михаил Шац, Ирина Савина

Описание:Граф Дракула для себя и своей любимой дочки построил хорошо укрытый от посторонних глаз отель, куда монстры со всего света приезжают отдохнуть от семейных забот, повседневной суеты и, конечно… людей. Но вездесущие американские туристы проникают и сюда.
Сборы:
Бюджет $85 000 000
сборы в США $148 313 048
сборы в мире + $198 590 736 = $346 903 784
сборы в России $15 937 997
DVD в США $45 412 373

Качество:BDRip
Формат :MKV
Видео кодек:H.264
Аудио кодек:AC3
Видео: 1920 x 1080 (16:9) at 23.976 fps, AVC MPEG4(x264), High@L4.1, at 12.3 Мbps avg, 0.247 bit/pixel
Аудио №1: 48 kHz, AC3 Dolby Digital, 3/2 (L,C,R,l,r) + LFE ch, ~640 kbps | Русский (Дубляж, лицензия)
Аудио №2: 48 kHz, AC3 Dolby Digital, 3/2 (L,C,R,l,r) + LFE ch, ~640 kbps | Украинский (Дубляж, лицензия)
Аудио №3: 48 kHz, AC3 Dolby Digital, 3/2 (L,C,R,l,r) + LFE ch, ~640 kbps | Английский (Оригинал)


Общее
Полное имя : Монстры.на.каникулах-Hotel.Transylvania.(2012).[1080p].BDRip.[3D].mkv
Формат : Matroska
Размер файла : 9,08 Гбайт
Продолжительность : 1 ч. 31 м.
Общий поток : 14,2 Мбит/сек
Дата кодирования : UTC 2013-01-26 12:20:35
Программа кодирования : mkvmerge v5.7.0 ('The Whirlwind') built on Aug 7 2012 14:11:40
Библиотека кодирования : libebml v1.2.3 + libmatroska v1.3.0

Видео
Идентификатор : 1
Формат : AVC
Формат/Информация : Advanced Video Codec
Профиль формата : High@L4.1
Параметр CABAC формата : Да
Параметр ReFrames формата : 4 кадры
Идентификатор кодека : V_MPEG4/ISO/AVC
Продолжительность : 1 ч. 31 м.
Битрейт : 12,3 Мбит/сек
Ширина : 1920 пикс.
Высота : 1080 пикс.
Соотношение сторон : 16:9
Частота кадров : 23,976 кадр/сек
Цветовое пространство : YUV
Подвыборка цветности : 4:2:0
Битовая глубина : 8 бит
Тип развёртки : Прогрессивная
Бит/(Пиксели*Кадры) : 0.247
Размер потока : 7,68 Гбайт (84%)
Библиотека кодирования : x264 core 129 r2230 1cffe9f
Настройки программы : cabac=1 / ref=4 / deblock=1:-2:-2 / analyse=0x3:0x113 / me=tesa / subme=11 / psy=1 / psy_rd=0.90:0.00 / mixed_ref=1 / me_range=48 / chroma_me=1 / trellis=2 / 8x8dct=1 / cqm=0 / deadzone=21,11 / fast_pskip=0 / chroma_qp_offset=-2 / threads=12 / lookahead_threads=2 / sliced_threads=0 / nr=0 / decimate=0 / interlaced=0 / bluray_compat=0 / constrained_intra=0 / bframes=8 / b_pyramid=2 / b_adapt=2 / b_bias=0 / direct=3 / weightb=1 / open_gop=0 / weightp=2 / keyint=250 / keyint_min=23 / scenecut=40 / intra_refresh=0 / rc=2pass / mbtree=0 / bitrate=12300 / ratetol=1.0 / qcomp=0.60 / qpmin=0 / qpmax=69 / qpstep=4 / cplxblur=20.0 / qblur=0.5 / frame-packing=4 / ip_ratio=1.40 / pb_ratio=1.30 / aq=1:0.70
Язык : English

Аудио #1
Идентификатор : 2
Формат : AC-3
Формат/Информация : Audio Coding 3
Расширение режима : CM (complete main)
Идентификатор кодека : A_AC3
Продолжительность : 1 ч. 31 м.
Вид битрейта : Постоянный
Битрейт : 640 Кбит/сек
Канал(ы) : 6 канала(ов)
Расположение каналов : Front: L C R, Side: L R, LFE
Частота : 48,0 КГц
Битовая глубина : 16 бит
Метод сжатия : С потерями
Размер потока : 419 Мбайт (5%)
Заголовок : AC3 5.1 / Rus BD CEE
Язык : Russian

Аудио #2
Идентификатор : 3
Формат : AC-3
Формат/Информация : Audio Coding 3
Расширение режима : CM (complete main)
Идентификатор кодека : A_AC3
Продолжительность : 1 ч. 31 м.
Вид битрейта : Постоянный
Битрейт : 640 Кбит/сек
Канал(ы) : 6 канала(ов)
Расположение каналов : Front: L C R, Side: L R, LFE
Частота : 48,0 КГц
Битовая глубина : 16 бит
Метод сжатия : С потерями
Размер потока : 419 Мбайт (5%)
Заголовок : AC3 5.1 / Ukr BD CEE
Язык : Ukrainian

Аудио #3
Идентификатор : 4
Формат : AC-3
Формат/Информация : Audio Coding 3
Расширение режима : CM (complete main)
Идентификатор кодека : A_AC3
Продолжительность : 1 ч. 31 м.
Вид битрейта : Постоянный
Битрейт : 640 Кбит/сек
Канал(ы) : 6 канала(ов)
Расположение каналов : Front: L C R, Side: L R, LFE
Частота : 48,0 КГц
Битовая глубина : 16 бит
Метод сжатия : С потерями
Размер потока : 419 Мбайт (5%)
Заголовок : AC3 5.1 / Original BD CEE
Язык : English

Текст #1
Идентификатор : 5
Формат : UTF-8
Идентификатор кодека : S_TEXT/UTF8
Идентификатор кодека/Информация : UTF-8 Plain Text
Заголовок : Full BD
Язык : Russian

Текст #2
Идентификатор : 6
Формат : UTF-8
Идентификатор кодека : S_TEXT/UTF8
Идентификатор кодека/Информация : UTF-8 Plain Text
Заголовок : Full BD
Язык : English

Меню
00:00:00.000 : en:00:00:00.000
00:04:49.372 : en:00:04:49.372
00:10:23.790 : en:00:10:23.790
00:14:19.275 : en:00:14:19.275
00:19:25.498 : en:00:19:25.498
00:25:11.218 : en:00:25:11.218
00:29:49.413 : en:00:29:49.413
00:35:50.815 : en:00:35:50.815
00:41:11.636 : en:00:41:11.636
00:46:29.537 : en:00:46:29.537
00:53:50.227 : en:00:53:50.227
00:57:44.795 : en:00:57:44.795
01:04:15.268 : en:01:04:15.268
01:08:48.499 : en:01:08:48.499
01:15:20.599 : en:01:15:20.599
01:18:50.643 : en:01:18:50.643
info [Профиль]  [ЛС] 

misatoKOD

Пол: Пол:Жен

Стаж: 6 лет 7 месяцев

Сообщений: 7

Россия
Рейтинг

post 23-Мар-2014 20:08 (спустя 8 месяцев 29 дней) [-]0[+]

[Цитировать] 

дайте скорости (kolob140)
info [Профиль]  [ЛС] 
Показать сообщения:    
Ответить на тему

Текущее время: 08-Дек 13:52

Часовой пояс: GMT + 4



Вы не можете начинать темы
Вы не можете отвечать на сообщения
Вы не можете редактировать свои сообщения
Вы не можете удалять свои сообщения
Вы не можете голосовать в опросах
Вы не можете прикреплять файлы к сообщениям
Вы не можете скачивать файлы