Ошибка

Metallica: Orion Music Festival 2012: The Black Album [2012 г., Thrash Metal, HDTV 1080i]

Ответить на тему
 
Автор Сообщение

The Buzzhorn

Пол: Пол:Муж

Стаж: 6 лет 2 месяца

Сообщений: 901

Германия
Рейтинг

post 06-Май-2013 15:01 1[+]

[Цитировать] 


Orion Music Festival 2012: The Black Album

Год выпуска: 2012
Жанр: Thrash Metal
Происхождение исполнителя: USA
Продолжительность: 02:13:00
Треклист:
01. Hit the Lights
02. Master of Puppets
03. Fuel
04. For Whom the Bell Tolls
05. The Shortest Straw
06. The Struggle Within
07. My Friend of Misery
08. The God That Failed
09. Of Wolf and Man
10. Nothing Else Matters
11. Through the Never
12. Don't Tread on Me
13. Wherever I May Roam
14. The Unforgiven
15. Holier Than Thou
16. Sad But True
17. Enter Sandman
18. Blackened
19. One
20. Seek & Destroy

Цитата:

Американская метал-группа Metallica, отметившая в конце прошлого года 30-летие и выпустившая неоднозначный альбом с Лу Ридом, основали фестиваль “Orion Music and More”, который состоялся 23 и 24 июня 2012 года в Атлантик-Сити, Нью-Джерси на территории Бадер Филд , где до 2006 года располагался аэропорт. Хедлайнерами фестиваля стали его основатели. В этот вечер Metallica исполнила целиком альбом «The Black Album» 1991 года.

Происхождение видео: HDTV 1080i
Формат: TS
Видео кодек: MPEG2
Данные видео: 1920x1080 (16:9) at 29.970 fps, ~17.87 Mbps avg
Аудио кодек: MP2
Данные аудио: MPEG Audio 2.0 (48 kHz / 384 kbps)

Код:

General
ID                                       : 1 (0x1)
Complete name                            : Metallica - Orion Music Festival 2012 - The Black Album 1080i HDTV 18 Mbps DD2.0 MPEG2-TrollHD.ts
Format                                   : MPEG-TS
File size                                : 17.5 GiB
Duration                                 : 2h 13mn
Overall bit rate mode                    : Variable
Overall bit rate                         : 18.8 Mbps

Video
ID                                       : 308 (0x134)
Menu ID                                  : 1 (0x1)
Format                                   : MPEG Video
Format version                           : Version 2
Format profile                           : Main@High
Format settings, BVOP                    : Yes
Format settings, Matrix                  : Custom
Format settings, GOP                     : M=3, N=12
Codec ID                                 : 2
Duration                                 : 2h 13mn
Bit rate mode                            : Variable
Bit rate                                 : 17.4 Mbps
Maximum bit rate                         : 17.9 Mbps
Width                                    : 1 920 pixels
Height                                   : 1 080 pixels
Display aspect ratio                     : 16:9
Frame rate                               : 29.970 fps
Standard                                 : Component
Color space                              : YUV
Chroma subsampling                       : 4:2:0
Bit depth                                : 8 bits
Scan type                                : Interlaced
Scan order                               : Top Field First
Compression mode                         : Lossy
Bits/(Pixel*Frame)                       : 0.281
Stream size                              : 16.2 GiB (93%)

Audio
ID                                       : 256 (0x100)
Menu ID                                  : 1 (0x1)
Format                                   : MPEG Audio
Format version                           : Version 1
Format profile                           : Layer 2
Codec ID                                 : 3
Duration                                 : 2h 13mn
Bit rate mode                            : Constant
Bit rate                                 : 384 Kbps
Channel(s)                               : 2 channels
Sampling rate                            : 48.0 KHz
Compression mode                         : Lossy
Delay relative to video                  : 9ms
Stream size                              : 366 MiB (2%)
Language                                 : English


info [Профиль]  [ЛС] 

Tahakaro

Пол: Пол:Муж

Стаж: 7 лет 4 месяца

Сообщений: 139

Россия
Рейтинг

post 06-Май-2013 17:03 (спустя 2 часа 2 минуты) [-]0[+]

[Цитировать] 

Чет кач-во по скриншотам не ахти Грущу

_________________
info [Профиль]  [ЛС] 

Mr Spock

Пол: Пол:Муж

Стаж: 5 лет 5 месяцев

Сообщений: 144

Антарктида
Рейтинг

post 06-Май-2013 20:07 (спустя 3 часа) [-]0[+]

[Цитировать] 

Фига себе Ларс упитанный какой О_о

_________________
info [Профиль]  [ЛС] 

Gloomy Angel

Пол: Пол:Муж

Стаж: 4 года 1 месяц

Сообщений: 170

США
Рейтинг

post 06-Май-2013 21:22 (спустя 1 час 15 минут) [-]0[+]

[Цитировать] 

Mr Spock писал(а):

Фига себе Ларс упитанный какой О_о
возраст берет своё
info [Профиль]  [ЛС] 

Pendalf23

Пол: Пол:Муж

Стаж: 5 лет 1 месяц

Сообщений: 50

Россия
Рейтинг

post 06-Май-2013 21:56 (спустя 33 минуты) [-]0[+]

[Цитировать] 

И звук 2.0 фу
У метлы вообще 5.1 есть?
info [Профиль]  [ЛС] 

Mr Spock

Пол: Пол:Муж

Стаж: 5 лет 5 месяцев

Сообщений: 144

Антарктида
Рейтинг

post 07-Май-2013 20:48 (спустя 22 часа) [-]0[+]

[Цитировать] 

Gloomy Angel писал(а):

Mr Spock писал(а):

Фига себе Ларс упитанный какой О_о
возраст берет своё
Скорее образ жизни. Хэтфилд вон даже на скринах бодрячком.

_________________
info [Профиль]  [ЛС] 

redgard1987

Пол: Пол:Муж

Стаж: 3 года 9 месяцев

Сообщений: 3

Россия
Рейтинг

post 10-Сен-2016 08:28 (спустя 3 года 4 месяца) [-]0[+]

[Цитировать] 

Встаньте пожалуйста на раздачу, кто-нибудь, очень хочется глянуть.
info [Профиль]  [ЛС] 
Показать сообщения:    
Ответить на тему

Текущее время: 04-Дек 18:11

Часовой пояс: GMT + 4



Вы не можете начинать темы
Вы не можете отвечать на сообщения
Вы не можете редактировать свои сообщения
Вы не можете удалять свои сообщения
Вы не можете голосовать в опросах
Вы не можете прикреплять файлы к сообщениям
Вы не можете скачивать файлы