Ошибка

До окончания фрилича осталось:


Хранители снов 3D [Горизонтальная анаморфная стереопара] / Rise of the Guardians 3D [Half Side-by-Side] (Питер Рэмси) [2012, мультфильм, фэнтези, приключения, семейный, BDRip 3D 1080p] 2хDUB(rus,ukr)

Ответить на тему
 
Автор Сообщение

zayatz

Пол: Пол:Муж

Стаж: 3 года 10 месяцев

Сообщений: 530

Россия
Рейтинг

post 04-Май-2013 11:03 1[+]

[Цитировать] 

Хранители снов 3D / Rise of the Guardians 3D

Год выпуска: 2012
Страна: США
Жанр: мультфильм, фэнтези, приключения, семейный
Продолжительность: 01:37:11
Перевод: Профессиональный (полное дублирование)
Язык субтитров: русские (Captions), русские, украинские (Captions), украинские, английские, английские (SDH), английские (Commentary)
Режиссер:Питер Рэмси
Сценарий:Дэвид Линдси-Эбейр, Уильям Джойс
Композитор:Александр Депла
ХудожникПатрик Ханенбергер, Макс Боас
В ролях:
  • Крис Пайн, Алек Болдуин, Джуд Лоу, Айла Фишер, Хью Джекман, Дакота Гойо, Хамани Гриффин, Камиль МакФедден, Джорджи Грив, Эмили Нордвинд
Роли озвучивали:
  • Тимур Родригез,Александр Новиков,Сергей Смирнов,Кристина Асмус,Даниил Эльдаров

Описание:Когда злой дух Кромешник посягает на самое дорогое — детские мечты, Северянин, Ледяной Джек, Кролик, Зубная Фея и Песочный Человек впервые объединяются, чтобы создать команду Хранителей снов…

Качество: Blu-ray Rip
Формат: MKV
Видео кодек: H.264
Аудио кодек: AC3
Видео: 1920 x 1080 (16:9) at 23.976 fps, AVC at 10,1 Мbps avg, 0.202 bit/pixel
Аудио:
Аудио# 1: Русский: 48 kHz, DTS, 3/2 (L,C,R,l,r) + LFE ch, ~1536.00 kbps avg | Дубляж |
Аудио# 2: Украинский: 48 kHz, AC3, 3/2 (L,C,R,l,r) + LFE ch, ~640.00 kbps avg | Дубляж |
Аудио# 3: Английский: 48 kHz, DTS, 3/2 (L,C,R,l,r) + LFE ch, ~1536.00 kbps avg | Оригинал |
Аудио# 4: Английский: 48 kHz, AC3, 2/0 (L,R) ch, ~224.00 kbps avg | Commentary |
РЕЙТИНГИ

Общее
Полное имя : Rise.of.the.Guardians.2012.1080p.3D.BluRay.Half-SBS.Rus.Ukr.2xEng.HDCLUB.mkv
Формат : Matroska
Размер файла : 9,66 Гбайт
Продолжительность : 1 ч. 37 м.
Общий поток : 14,2 Мбит/сек
Название фильма : Rise of the Guardians (2012) - Release for HDCLUB
Дата кодирования : UTC 2013-03-22 08:53:19
Программа кодирования : mkvmerge v3.4.0 ('Rapunzel') built on May 15 2010 09:38:20
Библиотека кодирования : libebml v0.8.0 + libmatroska v0.9.0
Обложка : Yes

Видео
Идентификатор : 1
Формат : AVC
Формат/Информация : Advanced Video Codec
Профиль формата : High@L4.1
Параметр CABAC формата : Да
Параметр ReFrames формата : 4 кадры
Параметры GOP формата : M=7, N=24
Идентификатор кодека : V_MPEG4/ISO/AVC
Продолжительность : 1 ч. 37 м.
Битрейт : 10,1 Мбит/сек
Ширина : 1920 пикс.
Высота : 1080 пикс.
Соотношение сторон : 16:9
Частота кадров : 23,976 кадр/сек
Цветовое пространство : YUV
Подвыборка цветности : 4:2:0
Битовая глубина : 8 бит
Тип развёртки : Прогрессивная
Бит/(Пиксели*Кадры) : 0.202
Размер потока : 6,83 Гбайт (71%)
Заголовок : Release for HDCLUB
Библиотека кодирования : x264 core 129 r2245 bc13772
Настройки программы : cabac=1 / ref=4 / deblock=1:-3:-3 / analyse=0x3:0x113 / me=umh / subme=9 / psy=1 / psy_rd=1.00:0.15 / mixed_ref=1 / me_range=16 / chroma_me=1 / trellis=1 / 8x8dct=1 / cqm=0 / deadzone=21,11 / fast_pskip=1 / chroma_qp_offset=-3 / threads=12 / lookahead_threads=2 / sliced_threads=0 / nr=0 / decimate=1 / interlaced=0 / bluray_compat=0 / constrained_intra=0 / bframes=6 / b_pyramid=2 / b_adapt=1 / b_bias=0 / direct=3 / weightb=1 / open_gop=0 / weightp=2 / keyint=250 / keyint_min=23 / scenecut=40 / intra_refresh=0 / rc_lookahead=40 / rc=crf / mbtree=1 / crf=18.0 / qcomp=0.60 / qpmin=10 / qpmax=69 / qpstep=4 / vbv_maxrate=40000 / vbv_bufsize=30000 / crf_max=0.0 / nal_hrd=none / ip_ratio=1.40 / aq=1:1.00
Язык : English

Аудио #1
Идентификатор : 2
Формат : DTS
Формат/Информация : Digital Theater Systems
Идентификатор кодека : A_DTS
Продолжительность : 1 ч. 37 м.
Вид битрейта : Постоянный
Битрейт : 1510 Кбит/сек
Канал(ы) : 6 канала(ов)
Расположение каналов : Front: L C R, Side: L R, LFE
Частота : 48,0 КГц
Битовая глубина : 24 бит
Метод сжатия : С потерями
Задержка видео : 11 мс.
Размер потока : 1,03 Гбайт (11%)
Заголовок : DTS 5.1 @ 1536 kbps - Dub
Язык : Russian

Аудио #2
Идентификатор : 3
Формат : AC-3
Формат/Информация : Audio Coding 3
Расширение режима : CM (complete main)
Идентификатор кодека : A_AC3
Продолжительность : 1 ч. 37 м.
Вид битрейта : Постоянный
Битрейт : 640 Кбит/сек
Канал(ы) : 6 канала(ов)
Расположение каналов : Front: L C R, Side: L R, LFE
Частота : 48,0 КГц
Битовая глубина : 16 бит
Метод сжатия : С потерями
Задержка видео : 28 мс.
Размер потока : 445 Мбайт (4%)
Заголовок : AC3 5.1 @ 640 kbps - Dub
Язык : Ukrainian

Аудио #3
Идентификатор : 4
Формат : DTS
Формат/Информация : Digital Theater Systems
Идентификатор кодека : A_DTS
Продолжительность : 1 ч. 37 м.
Вид битрейта : Постоянный
Битрейт : 1510 Кбит/сек
Канал(ы) : 6 канала(ов)
Расположение каналов : Front: L C R, Side: L R, LFE
Частота : 48,0 КГц
Битовая глубина : 24 бит
Метод сжатия : С потерями
Задержка видео : 11 мс.
Размер потока : 1,03 Гбайт (11%)
Заголовок : DTS 5.1 @ 1536 kbps
Язык : English

Аудио #4
Идентификатор : 5
Формат : AC-3
Формат/Информация : Audio Coding 3
Расширение режима : CM (complete main)
Идентификатор кодека : A_AC3
Продолжительность : 1 ч. 37 м.
Вид битрейта : Постоянный
Битрейт : 224 Кбит/сек
Канал(ы) : 2 канала(ов)
Расположение каналов : Front: L R
Частота : 48,0 КГц
Битовая глубина : 16 бит
Метод сжатия : С потерями
Размер потока : 156 Мбайт (2%)
Заголовок : Commentary
Язык : English

Текст #1
Идентификатор : 6
Формат : UTF-8
Идентификатор кодека : S_TEXT/UTF8
Идентификатор кодека/Информация : UTF-8 Plain Text
Заголовок : Captions
Язык : Russian

Текст #2
Идентификатор : 7
Формат : UTF-8
Идентификатор кодека : S_TEXT/UTF8
Идентификатор кодека/Информация : UTF-8 Plain Text
Язык : Russian

Текст #3
Идентификатор : 8
Формат : UTF-8
Идентификатор кодека : S_TEXT/UTF8
Идентификатор кодека/Информация : UTF-8 Plain Text
Заголовок : Captions
Язык : Ukrainian

Текст #4
Идентификатор : 9
Формат : UTF-8
Идентификатор кодека : S_TEXT/UTF8
Идентификатор кодека/Информация : UTF-8 Plain Text
Язык : Ukrainian

Текст #5
Идентификатор : 10
Формат : UTF-8
Идентификатор кодека : S_TEXT/UTF8
Идентификатор кодека/Информация : UTF-8 Plain Text
Язык : English

Текст #6
Идентификатор : 11
Формат : UTF-8
Идентификатор кодека : S_TEXT/UTF8
Идентификатор кодека/Информация : UTF-8 Plain Text
Заголовок : SDH
Язык : English

Текст #7
Идентификатор : 12
Формат : UTF-8
Идентификатор кодека : S_TEXT/UTF8
Идентификатор кодека/Информация : UTF-8 Plain Text
Заголовок : Commentary
Язык : English

info [Профиль]  [ЛС] 
Показать сообщения:    
Ответить на тему

Текущее время: 10-Дек 07:17

Часовой пояс: GMT + 4



Вы не можете начинать темы
Вы не можете отвечать на сообщения
Вы не можете редактировать свои сообщения
Вы не можете удалять свои сообщения
Вы не можете голосовать в опросах
Вы не можете прикреплять файлы к сообщениям
Вы не можете скачивать файлы