Ошибка

BBC: Животные от А до Я \ Animals - A-Z (Дэвид Аттенборо) [2008., Научно-популярный сериал, SATRip]

Ответить на тему
 
Автор Сообщение

Kricti32

Пол: Пол:Жен

Стаж: 4 года 11 месяцев

Сообщений: 525

Предупреждений: 1

СССР
Рейтинг

post 29-Апр-2013 10:00 1[+]

[Цитировать] 

BBC: Животные от А до Я / Animals - A-Z

Год выпуска: 2008
Страна: Великобритания
Жанр: Научно-популярный сериал
Продолжительность: 16 x ~ 00:25:00
Перевод: Animal Planet Russia (Профессиональный)
Русские субтитры: отсутствуют
Студия: «BBC / Animal Planet»

Ведущий: Дэвид Аттенборо

Описание: Канал Animal Planet совместно с BBC выпустили новый цикл передач о животных нашей Планеты.

Доп. информация: В раздаче содержится полная(Законченая) версия передачи. Список серий - снизу под спойлером.

Качество: SatRip [исходник неизвестен]
Формат: AVI
Видео кодек: XviD
Аудио кодек: MP3
Видео: 640x496 (1.29:1), 25.000 fps, XviD build 50 ~1600 kbps avg, 0.20 bit/pixel
Аудио #1: 48 kHz, MPEG Layer 3, 2 ch, ~128.00 kbps avg (RUS)

  • 1.Бобры.
  • 2.Животные на Улицах.
  • 3.Чувствительные Скорпионы.
  • 4.Медведи на Черном Спуске.
  • 5.Драконы.
  • 6.Отцы-Победители.
  • 7.Дельфины - Глубокомыслящие Создания.
  • 8.Сапсан - Лучший Охотник Природы.
  • 9.Белки - Хватит ли им Выносливости.
  • 10.Цефалоподы - Вооружены и Очень Опасны.
  • 11.Техно-Волк.
  • 12.Кеа - Самые Сообразительные Птицы в Мире.
  • 13.Африканский Убийца.
  • 14.Антилопа-Гну - СуперСтадо.
  • 15.Король-Крокодил.
  • 16.Воины на Клешнях.
Общее
Полное имя : F(Disck 9):\Animal Planet_BBC_Животные от А до Я\AP_BBC_Животные от А до Я_01_Бобры.avi
Формат : AVI
Формат/Информация : Audio Video Interleave
Размер файла : 300 Мбайт
Продолжительность : 23 м.
Общий поток : 1766 Кбит/сек
Программа кодирования : VirtualDubMod 1.5.4.1 (build 2178/release)
Библиотека кодирования : VirtualDubMod build 2178/release

Видео
Идентификатор : 0
Формат : MPEG-4 Visual
Профиль формата : Advanced Simple@L5
Параметр BVOP формата : 1
Параметр QPel формата : Нет
Параметр GMC формата : Без точки перехода
Параметр матрицы формата : Выборочная
Идентификатор кодека : XVID
Идентификатор кодека/Подсказка : XviD
Продолжительность : 23 м.
Битрейт : 1631 Кбит/сек
Ширина : 640 пикселей
Высота : 496 пикселей
Соотношение сторон : 1,290
Частота кадров : 25,000 кадров/сек
Цветовое пространство : YUV
Субдискретизация насыщенности : 4:2:0
Битовая глубина : 8 бит
Тип развёртки : Прогрессивная
Метод сжатия : С потерями
Бит/(Пиксели*Кадры) : 0.206
Размер потока : 277 Мбайт (92%)
Библиотека кодирования : XviD 1.2.0.dev47 (UTC 2006-11-01)

Аудио
Идентификатор : 1
Формат : MPEG Audio
Версия формата : Version 1
Профиль формата : Layer 3
Режим : Joint stereo
Расширение режима : MS Stereo
Идентификатор кодека : 55
Идентификатор кодека/Подсказка : MP3
Продолжительность : 23 м.
Вид битрейта : Постоянный
Битрейт : 128 Кбит/сек
Каналы : 2 канала
Частота : 48,0 КГц
Метод сжатия : С потерями
Размер потока : 21,7 Мбайт (7%)
Выравнивание : Соединение по промежуткам
Продолжительность промежутка : 80 мс. (2,00 видеокадра)
Время предзагрузки промежутка : 504 мс.
Библиотека кодирования : LAME3.97
Настройки программы : -m j -V 4 -q 2 -lowpass 17 -b 128




info [Профиль]  [ЛС] 

TyT

Пол: Пол:Муж

Стаж: 5 лет 5 месяцев

Сообщений: 185

Россия
Рейтинг

post 30-Апр-2013 00:32 (спустя 14 часов) [-]-1[+]

[Цитировать] 

я ничего конечно, но было бы наверное не плохо если бы типо про кого серии, а не названия

_________________
Еще чу-чуть и достигну абсолютного нуля по Цельсию. Типо -273.....
info [Профиль]  [ЛС] 

Kricti32

Пол: Пол:Жен

Стаж: 4 года 11 месяцев

Сообщений: 525

Предупреждений: 1

СССР
Рейтинг

post 14-Май-2013 00:18 (спустя 13 дней) [-]0[+]

[Цитировать] 

TyT писал(а):

я ничего конечно, но было бы наверное не плохо если бы типо про кого серии, а не названия
Эм, ничего не поняла толком... Название серии говорит само за себя. А если и непонятно - можно посмотреть скриншоты.
info [Профиль]  [ЛС] 
Показать сообщения:    
Ответить на тему

Текущее время: 05-Дек 04:30

Часовой пояс: GMT + 4



Вы не можете начинать темы
Вы не можете отвечать на сообщения
Вы не можете редактировать свои сообщения
Вы не можете удалять свои сообщения
Вы не можете голосовать в опросах
Вы не можете прикреплять файлы к сообщениям
Вы не можете скачивать файлы