Ошибка

До окончания фрилича осталось:


Говорю же, у меня не встаёт / Dakara Boku wa, H ga Dekinai [TV][1-12 из 12][2012][приключения, мистика, этти, комедия][HDTVRip][Любительский(JAP+SUB)]

Ответить на тему
 
Автор Сообщение

wajllze

Пол: Пол:Муж

Стаж: 4 года

Сообщений: 69

Россия
Рейтинг

post 28-Мар-2013 14:14 1[+]

[Цитировать] 


Говорю же, у меня не встаёт / Dakara Boku wa, H ga Dekinai



Страна: Япония
Год выпуска: 2012 г.
Жанр: Приключения, Мистика, Этти, Комедия
Тип: TV (12 эп. по ~24 мин.)
Продолжительность: 12 эп.
Перевод:
- Озвучка:
Scout86, YukiKata (FanDub Group AOS)
*с 1 по 6 эп.
Scout86, Sayuri-chan (FanDub Group AOS)
*с 7 по 12 эп.
- Субтитры:
Nordshine (FanSub AOS)
*с 1 по 12 эп.
Режиссер: Такахаси Такэо
Студия: Feel
Описание: Молодая синигами, богиня смерти Лисара Ресталл является в мир людей, чтобы восстановить славу и влияние своего клана. В мире сериала синигами питаются чужой энергией, причем только избранные могут удовлетворить потребности высших существ. Найти такого партнера непросто, ведь душа большинства людей мелковата, в ней нет стержня, источника внутренней силы. Гостья не знала, что судьба, которая выше богов, уже приготовила ей сюрприз в лице простого парня по имени Рёсукэ Кага. А в чем сила простого 17-летнего японского школьника? Конечно же, в… воображении! В этой области Кага непобедимый чемпион, правда, большинство одноклассниц зовут его проще – извращенцем.
Да, Рёсукэ не святой, но его эротические мечты имеют такую силу, что гордая Лисара, скрепя сердце, согласилась на временный контракт, иначе ее миссия провалилась бы. Теперь они партнеры, и каждый получил от союза что-то свое: юная богиня начала лучше понимать окружающих, а земной парень стал меньше фантазировать и получил шанс среди приключений и битв «перейти к практике». Правда, цена может оказаться высокой, ибо, как открыла гостья, в Книге Судеб ее новому знакомому отпущено не больше трех месяцев жизни. Но ведь всякие там книги, что сценарии аниме: хорошо пойдет – можно и продолжение написать! © world-art
Качество: HDTVRip / Формат: MP4 / Тип видео: без хардсаба
Видео кодек: H.264
Аудио кодек: AAC
Видео: H.264; 1280x720 (16:9); ~1267Kbps, 24fps (vfr);
Аудио:
- Japanese: AAC; 48000Hz; 128Kbps (2ch);
- Russian 1-6: MP3; 48000Hz; 320Kbps;
- Russian 7-12: MP3; 48000Hz; 320Kbps;
Общее
Полное имя : H:\Videos\Anime - Говорю же, у меня не встает (Dakara Boku wa, H ga Dekinai)\01 Dakara Boku wa H ga Dekinai [1280x720]_[Scout86, YukiKata].mp4
Формат : MPEG-4
Профиль формата : Base Media
Идентификатор кодека : isom
Размер файла : 200 Мбайт
Продолжительность : 24 м.
Режим общего битрейта : Переменный
Общий поток : 1164 Кбит/сек
Дата кодирования : UTC 2012-07-06 13:36:23
Дата пометки : UTC 2012-07-06 13:36:23

Видео
Идентификатор : 1
Формат : AVC
Формат/Информация : Advanced Video Codec
Профиль формата : High@L4.1
Параметр CABAC формата : Да
Параметр ReFrames формата : 8 кадров
Идентификатор кодека : avc1
Идентификатор кодека/Информация : Advanced Video Coding
Продолжительность : 23 м.
Продолжительность оригинала : 23 м.
Битрейт : 1032 Кбит/сек
Номинальный битрейт : 1267 Кбит/сек
Максимальный битрейт : 5547 Кбит/сек
Ширина : 1280 пикселей
Высота : 720 пикселей
Соотношение сторон : 16:9
Режим частоты кадров : Переменный
Частота кадров : 24,371 кадра/сек
Частота кадров в оригинале : 29,970 кадров/сек
Минимальная частота кадров : 14,985 кадров/сек
Максимальная частота кадров : 120,000 кадров/сек
Цветовое пространство : YUV
Субдискретизация насыщенности : 4:2:0
Битовая глубина : 8 бит
Тип развёртки : Прогрессивная
Бит/(Пиксели*Кадры) : 0.046
Размер потока : 177 Мбайт (89%)
Размер потока оригинала : 177 Мбайт (89%)
Библиотека кодирования : x264 core 120 [Rev.2146M-r512-1]x64
Настройки программы : cabac=1 / ref=8 / deblock=1:-2:-2 / analyse=0x3:0x113 / me=umh / subme=11 / psy=1 / fade_compensate=1.00 / psy_rd=0.30:0.25 / mixed_ref=1 / me_range=24 / chroma_me=1 / trellis=2 / 8x8dct=1 / cqm=0 / deadzone=21,11 / fast_pskip=1 / chroma_qp_offset=-4 / threads=18 / sliced_threads=0 / nr=0 / decimate=0 / interlaced=0 / bluray_compat=0 / constrained_intra=0 / fgo=0 / bframes=5 / b_pyramid=2 / b_adapt=2 / b_bias=0 / direct=3 / weightb=1 / open_gop=0 / weightp=2 / keyint=250 / keyint_min=25 / scenecut=40 / intra_refresh=0 / rc_lookahead=60 / rc=2pass / mbtree=1 / bitrate=1267 / ratetol=1.0 / qcomp=0.60 / qpmin=10 / qpmax=51 / qpstep=16 / cplxblur=20.0 / qblur=0.5 / ip_ratio=1.40 / aq=1:0.60
Дата пометки : UTC 2012-07-06 13:36:55
Коэффициенты матрицы : BT.709

Аудио
Идентификатор : 2
Формат : AAC
Формат/Информация : Advanced Audio Codec
Профиль формата : LC
Идентификатор кодека : 40
Продолжительность : 24 м.
Вид битрейта : Переменный
Битрейт : 128 Кбит/сек
Максимальный битрейт : 152 Кбит/сек
Каналы : 2 канала
Расположение каналов : Front: L R
Частота : 48,0 КГц
Метод сжатия : С потерями
Размер потока : 21,9 Мбайт (11%)
Дата кодирования : UTC 2012-07-06 13:36:46
Дата пометки : UTC 2012-07-06 13:36:55

Общее
Полное имя : H:\Videos\Anime - Говорю же, у меня не встает (Dakara Boku wa, H ga Dekinai)\Sound [Scout86, YukiKata, Sayuri-chan]\01 Dakara Boku wa H ga Dekinai [1280x720]_[Scout86, YukiKata].mp3
Формат : MPEG Audio
Размер файла : 54,9 Мбайт
Продолжительность : 24 м.
Режим общего битрейта : Постоянный
Общий поток : 320 Кбит/сек
Жанр : Blues

Аудио
Формат : MPEG Audio
Версия формата : Version 1
Профиль формата : Layer 3
Режим : Joint stereo
Продолжительность : 24 м.
Вид битрейта : Постоянный
Битрейт : 320 Кбит/сек
Каналы : 2 канала
Частота : 48,0 КГц
Метод сжатия : С потерями
Размер потока : 54,9 Мбайт (100%)

Общее
Полное имя : H:\Videos\Anime - Говорю же, у меня не встает (Dakara Boku wa, H ga Dekinai)\Sound [Scout86, YukiKata, Sayuri-chan]\08 Dakara Boku wa H ga Dekinai [1280x720]_[Scout86, Sayuri-chan].mp3
Формат : MPEG Audio
Размер файла : 54,8 Мбайт
Продолжительность : 23 м.
Режим общего битрейта : Постоянный
Общий поток : 320 Кбит/сек
Жанр : Blues

Аудио
Формат : MPEG Audio
Версия формата : Version 1
Профиль формата : Layer 3
Режим : Joint stereo
Продолжительность : 23 м.
Вид битрейта : Постоянный
Битрейт : 320 Кбит/сек
Каналы : 2 канала
Частота : 48,0 КГц
Метод сжатия : С потерями
Размер потока : 54,8 Мбайт (100%)
01. Красная нить судьбы?!
02. Эротика полезна для глаз
03. Опасный кумир
04. Общество гиганских сисек
05. Невидимый словарь
06. Мы стали едины
07. Я хочу, чтобы она жила
08. Дрожь соперницы
09. Королевство переживает подъём
10. Из рая в ад.
11. Признание в любви.
12. Поэтому не говори об эротике.
http://tapochek.net/viewtopic.php?t=125531
- Альтернативная озвучка
info [Профиль]  [ЛС] 

WIZIWING

Пол: Пол:Муж

Стаж: 4 года 6 месяцев

Сообщений: 158

Мальта
Рейтинг

post 28-Мар-2013 18:02 (спустя 3 часа) [-]5[+]

[Цитировать] 

Божественное название anime_6
info [Профиль]  [ЛС] 

killer684

Пол: Пол:Муж

Стаж: 6 лет 8 месяцев

Сообщений: 93

Россия
Рейтинг

post 28-Мар-2013 18:02 (спустя 42 секунды) [-]0[+]

[Цитировать] 

Скачаю наверно, только из-за названия kolob_143

_________________
info [Профиль]  [ЛС] 

wajllze

Пол: Пол:Муж

Стаж: 4 года

Сообщений: 69

Россия
Рейтинг

post 28-Мар-2013 18:26 (спустя 24 минуты) [-]1[+]

[Цитировать] 

Я когда-то тож ток из-за названия качал, а потом оказалось что само аниме тоже ниче так))

_________________
Все может быть и быть все может и лишь того не может быть чего и вовсе быть не может хотя и это может быть...
info [Профиль]  [ЛС] 

SnalpeR

Пол: Пол:Муж

Стаж: 4 года

Сообщений: 19

Россия
Рейтинг

post 28-Мар-2013 18:57 (спустя 30 минут) [-]0[+]

[Цитировать] 

По моему на русском оно называется Я не извращенец...
info [Профиль]  [ЛС] 

wajllze

Пол: Пол:Муж

Стаж: 4 года

Сообщений: 69

Россия
Рейтинг

post 28-Мар-2013 21:02 (спустя 2 часа 4 минуты) [-]1[+]

[Цитировать] 

По русски оно называется по разному, версий вроде штук 5)))

_________________
Все может быть и быть все может и лишь того не может быть чего и вовсе быть не может хотя и это может быть...
info [Профиль]  [ЛС] 

B1ohazard

Стаж: 7 лет 8 месяцев

Сообщений: 3458

Россия
Рейтинг

post 28-Мар-2013 21:29 (спустя 26 минут) [-]1[+]

[Цитировать] 

время идёт,а япония всё таже! anime_34
info [Профиль]  [ЛС] 
Показать сообщения:    
Ответить на тему

Текущее время: 10-Дек 11:00

Часовой пояс: GMT + 4



Вы не можете начинать темы
Вы не можете отвечать на сообщения
Вы не можете редактировать свои сообщения
Вы не можете удалять свои сообщения
Вы не можете голосовать в опросах
Вы не можете прикреплять файлы к сообщениям
Вы не можете скачивать файлы