Ошибка

Хранители снов / Rise of the Guardians (Питер Рэмси) [2012, мультфильм, фэнтези, приключения, семейный, BDRip 720p] от R.G. 25 Кадр

Ответить на тему
 
Автор Сообщение

L

Пол: Пол:Муж

Стаж: 6 лет 7 месяцев

Сообщений: 10781

Украина
Рейтинг

post 21-Мар-2013 01:04 6[+]

[Цитировать] 

Хранители снов / Rise of the Guardians
«Naughty, nice. You better believe.»


Название: Хранители снов
Оригинальное название: Rise of the Guardians
Год выпуска: 2012
Жанр: мультфильм, фэнтези, приключения, семейный
Продолжительность: 01:37:11
Страна: США
Перевод:
Профессиональный (дублированный)
Профессиональный (дублированный)
Оригинальная дорожка: английский
Субтитры: русские, украинские, английские
Навигация по главам: есть

Режиссер: Питер Рэмси
В ролях: Алек Болдуин, Айла Фишер, Дакота Гойо, Хью Джекман, Джуд Лоу, Крис Пайн, Хамани Гриффин, Камиль МакФедден, Джорджи Грив, Эмили Нордвинд

Описание: Когда злой дух Кромешник посягает на самое дорогое — детские мечты, Северянин, Ледяной Джек, Кролик, Зубная Фея и Песочный Человек впервые объединяются, чтобы создать команду Хранителей снов…

Рейтинги: | | | Trailer 1080p
Раздача от: | Рип L
Исходник: Rise.Of.The.Guardians.2012.1080p.BluRay.AVC.TrueHD.7.1-PublicHD

Качество: BDRip-AVC | Сэмпл
Контейнер: MKV
Видео: AVC / High@L4.1 / 1280 x 720 / 4 998 Kbps / 16:9
Аудио:
48 kHz, AC3, 3/2 (L,C,R,l,r) + LFE ch, ~640.00 kbps avg - профессиональный (дублированный)
48 kHz, AC3, 3/2 (L,C,R,l,r) + LFE ch, ~640.00 kbps avg - профессиональный (дублированный)
48 kHz, AC3, 3/2 (L,C,R,l,r) + LFE ch, ~640.00 kbps avg - оригинал
Субтитры: srt
Главы: как на BD, 16 шт.



• Последний фильм студии DreamWorks Animation, дистрибьютором которого стала компания Paramount.
• Пасхальный кролик предупреждает: «Даже не надейся кролика обогнать». Это шутка с намеком на басню Эзопа о гонке между черепахой и зайцем, в которой победила черепаха.
• Пасхальный кролик открывает в земле кроличью нору и прыгает в нее. Это намек на «Алису в Стране чудес», где кроличья нора ведет в другое измерение.
• Изначально предполагалось, что озвучивать Джека Фроста будет Леонардо ДиКаприо, но он покинул проект во время препродакшна.
• Кристофер Ли, Дуэйн Джонсон, Натали Портман, Хью Лори и Иэн МакШейн рассматривались для озвучивания различных ролей в фильме.
• Аниматоры, сделавшие персонаж Джека, утверждают, что в фильме ему 18 лет. Озвучивавшему его актеру (Крис Пайн) было 32, когда он записывал голос для фильма.
• Зубная фея в фильме представляет собой комбинацию человека и колибри.
• В мастерской во время открытия Северянин слушает и напевает сюиту Игоря Стравинского «Жар-птица».

Код:

Общее
Уникальный идентификатор                 : 204610251382093732298012822316780703833 (0x99EE8041F6E54559B951DD341DD15059)
Полное имя                               : D:\25Kadr\Xraniteli.Snov.2012.Bluray.720p.Rus.Ukr.Eng.RG.25.Kadr[by.L].mkv
Формат                                   : Matroska
Версия формата                           : Version 2
Размер файла                             : 4,70 Гбайт
Продолжительность                        : 1 ч. 37 м.
Общий поток                              : 6922 Кбит/сек
Название фильма                          : Хранители снов / Rise of the Guardians [2012 г.] | Рип  L [R.G. 25 Кадр] | Unionpeer.org | Tapochek.net
Дата кодирования                         : UTC 2013-03-20 20:49:38
Программа кодирования                    : mkvmerge v3.2.0 ('Beginnings') built on Feb 12 2010 16:46:17
Библиотека кодирования                   : libebml v0.7.9 + libmatroska v0.8.1

Видео
Идентификатор                            : 1
Формат                                   : AVC
Формат/Информация                        : Advanced Video Codec
Профиль формата                          : High@L4.1
Параметр CABAC формата                   : Да
Параметр ReFrames формата                : 9 кадров
Идентификатор кодека                     : V_MPEG4/ISO/AVC
Продолжительность                        : 1 ч. 37 м.
Битрейт                                  : 5000 Кбит/сек
Ширина                                   : 1280 пикселей
Высота                                   : 720 пикселей
Соотношение сторон                       : 16:9
Режим частоты кадров                     : Постоянный
Частота кадров                           : 23,976 кадра/сек
Цветовое пространство                    : YUV
Субдискретизация насыщенности            : 4:2:0
Битовая глубина                          : 8 бит
Тип развёртки                            : Прогрессивная
Бит/(Пиксели*Кадры)                      : 0.226
Размер потока                            : 3,30 Гбайт (70%)
Библиотека кодирования                   : x264 core 129 r2245 bc13772
Настройки программы                      : cabac=1 / ref=9 / deblock=1:-1:-1 / analyse=0x3:0x133 / me=umh / subme=11 / psy=1 / psy_rd=1.05:0.00 / mixed_ref=1 / me_range=32 / chroma_me=1 / trellis=2 / 8x8dct=1 / cqm=0 / deadzone=21,11 / fast_pskip=0 / chroma_qp_offset=-4 / threads=12 / lookahead_threads=2 / sliced_threads=0 / nr=0 / decimate=1 / interlaced=0 / bluray_compat=0 / constrained_intra=0 / bframes=8 / b_pyramid=2 / b_adapt=2 / b_bias=0 / direct=3 / weightb=1 / open_gop=0 / weightp=2 / keyint=240 / keyint_min=22 / scenecut=40 / intra_refresh=0 / rc_lookahead=40 / rc=2pass / mbtree=1 / bitrate=5000 / ratetol=1.0 / qcomp=0.70 / qpmin=0 / qpmax=69 / qpstep=4 / cplxblur=20.0 / qblur=0.5 / ip_ratio=1.40 / aq=1:0.80
Язык                                     : English
Default                                  : Нет
Forced                                   : Нет

Аудио #1
Идентификатор                            : 2
Формат                                   : AC-3
Формат/Информация                        : Audio Coding 3
Расширение режима                        : CM (complete main)
Параметр Endianness формата              : Big
Идентификатор кодека                     : A_AC3
Продолжительность                        : 1 ч. 37 м.
Вид битрейта                             : Постоянный
Битрейт                                  : 640 Кбит/сек
Каналы                                   : 6 каналов
Расположение каналов                     : Front: L C R, Side: L R, LFE
Частота                                  : 48,0 КГц
Битовая глубина                          : 16 бит
Метод сжатия                             : С потерями
Размер потока                            : 445 Мбайт (9%)
Заголовок                                : Дубляж
Язык                                     : Russian
Default                                  : Нет
Forced                                   : Да

Аудио #2
Идентификатор                            : 3
Формат                                   : AC-3
Формат/Информация                        : Audio Coding 3
Расширение режима                        : CM (complete main)
Параметр Endianness формата              : Big
Идентификатор кодека                     : A_AC3
Продолжительность                        : 1 ч. 37 м.
Вид битрейта                             : Постоянный
Битрейт                                  : 640 Кбит/сек
Каналы                                   : 6 каналов
Расположение каналов                     : Front: L C R, Side: L R, LFE
Частота                                  : 48,0 КГц
Битовая глубина                          : 16 бит
Метод сжатия                             : С потерями
Размер потока                            : 445 Мбайт (9%)
Заголовок                                : Дубляж
Язык                                     : Ukrainian
Default                                  : Нет
Forced                                   : Нет

Аудио #3
Идентификатор                            : 4
Формат                                   : AC-3
Формат/Информация                        : Audio Coding 3
Расширение режима                        : CM (complete main)
Параметр Endianness формата              : Big
Идентификатор кодека                     : A_AC3
Продолжительность                        : 1 ч. 37 м.
Вид битрейта                             : Постоянный
Битрейт                                  : 640 Кбит/сек
Каналы                                   : 6 каналов
Расположение каналов                     : Front: L C R, Side: L R, LFE
Частота                                  : 48,0 КГц
Битовая глубина                          : 16 бит
Метод сжатия                             : С потерями
Размер потока                            : 445 Мбайт (9%)
Заголовок                                : Оригинал
Язык                                     : English
Default                                  : Нет
Forced                                   : Нет

Текст #1
Идентификатор                            : 5
Формат                                   : UTF-8
Идентификатор кодека                     : S_TEXT/UTF8
Идентификатор кодека/Информация          : UTF-8 Plain Text
Язык                                     : Russian
Default                                  : Нет
Forced                                   : Нет

Текст #2
Идентификатор                            : 6
Формат                                   : UTF-8
Идентификатор кодека                     : S_TEXT/UTF8
Идентификатор кодека/Информация          : UTF-8 Plain Text
Язык                                     : Ukrainian
Default                                  : Нет
Forced                                   : Нет

Текст #3
Идентификатор                            : 7
Формат                                   : UTF-8
Идентификатор кодека                     : S_TEXT/UTF8
Идентификатор кодека/Информация          : UTF-8 Plain Text
Язык                                     : English
Default                                  : Нет
Forced                                   : Нет

Меню
00:00:00.000                             : en:00:00:00.000
00:03:51.481                             : en:00:03:51.481
00:10:34.843                             : en:00:10:34.843
00:16:17.643                             : en:00:16:17.643
00:24:49.363                             : en:00:24:49.363
00:30:38.378                             : en:00:30:38.378
00:36:38.947                             : en:00:36:38.947
00:43:05.166                             : en:00:43:05.166
00:50:22.311                             : en:00:50:22.311
00:58:09.611                             : en:00:58:09.611
01:03:55.331                             : en:01:03:55.331
01:09:12.815                             : en:01:09:12.815
01:14:03.189                             : en:01:14:03.189
01:20:44.923                             : en:01:20:44.923
01:24:51.503                             : en:01:24:51.503
01:28:33.892                             : en:01:28:33.892

Код:

---[NoImage] x264 [info]: frame I:1304  Avg QP:15.10  size:159334  PSNR Mean Y:48.30 U:52.76 V:52.80 Avg:49.33 Global:48.96
---[NoImage] x264 [info]: frame P:37494 Avg QP:18.58  size: 46821  PSNR Mean Y:45.99 U:50.52 V:50.59 Avg:47.03 Global:46.56
---[NoImage] x264 [info]: frame B:101027 Avg QP:21.48  size: 16638  PSNR Mean Y:45.26 U:50.19 V:50.22 Avg:46.35 Global:45.76
---[NoImage] x264 [info]: consecutive B-frames:  4.7%  5.0% 17.9% 25.5% 18.0% 22.7%  2.1%  1.7%  2.2%
---[NoImage] x264 [info]: mb I  I16..4:  6.8% 70.7% 22.5%
---[NoImage] x264 [info]: mb P  I16..4:  1.2% 12.1%  2.4%  P16..4: 29.1% 32.7% 11.6%  2.5%  0.3%    skip: 8.1%
---[NoImage] x264 [info]: mb B  I16..4:  0.1%  2.2%  0.5%  B16..8: 35.8% 18.5%  2.7%  direct: 4.4%  skip:35.8%  L0:41.6% L1:45.9% BI:12.6%
---[NoImage] x264 [info]: 8x8 transform intra:77.0% inter:60.3%
---[NoImage] x264 [info]: direct mvs  spatial:95.5% temporal:4.5%
---[NoImage] x264 [info]: coded y,uvDC,uvAC intra: 90.2% 85.4% 61.6% inter: 20.8% 18.7% 5.8%
---[NoImage] x264 [info]: i16 v,h,dc,p:  7% 10%  3% 79%
---[NoImage] x264 [info]: i8 v,h,dc,ddl,ddr,vr,hd,vl,hu:  6%  6%  4% 11% 16% 14% 16% 13% 14%
---[NoImage] x264 [info]: i4 v,h,dc,ddl,ddr,vr,hd,vl,hu:  7%  6%  3% 10% 18% 15% 15% 12% 14%
---[NoImage] x264 [info]: i8c dc,h,v,p: 39% 23% 17% 21%
---[NoImage] x264 [info]: Weighted P-Frames: Y:1.9% UV:1.1%
---[NoImage] x264 [info]: ref P L0: 58.1% 10.2% 14.1%  5.4%  3.7%  3.0%  2.3%  1.5%  1.3%  0.4%  0.0%
---[NoImage] x264 [info]: ref B L0: 81.2%  9.5%  4.3%  1.8%  1.5%  0.9%  0.6%  0.2%
---[NoImage] x264 [info]: ref B L1: 92.5%  7.5%
---[NoImage] x264 [info]: SSIM Mean Y:0.9840261 (17.966db)
---[NoImage] x264 [info]: PSNR Mean Y:45.483 U:50.303 V:50.346 Avg:46.561 Global:45.983 kb/s:4998.98
---[NoImage] encoded 139825 frames, 2.51 fps, 4998.99 kb/s


Внимание! Информация о раздаче
При перезаливе указывайте, пож-та, автора рипов L и RG 25 Кадр, а также прикрепляйте лычку или баннер.
Пожалуйста, оставайтесь на раздаче как можно дольше!
Релиз специально для Unionpeer.org и Tapochek.net


info [Профиль]  [ЛС] 

post 21-Мар-2013 01:06 (спустя 1 минута) [-]0[+]

Топик был перенесен из форума Оформление раздач (R.G. 25 Кадр) в форум DVD, HD DVD, Blu-ray, HD Rips

L
 

Driver

Пол: Пол:Муж

Стаж: 6 лет 2 месяца

Сообщений: 2259

Россия
Рейтинг

post 21-Мар-2013 10:37 (спустя 9 часов) [-]5[+]

[Цитировать] 

L
Продолжительность укажи

_________________
PS3 Slim 320Gb (Rogero CFW 4.30 2.00) | Xbox360 Arcade 250 Gb LT+2.0 | Win 7 Ultimate x64 SP-1|Intel Core i5 750 (3.8GHz)|ASUS P7P55D-E PRO|4x2 Гб DDR3-1333 DDR3 SDRAM OCZ|GigaByte GeForce GTX 670 2048MB (320.49 WHQL)|5.5Tb+4.5Tb external|Thermaltake Element V|FSP Epsilon 800W Hi-Fi:Quadral Quintas 6000 5.0 Black + Yamaha RX-v571 Black + Dune HD Duo + 3D LED Samsung UE46 ES8000S
info [Профиль]  [ЛС] 

noahnoir

Пол: Пол:Муж

Стаж: 4 года 4 месяца

Сообщений: 3

Россия
Рейтинг

post 04-Май-2013 20:03 (спустя 1 месяц 14 дней) [-]4[+]

[Цитировать] 

хороший детский анимационный фильм, рекомнедую к просмотру всей семьёй

_________________
info [Профиль]  [ЛС] 
Показать сообщения:    
Ответить на тему

Текущее время: 05-Дек 04:26

Часовой пояс: GMT + 4



Вы не можете начинать темы
Вы не можете отвечать на сообщения
Вы не можете редактировать свои сообщения
Вы не можете удалять свои сообщения
Вы не можете голосовать в опросах
Вы не можете прикреплять файлы к сообщениям
Вы не можете скачивать файлы