Ошибка

Тайна горы мертвецов. Перевал Дятлова, фильмы 1-2 (2) (Максим Огечин) [2013, документальный, HDTV 1080i]

Ответить на тему
 
Автор Сообщение

BlackSunVRN

Пол: Пол:Муж

Стаж: 6 лет 8 месяцев

Сообщений: 378

Ямайка
Рейтинг

post 06-Мар-2013 16:11 0[+]

[Цитировать] 

Тайна горы мертвецов. Перевал Дятлова, фильм 1 из 2

Год: 2013
Жанр: Документальный
Страна: Россия
Продолжительность: 00:43:14
Режиссер: Максим Огечин
Описание: В основе фильма лежит история, которая произошла в Свердловске в 1959 году, когда группа туристов-лыжников, в основном состоявшая из студентов-пятикурсников "Уральского политехнического института", а также одного выпускника того же вуза и инструктора местной "туристической базы (всего 9 человек), отправляется в лыжный переход по маршруту поселок Ивдель – поселок Вижай. Возглавлял группу один из студентов УПИ Игорь Дятлов. Позже ее так и назовут: группа Дятлова. Протяженность маршрута должна была составить не менее 350 км. По критериям того времени переход можно было отнести к категории "особой сложности". В конце января 1959 года, вопреки ожиданиям родственников и близких, группа не вышла в намеченное время и в назначенное место. Первыми забили тревогу родственники. Именно они настояли на вылете к месту возможного исчезновения туристов группы спасателей. И уже через несколько дней у горы Холатчахль (в переводе с языка манси - "Гора мертвецов") спасатели обнаруживают брошенную палатку. Чуть позже находят тела первых троих погибших. Через несколько дней - еще двоих. Четверых последних обнаружат только в начале мая 1959 года, когда сойдет снег. Уже с самых первых дней исследование тел погибших и характер обнаруженных ранений – а в ряде случаев, как установило следствие, именно они стали причиной гибели туристов - порождают множество слухов о причинах их гибели. Уже в те дни по Свердловску гуляют самые невероятные версии: попали в зону испытаний нового оружия, убили беглые заключенные, охотники-манси и так далее. Вскоре волну этих слухов подстегивает информация о том, что, так и не найдя причин гибели людей, следственные органы закрывают дело. Якобы чуть ли не по личному распоряжению главы КГБ СССР тех лет – Александра Шелепина.
Качество видео: HDTV 1080i
Формат: TS
Видео: AVC 1920x1080 (16:9) 25.000 fps 7 856 Kbps, 0.151 bit/pixel
Аудио: AC3 MPEG Audio 48000Hz stereo 192 Кбит/сек

Код:

General
ID                                       : 1 (0x1)
Format                                   : MPEG-TS
File size                                : 2.54 GiB
Duration                                 : 43mn 14s
Overall bit rate mode                    : Variable
Overall bit rate                         : 8 402 Kbps

Video
ID                                       : 2911 (0xB5F)
Menu ID                                  : 1 (0x1)
Format                                   : AVC
Format/Info                              : Advanced Video Codec
Format profile                           : High@L4.0
Format settings, CABAC                   : Yes
Format settings, ReFrames                : 3 frames
Codec ID                                 : 27
Duration                                 : 43mn 14s
Bit rate                                 : 7 793 Kbps
Width                                    : 1 920 pixels
Height                                   : 1 080 pixels
Display aspect ratio                     : 16:9
Frame rate                               : 25.000 fps
Color space                              : YUV
Chroma subsampling                       : 4:2:0
Bit depth                                : 8 bits
Scan type                                : MBAFF
Bits/(Pixel*Frame)                       : 0.150
Stream size                              : 2.35 GiB (93%)

Audio
ID                                       : 2912 (0xB60)
Menu ID                                  : 1 (0x1)
Format                                   : MPEG Audio
Format version                           : Version 1
Format profile                           : Layer 2
Mode                                     : Joint stereo
Mode extension                           : Intensity Stereo + MS Stereo
Codec ID                                 : 3
Duration                                 : 43mn 14s
Bit rate mode                            : Constant
Bit rate                                 : 192 Kbps
Channel(s)                               : 2 channels
Sampling rate                            : 48.0 KHz
Compression mode                         : Lossy
Stream size                              : 59.4 MiB (2%)
Language                                 : Russian

Добавлена 2 серия.
info [Профиль]  [ЛС] 

tauruss

Стаж: 3 года 11 месяцев

Сообщений: 12

СССР
Рейтинг

post 09-Мар-2013 23:56 (спустя 3 дня) [-]0[+]

[Цитировать] 

Интересный фильм, но тайна пока остается тайной
info [Профиль]  [ЛС] 
Показать сообщения:    
Ответить на тему

Текущее время: 11-Дек 08:14

Часовой пояс: GMT + 4



Вы не можете начинать темы
Вы не можете отвечать на сообщения
Вы не можете редактировать свои сообщения
Вы не можете удалять свои сообщения
Вы не можете голосовать в опросах
Вы не можете прикреплять файлы к сообщениям
Вы не можете скачивать файлы