Ошибка

Ангелы Смерти: Бесконечность OVA / Burst Angel -Infinity- [OVA][1 из 1][2007][приключения, комедия, меха, этти][BDRip][Любительский(JAP+SUB)]

Ответить на тему
 
Автор Сообщение

barbosa

Пол: Пол:Муж

Стаж: 7 лет 3 месяца

Сообщений: 122

Россия
Рейтинг

post 21-Фев-2013 16:47 0[+]

[Цитировать] 

pic="http://i52.fastpic.ru/big/2013/0220/94/60439e32bf7787785e7c5a9f8fabf694.png"
Ангелы Смерти: Бесконечность OVA
Burst Angel -Infinity-| Bakuretsu Tenshi: Infinity | 爆裂天使 ~インフィニティ~

Премьера: 23.03.2007
Продолжительность (1 эп. + 1 из 3 спэшла), 26 мин.
Жанр: приключения, комедия, меха, этти
Тип:OVA
Страна: Япония
Студия:
Режиссер: Охата Койти
Сценарий: Кёдзука Маруо
Озвучено:
  • Любительская многоголосая от Bunny3000, ZoIIaN, Mikaeru [AnimeSpace]
  • Любительская одноголосая от Cuba77
  • Любительская одноголосая от Spawn
Субтитры:
ass, отдельно (полные) от SHmeLL
Информация о видео:
Качество: BDRip | Формат видео: MKV | Автор рипа: [Dez]
Видео: AVC (h,264), 1024x586, 3500 Kbps, 23.976 fps
Аудио(RUS AnimeSpace ): PCM, 48.0 kHz stereo, 2 ch, 1,5 Mbps
Аудио(RUS Cuba77 ): Ogg Vorbis, 48.0 kHz stereo, 2 ch, 192 kbps
Аудио(RUS Spawn ): Ogg Vorbis, 48.0 kHz stereo, 2 ch, 192 kbps
Аудио(JAP): JP- AC3, 48.0 kHz stereo, 6 ch, 640 kbps
Описание:
Время событий: 21-ый век, район Вестлэнд, Нью-Йорк. В городе происходит ряд загадочных преступлений. По ночам на людей нападают и режут острыми, как лезвие, ножами. В это время главные герои, Мэг и Джо, возращаются в город, чтобы отпраздновать день рождения Ширли, подруги детства Мэг. В прошлом её удочерил полицейский Сэм, чтобы она не попала в плоxую семью. До недавнего времени они счастливо жили вместе... В полицейском участке Мэг и Джо становится известно, что Ширли стала случайной свидетельницей одного из преступлений

Средний балл: 7.7 из 10
Место в рейтинге: 1377 из 2282
Проголосовало: 112 чел.

E:\Anime\DVDRip\Burst Angel\Bakuretsu Tenshi OVA (BDRip)\Bakuretsu Tenshi OVA.mkv
General
Unique ID : 194661391727856637421325725935990585788 (0x92726B9B0A5153E089A67413806DB9BC)
Complete name : E:\Anime\DVDRip\Burst Angel\Bakuretsu Tenshi OVA (BDRip)\Bakuretsu Tenshi OVA.mkv
Format : Matroska
Format version : Version 2
File size : 757 MiB
Duration : 25mn 36s
Overall bit rate : 4 133 Kbps
Movie name : Bakuretsu Tenshi - OVA [Dez]
Encoded date : UTC 2011-07-22 06:56:40
Writing application : mkvmerge v4.7.0 ('Just Like You Imagined') ñáîðêà îò Apr 21 2011 01:13:14
Writing library : libebml v1.2.0 + libmatroska v1.1.0
Video #1
ID : 1
Format : AVC
Format/Info : Advanced Video Codec
Format profile : High@L4.1
Format settings, CABAC : Yes
Format settings, ReFrames : 8 frames
Muxing mode : Header stripping
Codec ID : V_MPEG4/ISO/AVC
Duration : 25mn 36s
Bit rate : 3 410 Kbps
Width : 1 024 pixels
Height : 586 pixels
Display aspect ratio : 16:9
Frame rate : 23.976 fps
Color space : YUV
Chroma subsampling : 4:2:0
Bit depth : 8 bits
Scan type : Progressive
Bits/(Pixel*Frame) : 0.237
Stream size : 625 MiB (83%)
Title : BDRip, encoded by Dez
Writing library : BDRip,encoded-by-Dez
Language : English
Default : Yes
Forced : No
Audio #2
ID : 2
Format : AC-3
Format/Info : Audio Coding 3
Mode extension : CM (complete main)
Format settings, Endianness : Big
Muxing mode : Header stripping
Codec ID : A_AC3
Duration : 25mn 36s
Bit rate mode : Constant
Bit rate : 640 Kbps
Channel(s) : 6 channels
Channel positions : Front: L C R, Side: L R, LFE
Sampling rate : 48.0 KHz
Bit depth : 16 bits
Compression mode : Lossy
Stream size : 117 MiB (15%)
Title : 5.1
Language : Japanese
Default : Yes
Forced : No

Эта серия состоит из:

#1 Ангелы Смерти [ТВ] - ТВ (24 эп. + 6 спэшлов), оригинальный сериал, 2004
#2 Ангелы Смерти OVA - OVA (1 эп. + 3 спэшла), дополнение, 2007
info [Профиль]  [ЛС] 
Показать сообщения:    
Ответить на тему

Текущее время: 07-Дек 12:41

Часовой пояс: GMT + 4



Вы не можете начинать темы
Вы не можете отвечать на сообщения
Вы не можете редактировать свои сообщения
Вы не можете удалять свои сообщения
Вы не можете голосовать в опросах
Вы не можете прикреплять файлы к сообщениям
Вы не можете скачивать файлы