Ошибка

Великий учитель Онидзука / GTO: Great Teacher Onizuka - The Movie (Судзуки Масаюки / Suzuki Masayuki) [1999 г., Драма, Комедия, DVDRip]

Ответить на тему
 
Автор Сообщение

barbosa

Пол: Пол:Муж

Стаж: 7 лет 3 месяца

Сообщений: 122

Россия
Рейтинг

post 14-Фев-2013 21:29 0[+]

[Цитировать] 

pic="http://i54.fastpic.ru/big/2013/0214/f5/abc5e4d96421246b6ff95ae50b1679f5.jpg"
Великий учитель Онидзука / GTO: Great Teacher Onizuka - The Movie

Год выпуска: 1999
Страна: Япония
Жанр: Драма, Комедия
Продолжительность: 01:48:14
Перевод: Любительский (одноголосый)
Язык субтитров: Русский (*srt, внешним файлом)
Режиссер:
Сценарий:
В ролях:
Соримати Такаси, Танака Рэна, Касахара Хидэюки, Фудзивара Норика, Киноти Акико, Мацумото Минору
Описание: Лето 1989
В небольшом городке Хоробинай наступило лето. В то время я была занята погоней за сногсшибательным сюжетом. После долгих поисков я оказалась в городке, получившем десять лет назад долю славы. Все вокруг с нетерпением ожидали открытия нового парка аттракционов "Канада Виллидж". В то время все были уверены, что жизнь будет прекрасна, и город будет процветать. К несчастью, это было заблуждением. Лето было сложным, пока в городе не появился он.

Качество: DVDRip
Формат: AVI
Видео кодек: DivX
Аудио кодек: MPEG Audio
Видео: 720x400, 23.98fps, 1260kbps, 16:9, 0.183
Аудио:
Rus - MPEG Audio Layer 3 48000Hz stereo 128Kbps;
JAP - Dolby AC3 48000Hz 6ch 384Kbps;

E:\Serials\Great Teacher Onizuka - Dorama и live-action\GTO The Movie\GTO Великий учитель Онизука.avi
General
Complete name : E:\Serials\Great Teacher Onizuka - Dorama и live-action\GTO The Movie\GTO Великий учитель Онизука.avi
Format : AVI
Format/Info : Audio Video Interleave
File size : 1.35 GiB
Duration : 1h 48mn
Overall bit rate : 1 786 Kbps
Writing application : VirtualDubMod 1.5.4.1 (build 2178/release)
Writing library : VirtualDubMod build 2178/release
Video #0
ID : 0
Format : MPEG-4 Visual
Format settings, BVOP : 1
Format settings, QPel : No
Format settings, GMC : No warppoints
Format settings, Matrix : Default (H.263)
Muxing mode : Packed bitstream
Codec ID : DX50
Codec ID/Hint : DivX 5
Duration : 1h 48mn
Bit rate : 1 260 Kbps
Width : 720 pixels
Height : 400 pixels
Display aspect ratio : 16:9
Frame rate : 23.976 fps
Color space : YUV
Chroma subsampling : 4:2:0
Bit depth : 8 bits
Scan type : Progressive
Compression mode : Lossy
Bits/(Pixel*Frame) : 0.183
Stream size : 976 MiB (71%)
Writing library : DivX 5.2.0 (UTC 2004-07-15)
Audio #1
ID : 1
Format : MPEG Audio
Format version : Version 1
Format profile : Layer 3
Mode : Joint stereo
Mode extension : MS Stereo
Codec ID : 55
Codec ID/Hint : MP3
Duration : 1h 48mn
Bit rate mode : Constant
Bit rate : 128 Kbps
Channel(s) : 2 channels
Sampling rate : 48.0 KHz
Compression mode : Lossy
Stream size : 99.1 MiB (7%)
Alignment : Aligned on interleaves
Interleave, duration : 42 ms (1.00 video frame)
Interleave, preload duration : 504 ms
Audio #2
ID : 2
Format : AC-3
Format/Info : Audio Coding 3
Mode extension : CM (complete main)
Format settings, Endianness : Big
Codec ID : 2000
Duration : 1h 48mn
Bit rate mode : Constant
Bit rate : 384 Kbps
Channel(s) : 6 channels
Channel positions : Front: L C R, Side: L R, LFE
Sampling rate : 48.0 KHz
Bit depth : 16 bits
Compression mode : Lossy
Stream size : 297 MiB (21%)
Alignment : Split accross interleaves
Interleave, duration : 42 ms (1.00 video frame)
Interleave, preload duration : 500 ms

Хронология серии:

1 — Великий учитель Онидзука (1998, сериал)
2 — Великий учитель Онидзука [ТВ-спешл] (1999)
3 — Великий учитель Онидзука - Фильм (1999)
4 — Великий учитель Онидзука (2012, сериал)
info [Профиль]  [ЛС] 

barbosa

Пол: Пол:Муж

Стаж: 7 лет 3 месяца

Сообщений: 122

Россия
Рейтинг

post 14-Фев-2013 21:33 (спустя 4 минуты) [-]0[+]

[Цитировать] 

Сразу говорю, что, чей перевод, я не знаю. Так же неизвестно, кто озвучивал.

_________________
Не читал Бальзака? По **алу на-ка...
info [Профиль]  [ЛС] 

sibass

Пол: Пол:Муж

Стаж: 5 лет 5 месяцев

Сообщений: 64

Россия
Рейтинг

post 19-Фев-2013 16:10 (спустя 4 дня) [-]0[+]

[Цитировать] 

Про что хоть фильм то?
info [Профиль]  [ЛС] 

barbosa

Пол: Пол:Муж

Стаж: 7 лет 3 месяца

Сообщений: 122

Россия
Рейтинг

post 19-Фев-2013 21:28 (спустя 5 часов) [-]0[+]

[Цитировать] 

sibass писал(а):

Про что хоть фильм то?
Откровенно сказать, я даже затрудняюсь вам ответить....

Цитата:

Описание: Лето 1989 В небольшом городке Хоробинай наступило лето. В то время я была занята погоней за сногсшибательным сюжетом. После долгих поисков я оказалась в городке, получившем десять лет назад долю славы. Все вокруг с нетерпением ожидали открытия нового парка аттракционов "Канада Виллидж". В то время все были уверены, что жизнь будет прекрасна, и город будет процветать. К несчастью, это было заблуждением. Лето было сложным, пока в городе не появился он.
Что еще, Вам надо сообщить?

_________________
Не читал Бальзака? По **алу на-ка...
info [Профиль]  [ЛС] 

LeeNTien

Пол: Пол:Муж

Стаж: 5 лет 1 месяц

Сообщений: 180

Великобритания
Рейтинг

post 04-Май-2014 00:04 (спустя 1 год 2 месяца) [-]0[+]

[Цитировать] 

От души посмеялся. Не ожидал, что понравится. Обычно фильмы по мангам, да ещё и с довольно известными анимационными экранизациями - смотреть сложно. А тут даже возникло желание скачать сериал, с тем же актёром, и глянуть. XD

_________________
Вся вселенная - лишь вечная и бесконечная энергия, а мы - неотделимые и невыделяемые её составляющие...
info [Профиль]  [ЛС] 
Показать сообщения:    
Ответить на тему

Текущее время: 09-Дек 17:37

Часовой пояс: GMT + 4



Вы не можете начинать темы
Вы не можете отвечать на сообщения
Вы не можете редактировать свои сообщения
Вы не можете удалять свои сообщения
Вы не можете голосовать в опросах
Вы не можете прикреплять файлы к сообщениям
Вы не можете скачивать файлы