Ошибка

Евангелион нового поколения: Смерть и Перерождение | Neon Genesis Evangelion: Death & Rebirth [Movie][1997][драма, фантастика, меха][DVDRip][AVC][Субтитры (JAP)]

Ответить на тему
 
Автор Сообщение

TATOSHCA

Пол: Пол:Муж

Стаж: 7 лет 8 месяцев

Сообщений: 3941

Россия
Рейтинг

post 30-Янв-2013 18:21 1[+]

[Цитировать] 

pic="http://i9.fastpic.ru/big/2010/0901/12/b6d4ffa58427aba3159dd3dce5fe4412.jpg"
Евангелион нового поколения: Смерть и Перерождение
Neon Genesis Evangelion: Death & Rebirth |新世紀エヴァンゲリオン劇場版 シト新生

Год: 1997
Страна:
Жанр: драма, фантастика, меха
Тип: 73 мин.
Перевод: Субтитры
Субтитры: Присутствуют (внешние) - |
Навигация по главам: Отсутствует
Режиссёр: Анно Хидэаки
Сценарий: Анно Хидэаки
Студия: Gainax

Описание:
  "Евангелион: Смерть и Перерождение", этой полнометражке предстоит непростая задача напомнить зрителю всё, что происходило в ТВ сериале и, при этом, максимально остаться самостоятельным фильмом. Часть сражений с ангелами проносится перед нашими глазами, главные сдвижные моменты в мировоззрении героев, а также нужные ситуации, из которых складываются отношения между всеми персонажами. Концовка сериала (25 и 26 серии) здесь не присутствуют из-за того, опять же, чтобы фильм остался максимально самостоятельным. То есть без последних серий получается своеобразная концовка, где всё опять зависит от Синдзи, которая подготавливает нас к продолжению - "Конец Евангелиона".©
©World Art

Cубтитры:
  • Автор неизвестен (.srt)
  • Wada-kun (.srt)

Качество: DVDRip [Craiz] | Хардсаб: Нет | Формат: MP4
: H.264 | 648x436 -> 780x436 (анаморф) | 23,976 fps | ~ 573 kbps
:
  • JP - AAC | 6 ch | 48 KHz | ~ 230 Kbps

Код:

General
Complete name                            : D:\Neon Genesis Evangelion - Death & Rebirth (Renewal Pack v3) [DVDRip]\Evangelion - Death & Rebirth.mp4
Format                                   : MPEG-4
Format profile                           : Base Media
Codec ID                                 : isom
File size                                : 425 MiB
Duration                                 : 1h 13mn
Overall bit rate mode                    : Variable
Overall bit rate                         : 808 Kbps
Encoded date                             : UTC 2009-03-02 07:49:49
Tagged date                              : UTC 2009-03-02 07:49:49
Copyright                                : Gainax

Video
ID                                       : 1
Format                                   : AVC
Format/Info                              : Advanced Video Codec
Format profile                           : High@L3.2
Format settings, CABAC                   : Yes
Format settings, ReFrames                : 16 frames
Codec ID                                 : avc1
Codec ID/Info                            : Advanced Video Coding
Duration                                 : 1h 13mn
Bit rate                                 : 573 Kbps
Maximum bit rate                         : 8 582 Kbps
Width                                    : 648 pixels
Height                                   : 436 pixels
Display aspect ratio                     : 16:9
Frame rate mode                          : Constant
Frame rate                               : 23.976 fps
Color space                              : YUV
Chroma subsampling                       : 4:2:0
Bit depth                                : 8 bits
Scan type                                : Progressive
Bits/(Pixel*Frame)                       : 0.085
Stream size                              : 302 MiB (71%)
Writing library                          : x264 core 66 r1115M 11863ac
Encoding settings                        : cabac=1 / ref=16 / deblock=1:0:0 / analyse=0x3:0x133 / me=tesa / subme=9 / psy_rd=0.6:0.0 / mixed_ref=1 / me_range=32 / chroma_me=1 / trellis=2 / 8x8dct=1 / cqm=0 / deadzone=21,11 / chroma_qp_offset=-2 / threads=3 / nr=0 / decimate=1 / mbaff=0 / bframes=4 / b_pyramid=1 / b_adapt=2 / b_bias=0 / direct=1 / wpredb=0 / keyint=240 / keyint_min=24 / scenecut=40(pre) / rc=crf / crf=22.0 / qcomp=0.60 / qpmin=10 / qpmax=51 / qpstep=4 / ip_ratio=1.40 / pb_ratio=1.30 / aq=1:1.00
Language                                 : Japanese
Encoded date                             : UTC 2009-03-01 09:57:01
Tagged date                              : UTC 2009-03-02 07:50:07

Audio
ID                                       : 2
Format                                   : AAC
Format/Info                              : Advanced Audio Codec
Format profile                           : HE-AAC / LC
Codec ID                                 : 40
Duration                                 : 1h 13mn
Bit rate mode                            : Variable
Bit rate                                 : 231 Kbps
Maximum bit rate                         : 298 Kbps
Channel(s)                               : 6 channels
Channel positions                        : Front: L C R, Side: L R, LFE
Sampling rate                            : 48.0 KHz / 24.0 KHz
Compression mode                         : Lossy
Stream size                              : 121 MiB (29%)
Encoded date                             : UTC 2009-03-02 07:49:59
Tagged date                              : UTC 2009-03-02 07:50:07


Исправлена тонна косяков второго релиза, видео очень серьезно почищено от шумов, закодировано в h264+aac (.mp4), русские/английские сабы, уменьшен размер и вообще настоятельно рекомендую всем, кому второй релиз чем-либо понравился.
На мой нескромный авторский взгляд релиз получился все равно на порядок лучше последней версии МС, хотя бы потому, что никто не испоганил цвета.
Renewal Pack
- это рип ремастеринга Neon Genesis Evangelion: Renewal с режиссерскими вставками, которые изначально были вырезаны, и с улучшенным качеством графики, выпущенного в 2003 году.
В папке "Bonus" находится трейлер к фильму.

© Оформление by Witcher
info [Профиль]  [ЛС] 

Yokushiro

Пол: Пол:Муж

Стаж: 6 лет 2 месяца

Сообщений: 261

Россия
Рейтинг

post 30-Янв-2013 19:27 (спустя 1 час 5 минут) [-]0[+]

[Цитировать] 

Супер! Фанат Евы доволен) Спасибо)

_________________
info [Профиль]  [ЛС] 
Показать сообщения:    
Ответить на тему

Текущее время: 03-Дек 13:46

Часовой пояс: GMT + 4



Вы не можете начинать темы
Вы не можете отвечать на сообщения
Вы не можете редактировать свои сообщения
Вы не можете удалять свои сообщения
Вы не можете голосовать в опросах
Вы не можете прикреплять файлы к сообщениям
Вы не можете скачивать файлы