Ошибка

(K-Pop, J-Pop, Pop, R&B) BoA (보아) - Дискография, 2000-2012, FLAC (image+.cue/tracks), lossless

Ответить на тему
 
Автор Сообщение

Phen1x

Пол: Пол:Муж

Стаж: 6 лет 2 месяца

Сообщений: 531

Украина
Рейтинг

post 11-Янв-2013 20:17 1[+]

[Цитировать] 

BoA (보아) - Дискография

pic="http://img198.imageshack.us/img198/4786/piczaa.jpg"

Жанр: K-Pop/J-Pop/Pop/R&B || Страна: Южная Корея || Год издания: 2000-2012
Тип релиза: image+.cue/tracks || Аудио кодек: FLAC/APE/ALAC || Битрейт аудио: lossless
Продолжительность: 21:52:59 || Полиграфия: отсутствует

Квон Боа (кор. 권보아, род. 5 ноября 1986), более известная под своим творческим псевдонимом BoA — корейская певица, известная в Южной Корее и в Японии. Родилась и была воспитана в городе Кури, провинции Кёнгидо, в Южной Корее. Широкая известность к певице пришла после подписания ей контракта с компанией SM Entertainment, которая нашла её, когда она вместе со своим старшим братом пришла на пробы «поиска талантов».

В 2000 году, после двух лет обучения, она выпускает ID; Peace B , свой дебютный корейский альбом, записанный у SM Entertainment. Ещё два года спустя она выпускает свой японский дебютный альбом, под названием LISTEN TO MY HEART, записанный уже на лейбле Avex. В 2008 году, на лейбле SM Entertainment USA, дочерней компании SM Entertainment, BoA дебютировала в США с синглом «Eat You Up».

В творчестве певицы прослеживается сильное влияние таких представителей западной хип-хоп- и R&B сцены, как Нелли и Джанет Джексон, и многие песни Боа также не выходят далеко за стандарты и рамки этих двух жанров. Авторство текстов и музыки, как правило, принадлежит самой певице. Впервые исполнительница начала сочинять тексты сама к альбому LISTEN TO MY HEART , к которому она частично написала текст песни «Nothing’s gonna change».

BoA — полиглот. Она говорит по-японски и по-английски, наряду со своим родным корейским и записывала песни на мандаринском диалекте китайского, что привело к коммерческому успеху в Южной Корее и Японии, и к общей популярности и известности по всей Азии.


Треклист:
01. ID;Peace B (4:00)
02. Come To Me (3:35)
03. Heart-off (체념) (3:53)
04. Sara (사라) (3:54)
05. I Am Sorry (비밀일기) (4:52)
06. No Way (안돼, 난 안돼) (3:36)
07. Every Breath You Take (차마) (5:01)
08. Whatever (3:36)
09. I'am Your Lady Tonight (3:09)
10. Young Lovers (어린 연인) (4:26)
11. Letting You Go (4:03)
12. Someday Somewhere (3:59)
  
AUDIOCHECKER v1.2 - by Dester - opdester@freemail.hu
~~~~~~~~~~~~~~~~~

31 -===- D:\Music\Kwon BoA\BoA LL\BoA - ID;Peace B (FLAC)\BoA - ID;Peace B (FLAC).flac
Extracted successfully
Conclusion: This track looks like CDDA with probability 100%

  
REM GENRE KPop
REM DATE 2002
REM DISCID 9A0B440C
PERFORMER "BoA"
TITLE "ID;Peace B"
FILE "BoA - ID;Peace B (FLAC).flac" WAVE
TRACK 01 AUDIO
TITLE "ID;Peace B"
REM REPLAYGAIN_TRACK_GAIN -10.36 dB
REM REPLAYGAIN_TRACK_PEAK 0.991058
INDEX 01 00:00:00
TRACK 02 AUDIO
TITLE "Come To Me"
REM REPLAYGAIN_TRACK_GAIN -8.24 dB
REM REPLAYGAIN_TRACK_PEAK 0.991058
INDEX 01 03:59:48
TRACK 03 AUDIO
TITLE "Heart-off (체념)"
REM REPLAYGAIN_TRACK_GAIN -7.60 dB
REM REPLAYGAIN_TRACK_PEAK 0.991058
INDEX 01 07:34:65
TRACK 04 AUDIO
TITLE "Sara (사라)"
REM REPLAYGAIN_TRACK_GAIN -8.45 dB
REM REPLAYGAIN_TRACK_PEAK 0.991058
INDEX 01 11:28:00
TRACK 05 AUDIO
TITLE "I Am Sorry (비밀일기)"
REM REPLAYGAIN_TRACK_GAIN -5.65 dB
REM REPLAYGAIN_TRACK_PEAK 0.991058
INDEX 01 15:21:43
TRACK 06 AUDIO
TITLE "No Way (안돼, 난 안돼)"
REM REPLAYGAIN_TRACK_GAIN -7.66 dB
REM REPLAYGAIN_TRACK_PEAK 0.991058
INDEX 01 20:14:05
TRACK 07 AUDIO
TITLE "Every Breath You Take (차마)"
REM REPLAYGAIN_TRACK_GAIN -5.92 dB
REM REPLAYGAIN_TRACK_PEAK 0.958496
INDEX 01 23:50:10
TRACK 08 AUDIO
TITLE "Whatever"
REM REPLAYGAIN_TRACK_GAIN -7.74 dB
REM REPLAYGAIN_TRACK_PEAK 0.991058
INDEX 01 28:51:25
TRACK 09 AUDIO
TITLE "I'am Your Lady Tonight"
REM REPLAYGAIN_TRACK_GAIN -7.58 dB
REM REPLAYGAIN_TRACK_PEAK 0.991058
INDEX 01 32:27:55
TRACK 10 AUDIO
TITLE "Young Lovers (어린 연인)"
REM REPLAYGAIN_TRACK_GAIN -5.78 dB
REM REPLAYGAIN_TRACK_PEAK 0.991058
INDEX 01 35:37:00
TRACK 11 AUDIO
TITLE "Letting You Go"
REM REPLAYGAIN_TRACK_GAIN -5.58 dB
REM REPLAYGAIN_TRACK_PEAK 0.991058
INDEX 01 40:02:70
TRACK 12 AUDIO
TITLE "Someday Somewhere"
REM REPLAYGAIN_TRACK_GAIN -8.77 dB
REM REPLAYGAIN_TRACK_PEAK 0.991058
INDEX 01 44:05:43

Треклист:
01. Don't start now (3:44)
02. AGAIN (4:21)
03. DESTINY (5:12)
04. Love letter (4:04)
05. Love hurts (3:09)
06. POWER (3:05)
07. Let U go (4:40)
08. Don't start now (English version) (3:43)
09. ID;Peace B (English version) (3:54)
10. SARA (English version) (3:49)
11. Dreams come true (4:41)
12. I'm sorry (Chinese version) (4:47)
13. ID;Peace B (Chinese version) (3:53)
14. SARA (Chinese version) (3:49)
  
AUDIOCHECKER v1.2 - by Dester - opdester@freemail.hu
~~~~~~~~~~~~~~~~~

32 -===- D:\Music\Kwon BoA\BoA LL\BoA - Jumping into the World (FLAC)\BoA - Jumping into the World (FLAC).flac
Extracted successfully
Conclusion: This track looks like CDDA with probability 100%

  
REM GENRE KPop
REM DATE 2001
REM DISCID C40D530E
REM COMMENT ExactAudioCopy v0.99pb4
PERFORMER "BoA"
TITLE "Jumping into the World"
FILE "BoA - Jumping into the World (FLAC).flac" WAVE
TRACK 01 AUDIO
TITLE "Don't start now"
REM REPLAYGAIN_TRACK_GAIN -10.60 dB
REM REPLAYGAIN_TRACK_PEAK 0.991058
INDEX 01 00:00:00
TRACK 02 AUDIO
TITLE "AGAIN"
REM REPLAYGAIN_TRACK_GAIN -8.38 dB
REM REPLAYGAIN_TRACK_PEAK 0.989868
INDEX 01 03:44:33
TRACK 03 AUDIO
TITLE "DESTINY"
REM REPLAYGAIN_TRACK_GAIN -9.25 dB
REM REPLAYGAIN_TRACK_PEAK 0.991058
INDEX 01 08:05:53
TRACK 04 AUDIO
TITLE "Love letter"
REM REPLAYGAIN_TRACK_GAIN -6.48 dB
REM REPLAYGAIN_TRACK_PEAK 0.991058
INDEX 01 13:17:38
TRACK 05 AUDIO
TITLE "Love hurts"
REM REPLAYGAIN_TRACK_GAIN -7.99 dB
REM REPLAYGAIN_TRACK_PEAK 0.989868
INDEX 01 17:21:15
TRACK 06 AUDIO
TITLE "POWER"
REM REPLAYGAIN_TRACK_GAIN -8.96 dB
REM REPLAYGAIN_TRACK_PEAK 0.991058
INDEX 01 20:29:70
TRACK 07 AUDIO
TITLE "Let U go"
REM REPLAYGAIN_TRACK_GAIN -8.35 dB
REM REPLAYGAIN_TRACK_PEAK 0.991058
INDEX 01 23:34:43
TRACK 08 AUDIO
TITLE "Don't start now (English version)"
REM REPLAYGAIN_TRACK_GAIN -10.45 dB
REM REPLAYGAIN_TRACK_PEAK 0.991058
INDEX 01 28:14:58
TRACK 09 AUDIO
TITLE "ID;Peace B (English version)"
REM REPLAYGAIN_TRACK_GAIN -10.74 dB
REM REPLAYGAIN_TRACK_PEAK 0.991058
INDEX 01 31:58:18
TRACK 10 AUDIO
TITLE "SARA (English version)"
REM REPLAYGAIN_TRACK_GAIN -10.22 dB
REM REPLAYGAIN_TRACK_PEAK 0.991058
INDEX 01 35:52:25
TRACK 11 AUDIO
TITLE "Dreams come true"
REM REPLAYGAIN_TRACK_GAIN -9.46 dB
REM REPLAYGAIN_TRACK_PEAK 0.991058
INDEX 01 39:41:17
TRACK 12 AUDIO
TITLE "I'm sorry (Chinese version)"
REM REPLAYGAIN_TRACK_GAIN -7.71 dB
REM REPLAYGAIN_TRACK_PEAK 0.991058
INDEX 01 44:22:30
TRACK 13 AUDIO
TITLE "ID;Peace B (Chinese version)"
REM REPLAYGAIN_TRACK_GAIN -11.15 dB
REM REPLAYGAIN_TRACK_PEAK 0.991058
INDEX 01 49:09:60
TRACK 14 AUDIO
TITLE "SARA (Chinese version)"
REM REPLAYGAIN_TRACK_GAIN -10.18 dB
REM REPLAYGAIN_TRACK_PEAK 0.991058
INDEX 01 53:02:68

Треклист:
01. No.1 (3:14)
02. My Sweetie (3:37)
03. waiting.. (4:16)
04. Tragic (3:49)
05. Shy Love (3:38)
06. Day (4:13)
07. dear my love.. (4:02)
08. Beat it! (3:30)
09. P.O.L (Power Of Love) (5:15)
10. My Genie (4:16)
11. Pain-Love (3:42)
12. Happiness Lies (3:55)
13. Realize (stay with me) (4:19)
14. Azalea (4:41)
15. Listen to my Heart (3:56)
16. No.1 (English Ver.) (3:12)
  
AUDIOCHECKER v1.2 - by Dester - opdester@freemail.hu
~~~~~~~~~~~~~~~~~

51 -===- D:\Music\Kwon BoA\BoA LL\BoA - No.1 (FLAC)\BoA - No.1 (FLAC).flac
Extracted successfully
Conclusion: This track looks like CDDA with probability 100%

  
REM GENRE KPop
REM DATE 2002
REM DISCID E90EE710
REM COMMENT ExactAudioCopy v0.99pb4
PERFORMER "BoA"
TITLE "NO.1"
FILE "BoA - No.1 (FLAC).flac" WAVE
TRACK 01 AUDIO
TITLE "No.1"
REM REPLAYGAIN_TRACK_GAIN -10.58 dB
REM REPLAYGAIN_TRACK_PEAK 0.998840
INDEX 01 00:00:00
TRACK 02 AUDIO
TITLE "My Sweetie"
REM REPLAYGAIN_TRACK_GAIN -11.26 dB
REM REPLAYGAIN_TRACK_PEAK 0.966064
INDEX 01 03:13:72
TRACK 03 AUDIO
TITLE "waiting.."
REM REPLAYGAIN_TRACK_GAIN -6.27 dB
REM REPLAYGAIN_TRACK_PEAK 0.998840
INDEX 01 06:51:27
TRACK 04 AUDIO
TITLE "Tragic"
REM REPLAYGAIN_TRACK_GAIN -8.55 dB
REM REPLAYGAIN_TRACK_PEAK 0.998840
INDEX 01 11:07:25
TRACK 05 AUDIO
TITLE "Shy Love"
REM REPLAYGAIN_TRACK_GAIN -9.60 dB
REM REPLAYGAIN_TRACK_PEAK 0.998840
INDEX 01 14:56:20
TRACK 06 AUDIO
TITLE "Day"
REM REPLAYGAIN_TRACK_GAIN -9.64 dB
REM REPLAYGAIN_TRACK_PEAK 0.998840
INDEX 01 18:33:70
TRACK 07 AUDIO
TITLE "dear my love.."
REM REPLAYGAIN_TRACK_GAIN -6.72 dB
REM REPLAYGAIN_TRACK_PEAK 0.998840
INDEX 01 22:47:15
TRACK 08 AUDIO
TITLE "Beat it!"
REM REPLAYGAIN_TRACK_GAIN -8.99 dB
REM REPLAYGAIN_TRACK_PEAK 0.998840
INDEX 01 26:49:20
TRACK 09 AUDIO
TITLE "P.O.L (Power Of Love)"
REM REPLAYGAIN_TRACK_GAIN -6.80 dB
REM REPLAYGAIN_TRACK_PEAK 0.998840
INDEX 01 30:19:15
TRACK 10 AUDIO
TITLE "My Genie"
REM REPLAYGAIN_TRACK_GAIN -7.07 dB
REM REPLAYGAIN_TRACK_PEAK 0.998840
INDEX 01 35:34:15
TRACK 11 AUDIO
TITLE "Pain-Love"
REM REPLAYGAIN_TRACK_GAIN -8.91 dB
REM REPLAYGAIN_TRACK_PEAK 0.998840
INDEX 01 39:50:47
TRACK 12 AUDIO
TITLE "Happiness Lies"
REM REPLAYGAIN_TRACK_GAIN -7.90 dB
REM REPLAYGAIN_TRACK_PEAK 0.998840
INDEX 01 43:32:32
TRACK 13 AUDIO
TITLE "Realize (stay with me)"
REM REPLAYGAIN_TRACK_GAIN -8.60 dB
REM REPLAYGAIN_TRACK_PEAK 0.998840
INDEX 01 47:27:15
TRACK 14 AUDIO
TITLE "Azalea"
REM REPLAYGAIN_TRACK_GAIN -5.56 dB
REM REPLAYGAIN_TRACK_PEAK 0.998840
INDEX 01 51:45:70
TRACK 15 AUDIO
TITLE "Listen to my Heart"
REM REPLAYGAIN_TRACK_GAIN -9.44 dB
REM REPLAYGAIN_TRACK_PEAK 0.998840
INDEX 01 56:27:10
TRACK 16 AUDIO
TITLE "No.1 (English Ver.)"
REM REPLAYGAIN_TRACK_GAIN -11.25 dB
REM REPLAYGAIN_TRACK_PEAK 0.998840
INDEX 01 60:23:42

Треклист:
?. 01 LISTEN TO MY HEART (3:56)
?. 02 POWER (4:10)
?. 03 Every Heart ~Minna no Kimochi~ (4:33)
?. 04 Don't start now (3:44)
?. 05 Kimochi ha Tsutawaru (4:23)
?. 06 Share your heart(with me) (4:37)
?. 07 Dreams come true (4:55)
?. 08 Amazing Kiss (4:34)
?. 09 happiness (4:33)
?. 10 ID_Peace B(Japanese) (3:54)
?. 11 Nobody But You (3:46)
?. 12 Nothing's gonna change (5:23)
?. 13 LISTEN TO MY HEART (Hex Hector Main Mix_English Version) (4:10)
?. 14 meaning of peace, the (5:01)
  
AUDIOCHECKER v1.2 - by Dester - opdester@freemail.hu
~~~~~~~~~~~~~~~~~

34 -===- D:\Music\Kwon BoA\BoA LL\BoA - Listen To My Heart\01 LISTEN TO MY HEART.flac
Extracted successfully
Conclusion: This track looks like CDDA with probability 100%

35 -===- D:\Music\Kwon BoA\BoA LL\BoA - Listen To My Heart\02 POWER.flac
Extracted successfully
Conclusion: This track looks like CDDA with probability 99%

36 -===- D:\Music\Kwon BoA\BoA LL\BoA - Listen To My Heart\03 Every Heart ~Minna no Kimochi~.flac
Extracted successfully
Conclusion: This track looks like CDDA with probability 100%

37 -===- D:\Music\Kwon BoA\BoA LL\BoA - Listen To My Heart\04 Don't start now.flac
Extracted successfully
Conclusion: This track looks like CDDA with probability 100%

38 -===- D:\Music\Kwon BoA\BoA LL\BoA - Listen To My Heart\05 Kimochi ha Tsutawaru.flac
Extracted successfully
Conclusion: This track looks like CDDA with probability 100%

39 -===- D:\Music\Kwon BoA\BoA LL\BoA - Listen To My Heart\06 Share your heart(with me).flac
Extracted successfully
Conclusion: This track looks like CDDA with probability 100%

40 -===- D:\Music\Kwon BoA\BoA LL\BoA - Listen To My Heart\07 Dreams come true.flac
Extracted successfully
Conclusion: This track looks like CDDA with probability 100%

41 -===- D:\Music\Kwon BoA\BoA LL\BoA - Listen To My Heart\08 Amazing Kiss.flac
Extracted successfully
Conclusion: This track looks like CDDA with probability 100%

42 -===- D:\Music\Kwon BoA\BoA LL\BoA - Listen To My Heart\09 happiness.flac
Extracted successfully
Conclusion: This track looks like CDDA with probability 100%

43 -===- D:\Music\Kwon BoA\BoA LL\BoA - Listen To My Heart\10 ID_Peace B(Japanese).flac
Extracted successfully
Conclusion: This track looks like CDDA with probability 100%

44 -===- D:\Music\Kwon BoA\BoA LL\BoA - Listen To My Heart\11 Nobody But You.flac
Extracted successfully
Conclusion: This track looks like CDDA with probability 100%

45 -===- D:\Music\Kwon BoA\BoA LL\BoA - Listen To My Heart\12 Nothing's gonna change.flac
Extracted successfully
Conclusion: This track looks like CDDA with probability 100%

46 -===- D:\Music\Kwon BoA\BoA LL\BoA - Listen To My Heart\13 LISTEN TO MY HEART (Hex Hector Main Mix_English Version).flac
Extracted successfully
Conclusion: This track looks like CDDA with probability 100%

47 -===- D:\Music\Kwon BoA\BoA LL\BoA - Listen To My Heart\14 meaning of peace, the.flac
Extracted successfully
Conclusion: This track looks like CDDA with probability 100%

Треклист:
01. LISTEN TO MY HEART (AKIRA'S UN MOMENT REMIX) (3:32)
02. Amazing Kiss (Thunderpuss Japanese Club Mix) (3:29)
03. Every Heart -ミンナノキモチ- (Groove That Soul Mix) (5:34)
04. POWER (MASTERS OF FUNK Remix) (4:24)
05. ID; PEACE B (Shinichi Osawa Remix) (4:30)
06. Share your heart (with me) (Dub's Lovers Rock Remix) (5:52)
07. Don't start now (Two Main Guys Mix) (4:13)
08. 気持ちはつたわる (L12 Remix featuring Rude Boy Face) (3:51)
09. Amazing Kiss (Tiny Voice, Production Remix) (4:43)
10. LISTEN TO MY HEART (Hex Hector Japanese Club Mix) (7:43)
  
AUDIOCHECKER v1.2 - by Dester - opdester@freemail.hu
~~~~~~~~~~~~~~~~~

52 -===- D:\Music\Kwon BoA\BoA LL\BoA - Peace B Remixes (FLAC)\BoA - Peace B Remixes (FLAC).flac
Extracted successfully
Conclusion: This track looks like CDDA with probability 100%

  
REM GENRE JPop
REM DATE 2002
REM DISCID 6B0B370A
REM COMMENT ExactAudioCopy v0.99pb4
PERFORMER "BoA"
TITLE "Peace B.REMIXES"
FILE "BoA - Peace B Remixes (FLAC).flac" WAVE
TRACK 01 AUDIO
TITLE "LISTEN TO MY HEART (AKIRA'S UN MOMENT REMIX)"
REM REPLAYGAIN_TRACK_GAIN -9.32 dB
REM REPLAYGAIN_TRACK_PEAK 0.971436
INDEX 01 00:00:00
TRACK 02 AUDIO
TITLE "Amazing Kiss (Thunderpuss Japanese Club Mix)"
REM REPLAYGAIN_TRACK_GAIN -9.67 dB
REM REPLAYGAIN_TRACK_PEAK 0.963318
INDEX 01 03:32:17
TRACK 03 AUDIO
TITLE "Every Heart -ミンナノキモチ- (Groove That Soul Mix)"
REM REPLAYGAIN_TRACK_GAIN -9.44 dB
REM REPLAYGAIN_TRACK_PEAK 0.963013
INDEX 01 07:01:20
TRACK 04 AUDIO
TITLE "POWER (MASTERS OF FUNK Remix)"
REM REPLAYGAIN_TRACK_GAIN -8.13 dB
REM REPLAYGAIN_TRACK_PEAK 0.964691
INDEX 01 12:35:15
TRACK 05 AUDIO
TITLE "ID; PEACE B (Shinichi Osawa Remix)"
REM REPLAYGAIN_TRACK_GAIN -9.29 dB
REM REPLAYGAIN_TRACK_PEAK 0.964752
INDEX 01 16:59:12
TRACK 06 AUDIO
TITLE "Share your heart (with me) (Dub's Lovers Rock Remix)"
REM REPLAYGAIN_TRACK_GAIN -7.30 dB
REM REPLAYGAIN_TRACK_PEAK 0.966980
INDEX 01 21:28:60
TRACK 07 AUDIO
TITLE "Don't start now (Two Main Guys Mix)"
REM REPLAYGAIN_TRACK_GAIN -8.98 dB
REM REPLAYGAIN_TRACK_PEAK 0.973053
INDEX 01 27:20:42
TRACK 08 AUDIO
TITLE "気持ちはつたわる (L12 Remix featuring Rude Boy Face)"
REM REPLAYGAIN_TRACK_GAIN -8.47 dB
REM REPLAYGAIN_TRACK_PEAK 0.974030
INDEX 01 31:33:40
TRACK 09 AUDIO
TITLE "Amazing Kiss (Tiny Voice, Production Remix)"
REM REPLAYGAIN_TRACK_GAIN -7.86 dB
REM REPLAYGAIN_TRACK_PEAK 0.996704
INDEX 01 35:24:52
TRACK 10 AUDIO
TITLE "LISTEN TO MY HEART (Hex Hector Japanese Club Mix)"
REM REPLAYGAIN_TRACK_GAIN -8.69 dB
REM REPLAYGAIN_TRACK_PEAK 0.958466
INDEX 01 40:08:07

Треклист:
01. Miracle (4:19)
02. Every Heart (4:33)
03. Valenti (3:33)
04. Feelings Deep Inside (4:25)
05. Share Your Heart (With Me) (4:35)
06. Happiness (4:35)
07. Snow White (4:23)
08. Nobody But You (4:10)
09. Next Step (4:57)
10. Nothing's Gonna Change (5:20)
11. Listen To My Heart (3:56)
  
AUDIOCHECKER v1.2 - by Dester - opdester@freemail.hu
~~~~~~~~~~~~~~~~~

48 -===- D:\Music\Kwon BoA\BoA LL\BoA - MIRACLE (FLAC)\BoA - MIRACLE (FLAC).flac
Extracted successfully
Conclusion: This track looks like CDDA with probability 100%

  
REM GENRE KPop
REM DATE 2002
REM DISCID 7D0B6C0B
REM COMMENT ExactAudioCopy v0.99pb4
PERFORMER "BoA"
TITLE "MIRACLE"
FILE "BoA - MIRACLE (FLAC).flac" WAVE
TRACK 01 AUDIO
TITLE "Miracle"
REM REPLAYGAIN_TRACK_GAIN -10.40 dB
REM REPLAYGAIN_TRACK_PEAK 0.998871
INDEX 01 00:00:00
TRACK 02 AUDIO
TITLE "Every Heart"
REM REPLAYGAIN_TRACK_GAIN -10.59 dB
REM REPLAYGAIN_TRACK_PEAK 0.998871
INDEX 01 04:18:57
TRACK 03 AUDIO
TITLE "Valenti"
REM REPLAYGAIN_TRACK_GAIN -11.33 dB
REM REPLAYGAIN_TRACK_PEAK 0.998871
INDEX 01 08:51:46
TRACK 04 AUDIO
TITLE "Feelings Deep Inside"
REM REPLAYGAIN_TRACK_GAIN -11.70 dB
REM REPLAYGAIN_TRACK_PEAK 0.998871
INDEX 01 12:24:43
TRACK 05 AUDIO
TITLE "Share Your Heart (With Me)"
REM REPLAYGAIN_TRACK_GAIN -10.33 dB
REM REPLAYGAIN_TRACK_PEAK 0.998871
INDEX 01 16:49:10
TRACK 06 AUDIO
TITLE "Happiness"
REM REPLAYGAIN_TRACK_GAIN -11.10 dB
REM REPLAYGAIN_TRACK_PEAK 0.998871
INDEX 01 21:23:57
TRACK 07 AUDIO
TITLE "Snow White"
REM REPLAYGAIN_TRACK_GAIN -9.91 dB
REM REPLAYGAIN_TRACK_PEAK 0.998871
INDEX 01 25:59:02
TRACK 08 AUDIO
TITLE "Nobody But You"
REM REPLAYGAIN_TRACK_GAIN -10.88 dB
REM REPLAYGAIN_TRACK_PEAK 0.998871
INDEX 01 30:21:50
TRACK 09 AUDIO
TITLE "Next Step"
REM REPLAYGAIN_TRACK_GAIN -10.29 dB
REM REPLAYGAIN_TRACK_PEAK 0.998871
INDEX 01 34:31:60
TRACK 10 AUDIO
TITLE "Nothing's Gonna Change"
REM REPLAYGAIN_TRACK_GAIN -9.50 dB
REM REPLAYGAIN_TRACK_PEAK 0.998871
INDEX 01 39:28:42
TRACK 11 AUDIO
TITLE "Listen To My Heart"
REM REPLAYGAIN_TRACK_GAIN -9.02 dB
REM REPLAYGAIN_TRACK_PEAK 0.986267
INDEX 01 44:48:54

Треклист:
?. B.I.O (4:17)
?. BESIDE YOU ~Boku wo Yobu Koe~ (4:21)
?. Discovery (4:23)
?. Feel the same (4:33)
?. flower (4:30)
?. JEWEL SONG (5:26)
?. Kiseki (4:20)
?. Moon & Sunrise (5:14)
?. NO.1 (3:15)
?. Searching for truth (4:00)
?. Sekai no Katasumi de (4:25)
?. VALENTI (4:19)
?. WINDING ROAD featuring DABO (4:30)
  
AUDIOCHECKER v1.2 - by Dester - opdester@freemail.hu
~~~~~~~~~~~~~~~~~

70 -===- D:\Music\Kwon BoA\BoA LL\BoA - Valenti (FLAC)\1-01 VALENTI.flac
Extracted successfully
Conclusion: This track looks like CDDA with probability 100%

71 -===- D:\Music\Kwon BoA\BoA LL\BoA - Valenti (FLAC)\1-02 JEWEL SONG.flac
Extracted successfully
Conclusion: This track looks like CDDA with probability 100%

72 -===- D:\Music\Kwon BoA\BoA LL\BoA - Valenti (FLAC)\1-03 B.I.O.flac
Extracted successfully
Conclusion: This track looks like CDDA with probability 100%

73 -===- D:\Music\Kwon BoA\BoA LL\BoA - Valenti (FLAC)\1-04 Sekai no Katasumi de.flac
Extracted successfully
Conclusion: This track looks like CDDA with probability 100%

74 -===- D:\Music\Kwon BoA\BoA LL\BoA - Valenti (FLAC)\1-05 Kiseki.flac
Extracted successfully
Conclusion: This track looks like CDDA with probability 100%

75 -===- D:\Music\Kwon BoA\BoA LL\BoA - Valenti (FLAC)\1-06 WINDING ROAD featuring DABO.flac
Extracted successfully
Conclusion: This track looks like CDDA with probability 100%

76 -===- D:\Music\Kwon BoA\BoA LL\BoA - Valenti (FLAC)\1-07 Searching for truth.flac
Extracted successfully
Conclusion: This track looks like CDDA with probability 100%

77 -===- D:\Music\Kwon BoA\BoA LL\BoA - Valenti (FLAC)\1-08 Moon & Sunrise.flac
Extracted successfully
Conclusion: This track looks like CDDA with probability 100%

78 -===- D:\Music\Kwon BoA\BoA LL\BoA - Valenti (FLAC)\1-09 Discovery.flac
Extracted successfully
Conclusion: This track looks like CDDA with probability 99%

79 -===- D:\Music\Kwon BoA\BoA LL\BoA - Valenti (FLAC)\1-10 flower.flac
Extracted successfully
Conclusion: This track looks like CDDA with probability 100%

80 -===- D:\Music\Kwon BoA\BoA LL\BoA - Valenti (FLAC)\1-11 BESIDE YOU ~Boku wo Yobu Koe~.flac
Extracted successfully
Conclusion: This track looks like CDDA with probability 100%

81 -===- D:\Music\Kwon BoA\BoA LL\BoA - Valenti (FLAC)\1-12 Feel the same.flac
Extracted successfully
Conclusion: This track looks like CDDA with probability 100%

82 -===- D:\Music\Kwon BoA\BoA LL\BoA - Valenti (FLAC)\1-13 NO.1.flac
Extracted successfully
Conclusion: This track looks like CDDA with probability 99%

Треклист:
01. Time to Begin (3:37)
02. Atlantis Princess (3:44)
03. Tree (4:27)
04. Milky way (3:19)
05. Beat Of Angel (3:39)
06. Gift (3:44)
07. Where are you (3:48)
08. Make a Move (3:03)
09. so much in love (3:55)
10. Endless Sorrow (4:08)
11. The Show Must Go On (4:07)
12. The Lights of Seoul (4:26)
13. The Lights of Seoul (English Version) (4:25)
  
AUDIOCHECKER v1.2 - by Dester - opdester@freemail.hu
~~~~~~~~~~~~~~~~~

01 -===- D:\Music\Kwon BoA\BoA LL\BoA - Atlantis Princess (FLAC)\BoA - Atlantis Princess (FLAC).flac
Extracted successfully
Conclusion: This track looks like CDDA with probability 100%

  
REM GENRE KPop
REM DATE 2003
REM DISCID B90BCF0D
REM COMMENT ExactAudioCopy v0.99pb4
PERFORMER "BoA"
TITLE "Atlantis Princess"
FILE "BoA - Atlantis Princess (FLAC).flac" WAVE
TRACK 01 AUDIO
TITLE "Time to Begin"
REM REPLAYGAIN_TRACK_GAIN -9.89 dB
REM REPLAYGAIN_TRACK_PEAK 0.998871
INDEX 01 00:00:00
TRACK 02 AUDIO
TITLE "Atlantis Princess"
REM REPLAYGAIN_TRACK_GAIN -9.96 dB
REM REPLAYGAIN_TRACK_PEAK 0.998871
INDEX 01 03:36:57
TRACK 03 AUDIO
TITLE "Tree"
REM REPLAYGAIN_TRACK_GAIN -9.58 dB
REM REPLAYGAIN_TRACK_PEAK 0.997589
INDEX 01 07:21:10
TRACK 04 AUDIO
TITLE "Milky way"
REM REPLAYGAIN_TRACK_GAIN -11.28 dB
REM REPLAYGAIN_TRACK_PEAK 0.998871
INDEX 01 11:48:47
TRACK 05 AUDIO
TITLE "Beat Of Angel"
REM REPLAYGAIN_TRACK_GAIN -9.24 dB
REM REPLAYGAIN_TRACK_PEAK 0.998871
INDEX 01 15:07:60
TRACK 06 AUDIO
TITLE "Gift"
REM REPLAYGAIN_TRACK_GAIN -11.25 dB
REM REPLAYGAIN_TRACK_PEAK 0.998871
INDEX 01 18:47:20
TRACK 07 AUDIO
TITLE "Where are you"
REM REPLAYGAIN_TRACK_GAIN -8.52 dB
REM REPLAYGAIN_TRACK_PEAK 0.998871
INDEX 01 22:31:27
TRACK 08 AUDIO
TITLE "Make a Move"
REM REPLAYGAIN_TRACK_GAIN -9.62 dB
REM REPLAYGAIN_TRACK_PEAK 0.998871
INDEX 01 26:19:22
TRACK 09 AUDIO
TITLE "so much in love"
REM REPLAYGAIN_TRACK_GAIN -9.98 dB
REM REPLAYGAIN_TRACK_PEAK 0.998871
INDEX 01 29:22:02
TRACK 10 AUDIO
TITLE "Endless Sorrow"
REM REPLAYGAIN_TRACK_GAIN -8.94 dB
REM REPLAYGAIN_TRACK_PEAK 0.998871
INDEX 01 33:17:00
TRACK 11 AUDIO
TITLE "The Show Must Go On"
REM REPLAYGAIN_TRACK_GAIN -9.59 dB
REM REPLAYGAIN_TRACK_PEAK 0.998871
INDEX 01 37:25:32
TRACK 12 AUDIO
TITLE "The Lights of Seoul"
REM REPLAYGAIN_TRACK_GAIN -9.74 dB
REM REPLAYGAIN_TRACK_PEAK 0.998871
INDEX 00 41:30:56
INDEX 01 41:32:22
TRACK 13 AUDIO
TITLE "The Lights of Seoul (English Version)"
REM REPLAYGAIN_TRACK_GAIN -9.82 dB
REM REPLAYGAIN_TRACK_PEAK 0.998871
INDEX 00 45:57:18
INDEX 01 45:58:55

Треклист:
01. HOLIDAY (4:12)
02. 奇蹟 (SOUL'd OUT Remix) (5:35)
03. Flying without wings (3:39)
04. Show me what you got (DJ WATARAI REMIX) (4:55)
05. JEWEL SONG (AKIRA'S CANTO DIAMANTE VERSION) (4:46)
06. Shine We Are! (GROOVE THAT SOUL REMIX) (6:15)
07. flower (D.I's 'Luv hurts' REMIX) (4:35)
08. WINDING ROAD feat. DABO (4:36)
09. Everything needs love feat. BoA (Piano-pella) (6:47)
10. VALENTI (English Version) (4:24)
11. Every Heart (English Version) (4:36)
12. LISTEN TO MY HEART (English Version) (3:59)
13. Amazing Kiss (English Version) (4:37)
  
AUDIOCHECKER v1.2 - by Dester - opdester@freemail.hu
~~~~~~~~~~~~~~~~~

50 -===- D:\Music\Kwon BoA\BoA LL\BoA - Next World (FLAC)\BoA - Next World (FLAC).flac
Extracted successfully
Conclusion: This track looks like CDDA with probability 99%

  
REM GENRE JPop
REM DATE 2003
REM DISCID A40EBF0D
REM COMMENT ExactAudioCopy v0.99pb4
PERFORMER "BoA"
TITLE "Next World"
FILE "BoA - Next World (FLAC).flac" WAVE
TRACK 01 AUDIO
TITLE "HOLIDAY"
REM REPLAYGAIN_TRACK_GAIN -10.45 dB
REM REPLAYGAIN_TRACK_PEAK 1.000000
INDEX 01 00:00:00
TRACK 02 AUDIO
TITLE "奇蹟 (SOUL'd OUT Remix)"
REM REPLAYGAIN_TRACK_GAIN -9.86 dB
REM REPLAYGAIN_TRACK_PEAK 1.000000
INDEX 01 04:11:50
TRACK 03 AUDIO
TITLE "Flying without wings"
REM REPLAYGAIN_TRACK_GAIN -9.16 dB
REM REPLAYGAIN_TRACK_PEAK 0.999939
INDEX 01 09:46:30
TRACK 04 AUDIO
TITLE "Show me what you got (DJ WATARAI REMIX)"
REM REPLAYGAIN_TRACK_GAIN -10.73 dB
REM REPLAYGAIN_TRACK_PEAK 1.000000
INDEX 01 13:25:25
TRACK 05 AUDIO
TITLE "JEWEL SONG (AKIRA'S CANTO DIAMANTE VERSION)"
REM REPLAYGAIN_TRACK_GAIN -8.48 dB
REM REPLAYGAIN_TRACK_PEAK 1.000000
INDEX 01 18:19:72
TRACK 06 AUDIO
TITLE "Shine We Are! (GROOVE THAT SOUL REMIX)"
REM REPLAYGAIN_TRACK_GAIN -9.61 dB
REM REPLAYGAIN_TRACK_PEAK 1.000000
INDEX 01 23:06:00
TRACK 07 AUDIO
TITLE "flower (D.I's 'Luv hurts' REMIX)"
REM REPLAYGAIN_TRACK_GAIN -8.84 dB
REM REPLAYGAIN_TRACK_PEAK 1.000000
INDEX 01 29:21:12
TRACK 08 AUDIO
TITLE "WINDING ROAD feat. DABO"
REM REPLAYGAIN_TRACK_GAIN -9.44 dB
REM REPLAYGAIN_TRACK_PEAK 1.000000
INDEX 01 33:56:00
TRACK 09 AUDIO
TITLE "Everything needs love feat. BoA (Piano-pella)"
REM REPLAYGAIN_TRACK_GAIN -8.18 dB
REM REPLAYGAIN_TRACK_PEAK 0.992554
INDEX 01 38:31:57
TRACK 10 AUDIO
TITLE "VALENTI (English Version)"
REM REPLAYGAIN_TRACK_GAIN -10.20 dB
REM REPLAYGAIN_TRACK_PEAK 1.000000
INDEX 01 45:18:40
TRACK 11 AUDIO
TITLE "Every Heart (English Version)"
REM REPLAYGAIN_TRACK_GAIN -10.25 dB
REM REPLAYGAIN_TRACK_PEAK 0.981354
INDEX 01 49:43:02
TRACK 12 AUDIO
TITLE "LISTEN TO MY HEART (English Version)"
REM REPLAYGAIN_TRACK_GAIN -8.98 dB
REM REPLAYGAIN_TRACK_PEAK 1.000000
INDEX 01 54:18:70
TRACK 13 AUDIO
TITLE "Amazing Kiss (English Version)"
REM REPLAYGAIN_TRACK_GAIN -9.74 dB
REM REPLAYGAIN_TRACK_PEAK 1.000000
INDEX 01 58:18:12

Треклист:
01. B.I.O (4:15)
02. Shine we are! (5:03)
03. One Way (4:42)
04. Discovery (4:19)
05. Milky Way (Club Remix) (3:36)
06. Flower (4:25)
07. Searching for Truth (3:59)
08. Beside You (4:20)
09. Always (4:48)
10. Flying without wings - Westlife Featuring BoA (3:36)
  
AUDIOCHECKER v1.2 - by Dester - opdester@freemail.hu
~~~~~~~~~~~~~~~~~

53 -===- D:\Music\Kwon BoA\BoA LL\BoA - Shine We Are! (FLAC)\BoA - Shine We Are (FLAC).flac
Extracted successfully
Conclusion: This track looks like MPEG with probability 95%

  
REM GENRE KPop
REM DATE 2003
REM DISCID 6E0A160A
REM COMMENT ExactAudioCopy v0.99pb4
PERFORMER "BoA"
TITLE "Shine We Are!"
FILE "BoA - Shine We Are (FLAC).flac" WAVE
TRACK 01 AUDIO
TITLE "B.I.O"
REM REPLAYGAIN_TRACK_GAIN -9.61 dB
REM REPLAYGAIN_TRACK_PEAK 0.998871
INDEX 01 00:00:00
TRACK 02 AUDIO
TITLE "Shine we are!"
REM REPLAYGAIN_TRACK_GAIN -9.89 dB
REM REPLAYGAIN_TRACK_PEAK 0.998871
INDEX 01 04:15:05
TRACK 03 AUDIO
TITLE "One Way"
REM REPLAYGAIN_TRACK_GAIN -7.62 dB
REM REPLAYGAIN_TRACK_PEAK 0.998871
INDEX 01 09:18:10
TRACK 04 AUDIO
TITLE "Discovery"
REM REPLAYGAIN_TRACK_GAIN -8.19 dB
REM REPLAYGAIN_TRACK_PEAK 0.998871
INDEX 01 14:00:07
TRACK 05 AUDIO
TITLE "Milky Way (Club Remix)"
REM REPLAYGAIN_TRACK_GAIN -9.76 dB
REM REPLAYGAIN_TRACK_PEAK 0.998871
INDEX 01 18:18:72
TRACK 06 AUDIO
TITLE "Flower"
REM REPLAYGAIN_TRACK_GAIN -10.06 dB
REM REPLAYGAIN_TRACK_PEAK 0.998871
INDEX 01 21:55:05
TRACK 07 AUDIO
TITLE "Searching for Truth"
REM REPLAYGAIN_TRACK_GAIN -10.36 dB
REM REPLAYGAIN_TRACK_PEAK 0.998871
INDEX 01 26:19:57
TRACK 08 AUDIO
TITLE "Beside You"
REM REPLAYGAIN_TRACK_GAIN -9.20 dB
REM REPLAYGAIN_TRACK_PEAK 0.998871
INDEX 01 30:18:52
TRACK 09 AUDIO
TITLE "Always"
REM REPLAYGAIN_TRACK_GAIN -7.54 dB
REM REPLAYGAIN_TRACK_PEAK 0.997803
INDEX 01 34:38:42
TRACK 10 AUDIO
TITLE "Flying without wings - Westlife Featuring BoA"
REM REPLAYGAIN_TRACK_GAIN -9.14 dB
REM REPLAYGAIN_TRACK_PEAK 0.998779
INDEX 01 39:26:60

Треклист:
01. Rock With You (4:19)
02. Shine We Are! (5:08)
03. SOME DAY ONE DAY feat.VERBAL(m-flo) (4:37)
04. LOVE & HONESTY (4:45)
05. Midnight Parade (4:23)
06. Be the one (3:47)
07. EXPECT (4:21)
08. OVER~across the time~ (5:52)
09. 心の手紙 (4:51)
10. DOUBLE (3:29)
11. Easy To Be Hard (4:58)
12. Song With No Name~名前のない歌~ (2:49)
13. Milky Way-君の歌- (3:21)
  
-----------------------

DON'T MODIFY THIS FILE

-----------------------

PERFORMER: auCDtect Task Manager, ver. 1.5.1RC6 build 1.5.1.7
Copyright (c) 2008-2010 y-soft. All rights reserved
http://y-soft.org

ANALYZER: auCDtect: CD records authenticity detector, version 0.8.2
Copyright (c) 2004 Oleg Berngardt. All rights reserved.
Copyright (c) 2004 Alexander Djourik. All rights reserved.

FILE: 1-13 Milky Way ~Kimi no Uta~.m4a
Size: 26392133 Hash: 6E4F8A4144164AF0E3B8AB1090F27C53 Accuracy: -m0
Conclusion: CDDA 100%
Signature: CBDB272F4F323F8B63746310C2235F464B5FCE63
FILE: 1-12 Song With No Name ~Namae no nai Uta~.m4a
Size: 16449206 Hash: AF7528478889A6CE6AE2293C6BC771B3 Accuracy: -m0
Conclusion: CDDA 100%
Signature: 21A16B5FB162C3106D62A739C97EBC2B36B2E8F1
FILE: 1-11 Easy To Be Hard.m4a
Size: 35693166 Hash: 48607DECB2CD0A59BA45D2E340B98A63 Accuracy: -m0
Conclusion: CDDA 100%
Signature: B39BA2D23E5DA4EA549172BEB8261B2D4A447C83
FILE: 1-10 DOUBLE.m4a
Size: 25580738 Hash: C5A5AEB54EC0206DC752A026B05994F7 Accuracy: -m0
Conclusion: CDDA 100%
Signature: 4AED73C7413529047738C22AEEB8E465B004F404
FILE: 1-09 Kokoro no Tegami.m4a
Size: 35353165 Hash: C662B0178BC133FC9DE1F00F65493C94 Accuracy: -m0
Conclusion: CDDA 99%
Signature: BEBC7395C1C18DCA516196C7D5518E1EF2AC64C2
FILE: 1-08 OVER ~across the time~.m4a
Size: 43963893 Hash: 8ACDAED518DC1A9C97B75CF86EAA8E94 Accuracy: -m0
Conclusion: CDDA 100%
Signature: 0B6CCC7F9C42FB41C140A35ADE1F003A9FD19199
FILE: 1-07 EXPECT.m4a
Size: 33195046 Hash: 1442FC025FC8F8BD11998E75195EA074 Accuracy: -m0
Conclusion: CDDA 100%
Signature: 9D0FA6DB17722DC6854C5C09EA32DBFE9E585901
FILE: 1-06 Be the one.m4a
Size: 29769798 Hash: 75A37CC83F16B1217C0D05D65D8675F4 Accuracy: -m0
Conclusion: CDDA 100%
Signature: 7C107039D8C87B560832A0DF5A5714BA67352B8B
FILE: 1-05 Midnight Parade.m4a
Size: 30080746 Hash: 93D74D7C649849035F1B226F540871DF Accuracy: -m0
Conclusion: CDDA 99%
Signature: 8B26A61C88F8B8CE11C3210E026C18F937845FD6
FILE: 1-04 LOVE & HONESTY.m4a
Size: 35320818 Hash: 8BD7C13801D1AAEDC6732DF637F36C3D Accuracy: -m0
Conclusion: CDDA 100%
Signature: C06DBC61E331A82DF8391DEAF13B1BB434262D73
FILE: 1-03 SOME DAY ONE DAY feat.VERBAL(m-flo).m4a
Size: 31902669 Hash: 275A524047CDB41EBFAA7DA53E2C22A4 Accuracy: -m0
Conclusion: CDDA 100%
Signature: 4622A969731E63F63A68CA2280157B67A2F53CCC
FILE: 1-02 Shine We Are!.m4a
Size: 39430172 Hash: 2C75402E759F99E13380B87B097DE729 Accuracy: -m0
Conclusion: CDDA 100%
Signature: 50F3084EE5B33F1BE6247F43449D0452D469524D
FILE: 1-01 Rock With You.m4a
Size: 31776128 Hash: E91672D5AA3B68AAC3EEC87D46CBF0CB Accuracy: -m0
Conclusion: CDDA 100%
Signature: 62A99047BBD4EF505B1A16D93ACA5327F96F2A02

Треклист:
01. NO.1
02. Milky way
03. Listen to my Heart
04. Time to Begin
05. ID;Peace B
06. My Sweetie
07. Day
08. Don't start now
09. Atlantis Princess
10. Realize (stay with me)
11. SARA
12. Where are you
13. Come to Me
14. waiting..
15. The Lights of Seoul
  
AUDIOCHECKER v1.2 - by Dester - opdester@freemail.hu
~~~~~~~~~~~~~~~~~

33 -===- D:\Music\Kwon BoA\BoA LL\BoA - K-Pop Selection (FLAC)\BoA - K-Pop Selection.flac
Extracted successfully
Conclusion: This track looks like CDDA with probability 100%
Треклист:
01. My Name (3:15)
02. Spark (3:17)
03. I Got U (3:33)
04. My Prayer (4:26)
05. One Wings Embracing Each Other (3:35)
06. Pit A Pat (4:17)
07. I Kiss (3:21)
08. Don't Give A Damn (3:06)
09. Maybe...maybe not!? (3:26)
10. Etude (3:22)
11. Good-Bye (4:18)
12. Feel Me (3:14)
13. Stay In Love (4:20)
14. We (4:48)
15. My Name (Chinese Ver.) (3:15)
16. My Prayer (Chinese Ver.) (4:24)
  
AUDIOCHECKER v1.2 - by Dester - opdester@freemail.hu
~~~~~~~~~~~~~~~~~

49 -===- D:\Music\Kwon BoA\BoA LL\BoA - My Name (FLAC)\BoA - My Name (FLAC).flac
Extracted successfully
Conclusion: This track looks like CDDA with probability 100%

  
PERFORMER "??"
TITLE "My Name"
FILE "BoA - My Name (FLAC).flac" WAVE
TRACK 01 AUDIO
TITLE "My Name"
PERFORMER "BoA"
REM REPLAYGAIN_TRACK_GAIN -9.52 dB
REM REPLAYGAIN_TRACK_PEAK 0.997803
INDEX 01 00:00:00
TRACK 02 AUDIO
TITLE "Spark"
PERFORMER "BoA"
REM REPLAYGAIN_TRACK_GAIN -9.61 dB
REM REPLAYGAIN_TRACK_PEAK 0.997803
INDEX 01 03:15:02
TRACK 03 AUDIO
TITLE "I Got U"
PERFORMER "BoA"
REM REPLAYGAIN_TRACK_GAIN -8.00 dB
REM REPLAYGAIN_TRACK_PEAK 0.997803
INDEX 01 06:32:10
TRACK 04 AUDIO
TITLE "My Prayer"
PERFORMER "BoA"
REM REPLAYGAIN_TRACK_GAIN -9.20 dB
REM REPLAYGAIN_TRACK_PEAK 0.997803
INDEX 01 10:04:55
TRACK 05 AUDIO
TITLE "One Wings Embracing Each Other"
PERFORMER "BoA"
REM REPLAYGAIN_TRACK_GAIN -10.53 dB
REM REPLAYGAIN_TRACK_PEAK 0.997833
INDEX 01 14:30:45
TRACK 06 AUDIO
TITLE "Pit A Pat"
PERFORMER "BoA"
REM REPLAYGAIN_TRACK_GAIN -9.39 dB
REM REPLAYGAIN_TRACK_PEAK 0.997803
INDEX 01 18:05:57
TRACK 07 AUDIO
TITLE "I Kiss"
PERFORMER "BoA"
REM REPLAYGAIN_TRACK_GAIN -10.28 dB
REM REPLAYGAIN_TRACK_PEAK 0.997803
INDEX 01 22:22:40
TRACK 08 AUDIO
TITLE "Don't Give A Damn"
PERFORMER "BoA"
REM REPLAYGAIN_TRACK_GAIN -10.07 dB
REM REPLAYGAIN_TRACK_PEAK 0.997803
INDEX 01 25:43:42
TRACK 09 AUDIO
TITLE "Maybe...maybe not!?"
PERFORMER "BoA"
REM REPLAYGAIN_TRACK_GAIN -8.55 dB
REM REPLAYGAIN_TRACK_PEAK 0.997803
INDEX 01 28:49:35
TRACK 10 AUDIO
TITLE "Etude"
PERFORMER "BoA"
REM REPLAYGAIN_TRACK_GAIN -10.23 dB
REM REPLAYGAIN_TRACK_PEAK 0.997803
INDEX 01 32:15:45
TRACK 11 AUDIO
TITLE "Good-Bye"
PERFORMER "BoA"
REM REPLAYGAIN_TRACK_GAIN -8.24 dB
REM REPLAYGAIN_TRACK_PEAK 0.997803
INDEX 01 35:37:70
TRACK 12 AUDIO
TITLE "Feel Me"
PERFORMER "BoA"
REM REPLAYGAIN_TRACK_GAIN -9.41 dB
REM REPLAYGAIN_TRACK_PEAK 0.997803
INDEX 01 39:55:70
TRACK 13 AUDIO
TITLE "Stay In Love"
PERFORMER "BoA"
REM REPLAYGAIN_TRACK_GAIN -8.82 dB
REM REPLAYGAIN_TRACK_PEAK 0.997803
INDEX 01 43:10:02
TRACK 14 AUDIO
TITLE "We"
PERFORMER "BoA"
REM REPLAYGAIN_TRACK_GAIN -8.96 dB
REM REPLAYGAIN_TRACK_PEAK 0.997803
INDEX 01 47:29:47
TRACK 15 AUDIO
TITLE "My Name (Chinese Ver.)"
PERFORMER "BoA"
REM REPLAYGAIN_TRACK_GAIN -8.92 dB
REM REPLAYGAIN_TRACK_PEAK 0.998871
INDEX 01 52:17:44
TRACK 16 AUDIO
TITLE "My Prayer (Chinese Ver.)"
PERFORMER "BoA"
REM REPLAYGAIN_TRACK_GAIN -8.60 dB
REM REPLAYGAIN_TRACK_PEAK 0.998871
INDEX 01 55:32:44

Треклист:
01. Listen To My Heart (3:57)
02. ID;Peace B (3:53)
03. Amazing Kiss (4:32)
04. 気持ちはつたわる (4:23)
05. Every Heart -ミンナノキモチ (4:33)
06. VALENTI (4:20)
07. 奇跡 (4:19)
08. No.1 (3:13)
09. JEWEL SONG (5:24)
10. Shine We Are! (5:05)
11. Double (3:26)
12. Rock With You (4:15)
13. Quincy (3:45)
14. コノヨノシルシ (3:45)
15. メリクリ (5:52)
16. 「LA・LA・LA LOVE SONG」BoA w/z SOUL'd OUT (5:37)
  
EAC ЧҐИЎИХЦѕОДјюґУ1. БщФВ 2006, 12:58 УГУЪ CD
BoA / BEST OF SOUL

К№УГЗэ¶ЇЖч ЈєLITE-ON DVDRW SOHW-1693S Adapter: 3 ID: 1
¶БИЎДЈКЅ ЈєІ»К№УГ C2, К№УГѕ«И·БчЈ¬І»ЅыУГ»єґжµД°ІИ«ДЈКЅ
ЧйєП¶БРґЖ«ТЖРЈХэЈє0
¶БИЎ Lead-In єН Lead-Out : ·с

ЛщУГКдіцДЈКЅЈєMonkey's Audio Lossless Encoder v3.99 DLL
Normal Lossless Compression

ЖдЛыСЎПо Јє
УГѕІТфМоідЧҐИЎЦР¶ЄК§Ж«ТЖµДІЙСщ : КЗ
ИҐіэКЧОІѕІТфїй : ·с
Win NT ј° 2000 ±ѕµШ Win32 ЅУїЪ

·¶О§ЧґМ¬ј°ґнОу
ТССЎФс·¶О§
ОДјюГы F:\BoA - BEST OF SOUL.ape

·еЦµµзЖЅ 100.0 %
·¶О§ЦКБї 99.9 %
CRC 06E1D570
ёґЦЖіЙ№¦

Г»УРґнОу·ўЙъ

ЧґМ¬±ЁёжЅбОІ

  
AUDIOCHECKER v1.2 - by Dester - opdester@freemail.hu
~~~~~~~~~~~~~~~~~

29 -===- D:\Music\Kwon BoA\BoA LL\BoA - BEST OF SOUL (APE)\BoA - BEST OF SOUL.ape
Extracted successfully
Conclusion: This track looks like CDDA with probability 100%

  
REM GENRE Pop
REM DATE 2005
REM COMMENT Exact Audio Copy
PERFORMER "BoA"
TITLE "BEST OF SOUL"
FILE "BoA - BEST OF SOUL.ape" WAVE
TRACK 01 AUDIO
TITLE "Listen To My Heart"
REM REPLAYGAIN_TRACK_GAIN -9.02 dB
REM REPLAYGAIN_TRACK_PEAK 1.000000
INDEX 01 00:00:00
TRACK 02 AUDIO
TITLE "ID;Peace B"
REM REPLAYGAIN_TRACK_GAIN -10.14 dB
REM REPLAYGAIN_TRACK_PEAK 1.000000
INDEX 01 03:57:30
TRACK 03 AUDIO
TITLE "Amazing Kiss"
REM REPLAYGAIN_TRACK_GAIN -8.82 dB
REM REPLAYGAIN_TRACK_PEAK 1.000000
INDEX 01 07:50:64
TRACK 04 AUDIO
TITLE "気持ちはつたわる"
REM REPLAYGAIN_TRACK_GAIN -9.50 dB
REM REPLAYGAIN_TRACK_PEAK 1.000000
INDEX 01 12:22:63
TRACK 05 AUDIO
TITLE "Every Heart -ミンナノキモチ"
REM REPLAYGAIN_TRACK_GAIN -8.44 dB
REM REPLAYGAIN_TRACK_PEAK 1.000000
INDEX 01 16:45:65
TRACK 06 AUDIO
TITLE "VALENTI"
REM REPLAYGAIN_TRACK_GAIN -10.23 dB
REM REPLAYGAIN_TRACK_PEAK 1.000000
INDEX 01 21:18:29
TRACK 07 AUDIO
TITLE "奇跡"
REM REPLAYGAIN_TRACK_GAIN -7.78 dB
REM REPLAYGAIN_TRACK_PEAK 1.000000
INDEX 00 25:37:40
INDEX 01 25:38:43
TRACK 08 AUDIO
TITLE "No.1"
REM REPLAYGAIN_TRACK_GAIN -9.99 dB
REM REPLAYGAIN_TRACK_PEAK 1.000000
INDEX 00 29:55:61
INDEX 01 29:58:04
TRACK 09 AUDIO
TITLE "JEWEL SONG"
REM REPLAYGAIN_TRACK_GAIN -8.64 dB
REM REPLAYGAIN_TRACK_PEAK 1.000000
INDEX 00 33:10:49
INDEX 01 33:11:26
TRACK 10 AUDIO
TITLE "Shine We Are!"
REM REPLAYGAIN_TRACK_GAIN -9.66 dB
REM REPLAYGAIN_TRACK_PEAK 1.000000
INDEX 00 38:33:67
INDEX 01 38:35:21
TRACK 11 AUDIO
TITLE "Double"
REM REPLAYGAIN_TRACK_GAIN -9.94 dB
REM REPLAYGAIN_TRACK_PEAK 1.000000
INDEX 00 43:38:46
INDEX 01 43:40:08
TRACK 12 AUDIO
TITLE "Rock With You"
REM REPLAYGAIN_TRACK_GAIN -9.73 dB
REM REPLAYGAIN_TRACK_PEAK 1.000000
INDEX 00 47:04:65
INDEX 01 47:06:13
TRACK 13 AUDIO
TITLE "Quincy"
REM REPLAYGAIN_TRACK_GAIN -9.13 dB
REM REPLAYGAIN_TRACK_PEAK 1.000000
INDEX 00 51:18:70
INDEX 01 51:21:24
TRACK 14 AUDIO
TITLE "コノヨノシルシ"
REM REPLAYGAIN_TRACK_GAIN -8.12 dB
REM REPLAYGAIN_TRACK_PEAK 1.000000
INDEX 01 55:06:33
TRACK 15 AUDIO
TITLE "メリクリ"
REM REPLAYGAIN_TRACK_GAIN -9.03 dB
REM REPLAYGAIN_TRACK_PEAK 1.000000
INDEX 00 58:50:28
INDEX 01 58:51:36
TRACK 16 AUDIO
TITLE "「LA・LA・LA LOVE SONG」BoA w/z SOUL'd OUT"
REM REPLAYGAIN_TRACK_GAIN -9.04 dB
REM REPLAYGAIN_TRACK_PEAK 1.000000
INDEX 00 64:23:20
INDEX 01 64:43:11

Треклист:
01. Moto (3:08)
02. Do You Love Me? (둘이 함께) (3:34)
03. Girls On Top (3:41)
04. If you were here (오늘 그댈 본다면) (3:41)
05. Love Can Make A Miracle (3:45)
06. Addiction (집착) (4:07)
07. Freak In Me (3:30)
08. Garden In The Air (공중정원) (3:53)
09. I Spy (3:21)
10. Can't Let Go (4:00)
11. Heroine (시선) (3:11)
12. Breathe Again (숨..) (4:31)
13. 가을편지 (0:54)
14. Girls On Top (Chinese Ver.) (3:38)
  
EAC ЧҐИЎИХЦѕОДјюґУ20. °ЛФВ 2006, 15:51 УГУЪ CD
BoA / Girls On Top

К№УГЗэ¶ЇЖч ЈєLITE-ON DVDRW SOHW-1693S Adapter: 1 ID: 1
¶БИЎДЈКЅ ЈєІ»К№УГ C2, К№УГѕ«И·БчЈ¬І»ЅыУГ»єґжµД°ІИ«ДЈКЅ
ЧйєП¶БРґЖ«ТЖРЈХэЈє0
¶БИЎ Lead-In єН Lead-Out : ·с

ЛщУГКдіцДЈКЅЈєMonkey's Audio Lossless Encoder v3.99 DLL
Normal Lossless Compression

ЖдЛыСЎПо Јє
УГѕІТфМоідЧҐИЎЦР¶ЄК§Ж«ТЖµДІЙСщ : КЗ
ИҐіэКЧОІѕІТфїй : ·с
Win NT ј° 2000 ±ѕµШ Win32 ЅУїЪ

·¶О§ЧґМ¬ј°ґнОу
ТССЎФс·¶О§
ОДјюГы J:\Emule downloads\Оґ·ўІј\BoA - Girls On Top.ape

·еЦµµзЖЅ 100.0 %
·¶О§ЦКБї 99.9 %
CRC 6C700BFF
ёґЦЖіЙ№¦

Г»УРґнОу·ўЙъ

ЧґМ¬±ЁёжЅбОІ

  
AUDIOCHECKER v1.2 - by Dester - opdester@freemail.hu
~~~~~~~~~~~~~~~~~

30 -===- D:\Music\Kwon BoA\BoA LL\BoA - Girls On Top (APE)\BoA - Girls On Top (APE).ape
Extracted successfully
Conclusion: This track looks like CDDA with probability 100%

  
REM GENRE Pop
REM DATE 2005
REM DISCID B80B760E
REM COMMENT ExactAudioCopy v0.95b3
PERFORMER "BoA"
TITLE "Girls On Top"
FILE "BoA - Girls On Top (APE).ape" WAVE
TRACK 01 AUDIO
TITLE "Moto"
REM REPLAYGAIN_TRACK_GAIN -12.39 dB
REM REPLAYGAIN_TRACK_PEAK 1.000000
FLAGS DCP
INDEX 01 00:00:00
TRACK 02 AUDIO
TITLE "Do You Love Me? (둘이 함께)"
REM REPLAYGAIN_TRACK_GAIN -12.19 dB
REM REPLAYGAIN_TRACK_PEAK 1.000000
FLAGS DCP
INDEX 00 03:06:16
INDEX 01 03:08:05
TRACK 03 AUDIO
TITLE "Girls On Top"
REM REPLAYGAIN_TRACK_GAIN -12.97 dB
REM REPLAYGAIN_TRACK_PEAK 1.000000
FLAGS DCP
INDEX 00 06:40:45
INDEX 01 06:42:37
TRACK 04 AUDIO
TITLE "If you were here (오늘 그댈 본다면)"
REM REPLAYGAIN_TRACK_GAIN -11.90 dB
REM REPLAYGAIN_TRACK_PEAK 1.000000
FLAGS DCP
INDEX 00 10:21:22
INDEX 01 10:23:11
TRACK 05 AUDIO
TITLE "Love Can Make A Miracle"
REM REPLAYGAIN_TRACK_GAIN -9.88 dB
REM REPLAYGAIN_TRACK_PEAK 1.000000
FLAGS DCP
INDEX 00 14:02:41
INDEX 01 14:04:30
TRACK 06 AUDIO
TITLE "Addiction (집착)"
REM REPLAYGAIN_TRACK_GAIN -11.96 dB
REM REPLAYGAIN_TRACK_PEAK 1.000000
FLAGS DCP
INDEX 00 17:48:01
INDEX 01 17:49:66
TRACK 07 AUDIO
TITLE "Freak In Me"
REM REPLAYGAIN_TRACK_GAIN -10.87 dB
REM REPLAYGAIN_TRACK_PEAK 1.000000
FLAGS DCP
INDEX 00 21:55:10
INDEX 01 21:56:69
TRACK 08 AUDIO
TITLE "Garden In The Air (공중정원)"
REM REPLAYGAIN_TRACK_GAIN -11.12 dB
REM REPLAYGAIN_TRACK_PEAK 1.000000
FLAGS DCP
INDEX 00 25:24:52
INDEX 01 25:26:44
TRACK 09 AUDIO
TITLE "I Spy"
REM REPLAYGAIN_TRACK_GAIN -11.48 dB
REM REPLAYGAIN_TRACK_PEAK 1.000000
FLAGS DCP
INDEX 00 29:18:28
INDEX 01 29:20:00
TRACK 10 AUDIO
TITLE "Can't Let Go"
REM REPLAYGAIN_TRACK_GAIN -9.22 dB
REM REPLAYGAIN_TRACK_PEAK 1.000000
FLAGS DCP
INDEX 00 32:39:49
INDEX 01 32:41:23
TRACK 11 AUDIO
TITLE "Heroine (시선)"
REM REPLAYGAIN_TRACK_GAIN -11.15 dB
REM REPLAYGAIN_TRACK_PEAK 1.000000
FLAGS DCP
INDEX 00 36:39:28
INDEX 01 36:41:02
TRACK 12 AUDIO
TITLE "Breathe Again (숨..)"
REM REPLAYGAIN_TRACK_GAIN -9.45 dB
REM REPLAYGAIN_TRACK_PEAK 1.000000
FLAGS DCP
INDEX 00 39:50:21
INDEX 01 39:51:56
TRACK 13 AUDIO
TITLE "가을편지"
REM REPLAYGAIN_TRACK_GAIN -3.21 dB
REM REPLAYGAIN_TRACK_PEAK 0.851990
FLAGS DCP
INDEX 00 44:20:63
INDEX 01 44:22:41
TRACK 14 AUDIO
TITLE "Girls On Top (Chinese Ver.)"
REM REPLAYGAIN_TRACK_GAIN -12.15 dB
REM REPLAYGAIN_TRACK_PEAK 0.999878
FLAGS DCP
INDEX 00 45:14:74
INDEX 01 45:16:35

Треклист:
01. Silent Screamerz (3:30)
02. DO THE MOTION (4:14)
03. キミのとなりで (5:09)
04. OUTGROW~Ready butterfly~ (3:20)
05. make a secret (4:48)
06. Everlasting (5:25)
07. LONG TIME NO SEE (3:56)
08. cosmic eyes (3:40)
09. 抱きしめる (3:48)
10. Love is just what you can't see (5:06)
11. Stay My Gold (5:30)
12. soundscape (4:11)
13. With U (3:58)
14. First snow (4:23)
  
-----------------------

DON'T MODIFY THIS FILE

-----------------------

PERFORMER: auCDtect Task Manager, ver. 1.5.1RC6 build 1.5.1.7
Copyright (c) 2008-2010 y-soft. All rights reserved
http://y-soft.org

ANALYZER: auCDtect: CD records authenticity detector, version 0.8.2
Copyright (c) 2004 Oleg Berngardt. All rights reserved.
Copyright (c) 2004 Alexander Djourik. All rights reserved.

FILE: 1-14 First snow.m4a
Size: 29189358 Hash: 5CFEBAD056C100A73D95DEEA183113D4 Accuracy: -m0
Conclusion: CDDA 100%
Signature: 20E60F4C7B8C2D490F576A7526E42AD3C17DE908
FILE: 1-13 With U.m4a
Size: 25724261 Hash: EDD7EC340FC29F87D2067964D79BDF86 Accuracy: -m0
Conclusion: CDDA 100%
Signature: 22DF37B971749764737F9136F983AC9CC418D728
FILE: 1-12 soundscape.m4a
Size: 30807708 Hash: 03E517C7A1BA7AE3690BDE9E144DF5D7 Accuracy: -m0
Conclusion: CDDA 100%
Signature: 47B8CF336589C6D92F980C9E372C2C3F40A05C3D
FILE: 1-11 Stay My Gold.m4a
Size: 41665842 Hash: D87CB2ACB8CEB0670B3AFD9F0FC4F1B7 Accuracy: -m0
Conclusion: CDDA 100%
Signature: AAC3D1919EDEFFF07BA14439DB0849FC7D205E3A
FILE: 1-10 Love is just what you can't see.m4a
Size: 37473517 Hash: 8208218F4E6FB61CBBCF921FB8FC4197 Accuracy: -m0
Conclusion: CDDA 99%
Signature: CEC7383F4B8004B1C4208B0265F003D33502AED8
FILE: 1-09 Dakishimeru.m4a
Size: 29239759 Hash: 0CEDF67232108D58F54F12E1F1F2B891 Accuracy: -m0
Conclusion: CDDA 100%
Signature: 72566C339A47E94B22A508CA836695A16C6D372A
FILE: 1-08 cosmic eyes.m4a
Size: 29213813 Hash: 5E0DDC12D11D1B4CD576BE59CE0C63F9 Accuracy: -m0
Conclusion: CDDA 100%
Signature: AA4AC8EB8A2D73A6EDA9557E074832AD84633989
FILE: 1-07 LONG TIME NO SEE.m4a
Size: 22971542 Hash: 042E06EC4B71A6019610211064CAEF31 Accuracy: -m0
Conclusion: CDDA 99%
Signature: 61D8462D453AC1D5D27B0B7B70508F90264DCE10
FILE: 1-06 Everlasting.m4a
Size: 39795077 Hash: 8257BA5435149D2B3C65D22DB94CAC12 Accuracy: -m0
Conclusion: CDDA 100%
Signature: 8B836495C88CCF60E9BE5CA272D2ED10CF1EEF73
FILE: 1-05 make a secret.m4a
Size: 36089051 Hash: 53B189699DF4C7A57ABD0ECFFA140979 Accuracy: -m0
Conclusion: CDDA 99%
Signature: 3604B2D97CC329470EA1D43DF713A9B0DE742C3F
FILE: 1-04 OUTGROW~Ready butterfly~.m4a
Size: 25578923 Hash: 8D6F4DDBD5AF48BFA17A55ED1F01E5E4 Accuracy: -m0
Conclusion: CDDA 100%
Signature: 508DFCC311DFA375575D79E0821D61408D8D6AB8
FILE: 1-03 Kimi no Tonari de.m4a
Size: 34072916 Hash: 582A5AE26890A450768A93A05A4D3744 Accuracy: -m0
Conclusion: CDDA 100%
Signature: 10A9940317ADA0AC8B88C9A158CABF75139402EB
FILE: 1-02 DO THE MOTION.m4a
Size: 30339758 Hash: 641CA4499F55901B6A353B06EFB593FF Accuracy: -m0
Conclusion: CDDA 100%
Signature: FEE06C64593CC9F0D4ED903F760F20025091BCBB
FILE: 1-01 Silent Screamerz.m4a
Size: 27934743 Hash: 8850F217F401A4B89DC1A8FA04BEB197 Accuracy: -m0
Conclusion: CDDA 100%
Signature: 0E5C4D6A82A1DD8EC027B45587F7D4869E491837

Треклист:
01. Lady Galaxy (3:24)
02. 七色の明日 -Brand New Beat- (4:33)
03. Winter Love (5:44)
04. Still (4:51)
05. So Real (3:17)
06. Key Of Heart (5:02)
07. Our Love -To My Parents- (4:42)
08. No More Make Me Sick (3:51)
09. Revolution-Code 1986-1105 Feat. Rah-D (3:54)
10. Your Color (4:57)
11. Prayer (3:28)
12. Candle Lights (4:27)
13. Gracious Days (5:18)
14. Last Christmas (5:19)
  
-----------------------

DON'T MODIFY THIS FILE

-----------------------

PERFORMER: auCDtect Task Manager, ver. 1.5.1RC6 build 1.5.1.7
Copyright (c) 2008-2010 y-soft. All rights reserved
http://y-soft.org

ANALYZER: options:

FILE: 1-14 Last Christmas.m4a
Size: 36737415 Hash: 558FE599B3850A755ACACE4937054FE2 Accuracy: -m0
Conclusion: CDDA 99%
Signature: A901BBD24156C68079A76DCE7EB24F36191A3836
FILE: 1-13 Gracious Days.m4a
Size: 44043586 Hash: 3ED66EEC62E413DB92FA1973F5CD8D81 Accuracy: -m0
Conclusion: CDDA 100%
Signature: E99E03EE4BD7971D2FC494EBD295765D1ECCF06D
FILE: 1-12 Candle Lights.m4a
Size: 31443941 Hash: 0A81DD4EF95B092100AFB42701675F1F Accuracy: -m0
Conclusion: CDDA 100%
Signature: BBFB5E344C50A5FB8705FF442C143F94954533A9
FILE: 1-11 Prayer.m4a
Size: 27507504 Hash: 482CEB9BFFC164009A23400B045108BB Accuracy: -m0
Conclusion: CDDA 99%
Signature: 7B4D26D33C3F6D9826C7F394444094B83E4F98A4
FILE: 1-10 Your Color.m4a
Size: 39642224 Hash: AF3F20F598B2F21F69682CDF40B48FAB Accuracy: -m0
Conclusion: CDDA 100%
Signature: 301BBF14563D118543A22D6A7CBB8984D930BC28
FILE: 1-09 Revolution-Code 1986-1105 Feat. Rah-D.m4a
Size: 30487950 Hash: 312DE24324B16B6E4046E977FDFA4697 Accuracy: -m0
Conclusion: CDDA 100%
Signature: 82C49AF0001CADD96F6CEA843509F1D08F7EBDB5
FILE: 1-08 No More Make Me Sick.m4a
Size: 29669007 Hash: 6D02005E070B000BB5736A3D5E5A9319 Accuracy: -m0
Conclusion: CDDA 100%
Signature: 1F4263AB199CC4EB7430DA41A773AA2723EFCA97
FILE: 1-07 Our Love -To My Parents-.m4a
Size: 33618876 Hash: D3B16B3A649F7967FDE4FBC6664B5421 Accuracy: -m0
Conclusion: CDDA 99%
Signature: D23700676FBCEADBFCE9DA2052E9679286C46B37
FILE: 1-06 Key Of Heart.m4a
Size: 40873083 Hash: B1BB4B9573B024F754076AF250241ED3 Accuracy: -m0
Conclusion: CDDA 99%
Signature: A01CCC3B995EC239D25E2D4A6CDE610B62B5AD1D
FILE: 1-05 So Real.m4a
Size: 26660504 Hash: 2A7D25269AABE255CCA890A86F9AABB9 Accuracy: -m0
Conclusion: CDDA 100%
Signature: A687A72B0C665C3338D0915183B2F1148EF5BA82
FILE: 1-04 Still.m4a
Size: 35959583 Hash: 080BF9AC46B0E447D755A971C95E234E Accuracy: -m0
Conclusion: CDDA 99%
Signature: BFD9B6EA266F558CD50020E37E10EF9BD9A79D8C
FILE: 1-03 Winter Love.m4a
Size: 46759512 Hash: C15B238CAC4953AEBC07B00675FC4A66 Accuracy: -m0
Conclusion: CDDA 100%
Signature: 4E0EB29A61A47C3D764D34206D299A567AA26143
FILE: 1-02 Nanairo no Ashita ~Brand New Beat~.m4a
Size: 36690816 Hash: 06AE7B9A40D87871ECA69451836E43FA Accuracy: -m0
Conclusion: CDDA 99%
Signature: 550959FB6509C3DBC96D816987DF232CE88C3943
FILE: 1-01 Lady Galaxy.m4a
Size: 26443636 Hash: 76C56BD36BE628E9387294C405AF7E7D Accuracy: -m0
Conclusion: CDDA 100%
Signature: 870EC13629FE5BADA31685F9877776CE1B1C07D8

Треклист:
?. AGGRESSIVE (3:42)
?. Sweet Impact (5:01)
?. My Way, Your Way feat.WISE (4:22)
?. be with you (5:16)
?. LOSE YOUR MIND feat.Yutaka Furukawa from DOPING PANDA (3:13)
?. Girl In The Mirror (3:12)
?. Happy Birthday (4:09)
?. Diamond Heart (4:11)
?. LOVE LETTER (5:08)
?. BRAVE (3:58)
?. Gyappu ni Yarareta! (3:43)
?. Style (3:12)
?. Smile again (5:42)
?. Beautiful Flowers (3:30)
?. Best Friend (4:26)
  
AUDIOCHECKER v1.2 - by Dester - opdester@freemail.hu
~~~~~~~~~~~~~~~~~

54 -===- D:\Music\Kwon BoA\BoA LL\BoA - The Face (FLAC)\1-01 AGGRESSIVE.flac
Extracted successfully
Conclusion: This track looks like CDDA with probability 100%

55 -===- D:\Music\Kwon BoA\BoA LL\BoA - The Face (FLAC)\1-02 Sweet Impact.flac
Extracted successfully
Conclusion: This track looks like MPEG with probability 95%

56 -===- D:\Music\Kwon BoA\BoA LL\BoA - The Face (FLAC)\1-03 My Way, Your Way feat.WISE.flac
Extracted successfully
Conclusion: This track looks like CDDA with probability 100%

57 -===- D:\Music\Kwon BoA\BoA LL\BoA - The Face (FLAC)\1-04 be with you.flac
Extracted successfully
Conclusion: This track looks like CDDA with probability 100%

58 -===- D:\Music\Kwon BoA\BoA LL\BoA - The Face (FLAC)\1-05 LOSE YOUR MIND feat.Yutaka Furukawa from DOPING PANDA.flac
Extracted successfully
Conclusion: This track looks like CDDA with probability 100%

59 -===- D:\Music\Kwon BoA\BoA LL\BoA - The Face (FLAC)\1-06 Girl In The Mirror.flac
Extracted successfully
Conclusion: This track looks like CDDA with probability 100%

60 -===- D:\Music\Kwon BoA\BoA LL\BoA - The Face (FLAC)\1-07 Happy Birthday.flac
Extracted successfully
Conclusion: This track looks like MPEG with probability 95%

61 -===- D:\Music\Kwon BoA\BoA LL\BoA - The Face (FLAC)\1-08 Diamond Heart.flac
Extracted successfully
Conclusion: This track looks like CDDA with probability 100%

62 -===- D:\Music\Kwon BoA\BoA LL\BoA - The Face (FLAC)\1-09 LOVE LETTER.flac
Extracted successfully
Conclusion: This track looks like CDDA with probability 100%

63 -===- D:\Music\Kwon BoA\BoA LL\BoA - The Face (FLAC)\1-10 BRAVE.flac
Extracted successfully
Conclusion: This track looks like CDDA with probability 100%

64 -===- D:\Music\Kwon BoA\BoA LL\BoA - The Face (FLAC)\1-11 Gyappu ni Yarareta!.flac
Extracted successfully
Conclusion: This track looks like CDDA with probability 100%

65 -===- D:\Music\Kwon BoA\BoA LL\BoA - The Face (FLAC)\1-12 Style.flac
Extracted successfully
Conclusion: This track looks like MPEG with probability 95%

66 -===- D:\Music\Kwon BoA\BoA LL\BoA - The Face (FLAC)\1-13 Smile again.flac
Extracted successfully
Conclusion: This track looks like CDDA with probability 100%

67 -===- D:\Music\Kwon BoA\BoA LL\BoA - The Face (FLAC)\1-14 Beautiful Flowers.flac
Extracted successfully
Conclusion: This track looks like CDDA with probability 100%

68 -===- D:\Music\Kwon BoA\BoA LL\BoA - The Face (FLAC)\1-15 Best Friend.flac
Extracted successfully
Conclusion: This track looks like CDDA with probability 100%

69 -===- D:\Music\Kwon BoA\BoA LL\BoA - The Face (FLAC)\1-16 Hey Boy, Hey Girl feat.BoASEAMO.flac
Extracted successfully
Conclusion: This track looks like CDDA with probability 100%

Треклист:
CD1 ~JAPAN BEST~:
15. Believe in LOVE feat.BoA (Acoustic Version) (4:26)
08. 抱きしめる (3:48)
02. DO THE MOTION (4:14)
03. 永遠 (4:35)
13. Everlasting (5:25)
11. KEY OF HEART (5:00)
14. LOSE YOUR MIND feat.Yutaka Furukawa from DOPING PANDA (3:16)
09. LOVE LETTER (5:04)
12. make a secret (4:50)
06. メリクリ ~BEST&USA Version~ (5:38)
04. 七色の明日~brand new beat~ (4:30)
10. Sparkling (3:54)
07. Sweet Impact (5:01)
01. UNIVERSE feat.Crystal Kay & VERBAL(m-flo) (4:20)
16. VALENTI~BEST&USA Version~ (4:37)
05. Winter Love (5:42)
CD2 ~USA ALBUM~:
03. Did Ya (3:01)
10. Dress Off (3:42)
05. Eat You Up (3:13)
02. Energetic (3:43)
09. Girls On Top (3:37)
11. Hypnotic Dancefloor (3:44)
01. I Did It For Love (featuring Sean Garrett) (3:02)
04. Look Who's Talking (3:09)
06. Obsessed (3:48)
08. Scream (3:16)
07. Touched (3:08)
  
AUDIOCHECKER v1.2 - by Dester - opdester@freemail.hu
~~~~~~~~~~~~~~~~~

02 -===- D:\Music\Kwon BoA\BoA LL\BoA - BEST & USA (FLAC)\CD1 ~JAPAN BEST~\Kwon BoA - Believe in LOVE feat.BoA (Acoustic Version).flac
Extracted successfully
Conclusion: This track looks like CDDA with probability 100%

03 -===- D:\Music\Kwon BoA\BoA LL\BoA - BEST & USA (FLAC)\CD1 ~JAPAN BEST~\Kwon BoA - Dakishimeru.flac
Extracted successfully
Conclusion: This track looks like CDDA with probability 100%

04 -===- D:\Music\Kwon BoA\BoA LL\BoA - BEST & USA (FLAC)\CD1 ~JAPAN BEST~\Kwon BoA - DO THE MOTION.flac
Extracted successfully
Conclusion: This track looks like CDDA with probability 100%

05 -===- D:\Music\Kwon BoA\BoA LL\BoA - BEST & USA (FLAC)\CD1 ~JAPAN BEST~\Kwon BoA - Eien.flac
Extracted successfully
Conclusion: This track looks like CDDA with probability 100%

06 -===- D:\Music\Kwon BoA\BoA LL\BoA - BEST & USA (FLAC)\CD1 ~JAPAN BEST~\Kwon BoA - Everlasting.flac
Extracted successfully
Conclusion: This track looks like CDDA with probability 100%

07 -===- D:\Music\Kwon BoA\BoA LL\BoA - BEST & USA (FLAC)\CD1 ~JAPAN BEST~\Kwon BoA - KEY OF HEART.flac
Extracted successfully
Conclusion: This track looks like CDDA with probability 100%

08 -===- D:\Music\Kwon BoA\BoA LL\BoA - BEST & USA (FLAC)\CD1 ~JAPAN BEST~\Kwon BoA - LOSE YOUR MIND feat.Yutaka Furukawa from DOPING PANDA.flac
Extracted successfully
Conclusion: This track looks like CDDA with probability 100%

09 -===- D:\Music\Kwon BoA\BoA LL\BoA - BEST & USA (FLAC)\CD1 ~JAPAN BEST~\Kwon BoA - LOVE LETTER.flac
Extracted successfully
Conclusion: This track looks like CDDA with probability 100%

10 -===- D:\Music\Kwon BoA\BoA LL\BoA - BEST & USA (FLAC)\CD1 ~JAPAN BEST~\Kwon BoA - make a secret.flac
Extracted successfully
Conclusion: This track looks like CDDA with probability 100%

11 -===- D:\Music\Kwon BoA\BoA LL\BoA - BEST & USA (FLAC)\CD1 ~JAPAN BEST~\Kwon BoA - Merikuri ~BEST&USA Version~.flac
Extracted successfully
Conclusion: This track looks like CDDA with probability 100%

12 -===- D:\Music\Kwon BoA\BoA LL\BoA - BEST & USA (FLAC)\CD1 ~JAPAN BEST~\Kwon BoA - Nanairo no Ashita ~brand new beat~.flac
Extracted successfully
Conclusion: This track looks like CDDA with probability 100%

13 -===- D:\Music\Kwon BoA\BoA LL\BoA - BEST & USA (FLAC)\CD1 ~JAPAN BEST~\Kwon BoA - Sparkling.flac
Extracted successfully
Conclusion: This track looks like CDDA with probability 100%

14 -===- D:\Music\Kwon BoA\BoA LL\BoA - BEST & USA (FLAC)\CD1 ~JAPAN BEST~\Kwon BoA - Sweet Impact.flac
Extracted successfully
Conclusion: This track looks like CDDA with probability 100%

15 -===- D:\Music\Kwon BoA\BoA LL\BoA - BEST & USA (FLAC)\CD1 ~JAPAN BEST~\Kwon BoA - UNIVERSE feat.Crystal Kay & VERBAL(m-flo).flac
Extracted successfully
Conclusion: This track looks like CDDA with probability 100%

16 -===- D:\Music\Kwon BoA\BoA LL\BoA - BEST & USA (FLAC)\CD1 ~JAPAN BEST~\Kwon BoA - VALENTI ~BEST&USA Version~.flac
Extracted successfully
Conclusion: This track looks like CDDA with probability 100%

17 -===- D:\Music\Kwon BoA\BoA LL\BoA - BEST & USA (FLAC)\CD1 ~JAPAN BEST~\Kwon BoA - Winter Love.flac
Extracted successfully
Conclusion: This track looks like CDDA with probability 100%

  
AUDIOCHECKER v1.2 - by Dester - opdester@freemail.hu
~~~~~~~~~~~~~~~~~

18 -===- D:\Music\Kwon BoA\BoA LL\BoA - BEST & USA (FLAC)\CD2 ~USA ALBUM~\Kwon BoA - Did Ya.flac
Extracted successfully
Conclusion: This track looks like CDDA with probability 100%

19 -===- D:\Music\Kwon BoA\BoA LL\BoA - BEST & USA (FLAC)\CD2 ~USA ALBUM~\Kwon BoA - Dress Off.flac
Extracted successfully
Conclusion: This track looks like CDDA with probability 100%

20 -===- D:\Music\Kwon BoA\BoA LL\BoA - BEST & USA (FLAC)\CD2 ~USA ALBUM~\Kwon BoA - Eat You Up.flac
Extracted successfully
Conclusion: This track looks like CDDA with probability 100%

21 -===- D:\Music\Kwon BoA\BoA LL\BoA - BEST & USA (FLAC)\CD2 ~USA ALBUM~\Kwon BoA - Energetic.flac
Extracted successfully
Conclusion: This track looks like CDDA with probability 100%

22 -===- D:\Music\Kwon BoA\BoA LL\BoA - BEST & USA (FLAC)\CD2 ~USA ALBUM~\Kwon BoA - Girls On Top.flac
Extracted successfully
Conclusion: This track looks like CDDA with probability 100%

23 -===- D:\Music\Kwon BoA\BoA LL\BoA - BEST & USA (FLAC)\CD2 ~USA ALBUM~\Kwon BoA - Hypnotic Dancefloor.flac
Extracted successfully
Conclusion: This track looks like CDDA with probability 100%

24 -===- D:\Music\Kwon BoA\BoA LL\BoA - BEST & USA (FLAC)\CD2 ~USA ALBUM~\Kwon BoA - I Did It For Love (featuring Sean Garrett).flac
Extracted successfully
Conclusion: This track looks like CDDA with probability 100%

25 -===- D:\Music\Kwon BoA\BoA LL\BoA - BEST & USA (FLAC)\CD2 ~USA ALBUM~\Kwon BoA - Look Who's Talking.flac
Extracted successfully
Conclusion: This track looks like CDDA with probability 100%

26 -===- D:\Music\Kwon BoA\BoA LL\BoA - BEST & USA (FLAC)\CD2 ~USA ALBUM~\Kwon BoA - Obsessed.flac
Extracted successfully
Conclusion: This track looks like CDDA with probability 100%

27 -===- D:\Music\Kwon BoA\BoA LL\BoA - BEST & USA (FLAC)\CD2 ~USA ALBUM~\Kwon BoA - Scream.flac
Extracted successfully
Conclusion: This track looks like CDDA with probability 100%

28 -===- D:\Music\Kwon BoA\BoA LL\BoA - BEST & USA (FLAC)\CD2 ~USA ALBUM~\Kwon BoA - Touched.flac
Extracted successfully
Conclusion: This track looks like CDDA with probability 100%

Треклист:
01. This Is Who I Am (2:52)
02. EASY (3:24)
03. BUMP BUMP! feat. VERBAL(m-flo) (4:02)
04. LAZER (4:07)
05. interlude #1 (0:09)
06. is this love (4:06)
07. まもりたい ~White Wishes~ (3:32)
08. interlude #2 (0:05)
09. ネコラブ (3:34)
10. THE END そして and… (album ver.) (7:11)
11. Possibility duet with 三浦大知 (4:08)
12. Fallin' (5:14)
13. my all (5:38)
  
AUDIOCHECKER v1.2 - by Dester - opdester@freemail.hu
~~~~~~~~~~~~~~~~~

13 files found

01 -===- E:\Music\Asian\Kwon BoA\BoA - IDENTITY (FLAC)\01 This Is Who I Am.flac
Extracted successfully
Conclusion: This track looks like CDDA with probability 100%
Tempfile successfully deleted.

02 -===- E:\Music\Asian\Kwon BoA\BoA - IDENTITY (FLAC)\02 EASY.flac
Extracted successfully
Conclusion: This track looks like CDDA with probability 87%
Tempfile successfully deleted.

03 -===- E:\Music\Asian\Kwon BoA\BoA - IDENTITY (FLAC)\03 BUMP BUMP! feat. VERBAL(m-flo)_.flac
Extracted successfully
Conclusion: This track looks like CDDA with probability 100%
Tempfile successfully deleted.

04 -===- E:\Music\Asian\Kwon BoA\BoA - IDENTITY (FLAC)\04 LAZER.flac
Extracted successfully
Conclusion: This track looks like MPEG with probability 79%
Tempfile successfully deleted.

05 -===- E:\Music\Asian\Kwon BoA\BoA - IDENTITY (FLAC)\05 interlude #1.flac
Extracted successfully
Conclusion: This track looks like CDDA with probability 100%
Tempfile successfully deleted.

06 -===- E:\Music\Asian\Kwon BoA\BoA - IDENTITY (FLAC)\06 is this love.flac
Extracted successfully
Conclusion: This track looks like CDDA with probability 94%
Tempfile successfully deleted.

07 -===- E:\Music\Asian\Kwon BoA\BoA - IDENTITY (FLAC)\07 Mamoritai ~White Wishes~.flac
Extracted successfully
Conclusion: This track looks like CDDA with probability 99%
Tempfile successfully deleted.

08 -===- E:\Music\Asian\Kwon BoA\BoA - IDENTITY (FLAC)\08 interlude #2.flac
Extracted successfully
Conclusion: This track looks like CDDA with probability 100%
Tempfile successfully deleted.

09 -===- E:\Music\Asian\Kwon BoA\BoA - IDENTITY (FLAC)\09 Nekorabu.flac
Extracted successfully
Conclusion: This track looks like CDDA with probability 100%
Tempfile successfully deleted.

10 -===- E:\Music\Asian\Kwon BoA\BoA - IDENTITY (FLAC)\10 THE END soshite and… (album ver.).flac
Extracted successfully
Conclusion: This track looks like CDDA with probability 100%
Tempfile successfully deleted.

11 -===- E:\Music\Asian\Kwon BoA\BoA - IDENTITY (FLAC)\11 Possibility duet with Daichi Mura.flac
Extracted successfully
Conclusion: This track looks like CDDA with probability 100%
Tempfile successfully deleted.

12 -===- E:\Music\Asian\Kwon BoA\BoA - IDENTITY (FLAC)\12 Fallin'.flac
Extracted successfully
Conclusion: This track looks like CDDA with probability 100%
Tempfile successfully deleted.

13 -===- E:\Music\Asian\Kwon BoA\BoA - IDENTITY (FLAC)\13 my all.flac
Extracted successfully
Conclusion: This track looks like CDDA with probability 100%
Tempfile successfully deleted.

Треклист:
01. Game (3:18)
02. Hurricane Venus (3:12)
03. Dangerous (2:56)
04. 옆사람 (Stand By) (5:09)
05. M E P (My Electronic Piano) (3:23)
06. Let Me (3:34)
07. 한별 (Implode) (6:34)
08. Adrenaline (3:07)
09. 하루하루 (Ordinary Day) (4:49)
10. Don't Know What To Say (4:11)
11. 로망스 (Romance) (5:08)
  
Exact Audio Copy V0.99 prebeta 5 from 4. May 2009

EAC extraction logfile from 7. August 2010, 21:46

єёѕЖ / Hurricane Venus

Used drive : PLEXTOR CD-R PX-W1210A Adapter: 0 ID: 1

Read mode : Secure
Utilize accurate stream : Yes
Defeat audio cache : Yes
Make use of C2 pointers : No

Read offset correction : 99
Overread into Lead-In and Lead-Out : No
Fill up missing offset samples with silence : Yes
Delete leading and trailing silent blocks : No
Null samples used in CRC calculations : Yes
Used interface : Native Win32 interface for Win NT & 2000
Gap handling : Appended to previous track

Used output format : User Defined Encoder
Selected bitrate : 768 kBit/s
Quality : High
Add ID3 tag : No
Command line compressor : C:\Program Files\Exact Audio Copy\FLAC\FLAC.EXE
Additional command line options : -8 -V -T "ARTIST=%a" -T "TITLE=%t" -T "ALBUM=%g" -T "DATE=%y" -T "TRACKNUMBER=%n" -T "GENRE=%m" -T "COMMENT=Encoded by EAC 0.99pb5 FLAC -8" %s

TOC of the extracted CD

Track | Start | Length | Start sector | End sector
---------------------------------------------------------
1 | 0:00.00 | 3:17.61 | 0 | 14835
2 | 3:17.61 | 3:12.30 | 14836 | 29265
3 | 6:30.16 | 2:55.66 | 29266 | 42456
4 | 9:26.07 | 5:09.18 | 42457 | 65649
5 | 14:35.25 | 3:23.10 | 65650 | 80884
6 | 17:58.35 | 3:33.45 | 80885 | 96904
7 | 21:32.05 | 6:34.29 | 96905 | 126483
8 | 28:06.34 | 3:07.04 | 126484 | 140512
9 | 31:13.38 | 4:49.32 | 140513 | 162219
10 | 36:02.70 | 4:10.53 | 162220 | 181022
11 | 40:13.48 | 5:07.67 | 181023 | 204114

Track 1

Filename G:\FL\01 - Game.wav

Pre-gap length 0:00:02.00

Peak level 100.0 %
Track quality 100.0 %
Test CRC 019DBA28
Copy CRC 019DBA28
Copy OK

Track 2

Filename G:\FL\02 - Hurricane Venus.wav

Pre-gap length 0:00:02.00

Peak level 100.0 %
Track quality 100.0 %
Test CRC 919473FD
Copy CRC 919473FD
Copy OK

Track 3

Filename G:\FL\03 - Dangerous.wav

Pre-gap length 0:00:02.00

Peak level 100.0 %
Track quality 100.0 %
Test CRC 08A3060E
Copy CRC 08A3060E
Copy OK

Track 4

Filename G:\FL\04 - ї·»з¶ч (Stand By).wav

Pre-gap length 0:00:02.00

Peak level 100.0 %
Track quality 100.0 %
Test CRC 06184F9F
Copy CRC 06184F9F
Copy OK

Track 5

Filename G:\FL\05 - M E P (My Electronic Piano).wav

Pre-gap length 0:00:02.00

Peak level 100.0 %
Track quality 100.0 %
Test CRC 7036A066
Copy CRC 7036A066
Copy OK

Track 6

Filename G:\FL\06 - Let Me.wav

Pre-gap length 0:00:02.00

Peak level 100.0 %
Track quality 100.0 %
Test CRC 9E6CC966
Copy CRC 9E6CC966
Copy OK

Track 7

Filename G:\FL\07 - ЗСє° (Implode).wav

Pre-gap length 0:00:02.00

Peak level 100.0 %
Track quality 100.0 %
Test CRC 2CCA7DA3
Copy CRC 2CCA7DA3
Copy OK

Track 8

Filename G:\FL\08 - Adrenaline.wav

Pre-gap length 0:00:02.00

Peak level 100.0 %
Track quality 100.0 %
Test CRC 59D466C9
Copy CRC 59D466C9
Copy OK

Track 9

Filename G:\FL\09 - ЗП·зЗП·з (Ordinary Day).wav

Pre-gap length 0:00:02.00

Peak level 100.0 %
Track quality 100.0 %
Test CRC BE1AC8A0
Copy CRC BE1AC8A0
Copy OK

Track 10

Filename G:\FL\10 - Don't Know What To Say.wav

Pre-gap length 0:00:02.00

Peak level 100.0 %
Track quality 99.9 %
Test CRC 49D4C946
Copy CRC 49D4C946
Copy OK

Track 11

Filename G:\FL\11 - ·ОёБЅє (Romance).wav

Pre-gap length 0:00:02.00

Peak level 100.0 %
Track quality 100.0 %
Test CRC F5A0D60B
Copy CRC F5A0D60B
Copy OK

No errors occurred

End of status report

  
REM DATE 2010
REM DISCID AA0AA10B
REM COMMENT "ExactAudioCopy v0.99pb5"
PERFORMER "єёѕЖ"
TITLE "Hurricane Venus"
FILE "01 - Game.wav" WAVE
TRACK 01 AUDIO
TITLE "Game"
PERFORMER "єёѕЖ"
FLAGS DCP
INDEX 01 00:00:00
TRACK 02 AUDIO
TITLE "Hurricane Venus"
PERFORMER "єёѕЖ"
FLAGS DCP
INDEX 00 03:15:61
FILE "02 - Hurricane Venus.wav" WAVE
INDEX 01 00:00:00
TRACK 03 AUDIO
TITLE "Dangerous"
PERFORMER "єёѕЖ"
FLAGS DCP
INDEX 00 03:10:30
FILE "03 - Dangerous.wav" WAVE
INDEX 01 00:00:00
TRACK 04 AUDIO
TITLE "ї·»з¶ч (Stand By)"
PERFORMER "єёѕЖ"
FLAGS DCP
INDEX 00 02:53:66
FILE "04 - ї·»з¶ч (Stand By).wav" WAVE
INDEX 01 00:00:00
TRACK 05 AUDIO
TITLE "M E P (My Electronic Piano)"
PERFORMER "єёѕЖ"
FLAGS DCP
INDEX 00 05:07:18
FILE "05 - M E P (My Electronic Piano).wav" WAVE
INDEX 01 00:00:00
TRACK 06 AUDIO
TITLE "Let Me"
PERFORMER "єёѕЖ"
FLAGS DCP
INDEX 00 03:21:10
FILE "06 - Let Me.wav" WAVE
INDEX 01 00:00:00
TRACK 07 AUDIO
TITLE "ЗСє° (Implode)"
PERFORMER "єёѕЖ"
FLAGS DCP
INDEX 00 03:31:45
FILE "07 - ЗСє° (Implode).wav" WAVE
INDEX 01 00:00:00
TRACK 08 AUDIO
TITLE "Adrenaline"
PERFORMER "єёѕЖ"
FLAGS DCP
INDEX 00 06:32:29
FILE "08 - Adrenaline.wav" WAVE
INDEX 01 00:00:00
TRACK 09 AUDIO
TITLE "ЗП·зЗП·з (Ordinary Day)"
PERFORMER "єёѕЖ"
FLAGS DCP
INDEX 00 03:05:04
FILE "09 - ЗП·зЗП·з (Ordinary Day).wav" WAVE
INDEX 01 00:00:00
TRACK 10 AUDIO
TITLE "Don't Know What To Say"
PERFORMER "єёѕЖ"
FLAGS DCP
INDEX 00 04:47:32
FILE "10 - Don't Know What To Say.wav" WAVE
INDEX 01 00:00:00
TRACK 11 AUDIO
TITLE "·ОёБЅє (Romance)"
PERFORMER "єёѕЖ"
FLAGS DCP
INDEX 00 04:08:53
FILE "11 - ·ОёБЅє (Romance).wav" WAVE
INDEX 01 00:00:00

Треклист:
01. Copy & Paste (3:44)
02. Hurricane Venus (3:10)
03. Dangerous (2:53)
04. I'm OK (보고 싶더라) (3:36)
05. Game (3:16)
06. 옆 사람 (Stand By) (5:07)
07. M.E.P (My Electronic Piano) (3:21)
08. Let Me (3:32)
09. 한별 (Implode) (6:32)
10. Adrenaline (3:05)
11. 하루하루 (Ordinary Day) (4:47)
12. Don't Know What To Say (4:09)
13. 로망스 (Romance) (5:08)
  
-----------------------

DON'T MODIFY THIS FILE

-----------------------

PERFORMER: auCDtect Task Manager, ver. 1.5.1RC6 build 1.5.1.7
Copyright (c) 2008-2010 y-soft. All rights reserved
http://y-soft.org

ANALYZER: auCDtect: CD records authenticity detector, version 0.8.2
Copyright (c) 2004 Oleg Berngardt. All rights reserved.
Copyright (c) 2004 Alexander Djourik. All rights reserved.

FILE: 09 - 보아 - The Shadow [Instrumental].flac
Size: 23845335 Hash: 7A63A309D3B1434838CE4EB2A654C3A9 Accuracy: -m0
Conclusion: CDDA 100%
Signature: 75BF6AE72580B6302575BC458CC7ECE027C6E377
FILE: 08 - 보아 - Only One [Instrumental].flac
Size: 23646146 Hash: 341D330525EB6FDFDF85543CF6E3E8EC Accuracy: -m0
Conclusion: CDDA 99%
Signature: 67E1E5F4127550CEB712E8680B4DCF511CC7134D
FILE: 07 - 보아 - One Dream.flac
Size: 19855073 Hash: CB50F32EA8BD3843D9545D14C571DB5D Accuracy: -m0
Conclusion: CDDA 100%
Signature: 7B19F3DBC39F89EDEAA396BA3FAF372A8F37EC3A
FILE: 06 - 보아 - Mayday! Mayday! (너에게 닿기를 간절히 외치다).flac
Size: 26846571 Hash: DC39DE4419E89F96723B1A1597BF6EFE Accuracy: -m0
Conclusion: CDDA 100%
Signature: EA49F24D259514A62F3B4E72EA33A49D94B0EE8E
FILE: 05 - 보아 - The Top.flac
Size: 21298495 Hash: DB7F6E4CE167EEBB2A77D5995346A6FA Accuracy: -m0
Conclusion: CDDA 100%
Signature: E64BC3060150CF8D36F6B622DD1FAF24424DCC40
FILE: 04 - 보아 - Not Over U.flac
Size: 30364185 Hash: 1049CF3BE59D317E549A3776D8EAFA3A Accuracy: -m0
Conclusion: CDDA 100%
Signature: 3326CD6022C5E6A504F11DEE7747D7C6E08B704E
FILE: 03 - 보아 - 네모난 바퀴 (Hope).flac
Size: 33622608 Hash: 534707EC0A5AE70FD79FAFE96D359F33 Accuracy: -m0
Conclusion: CDDA 100%
Signature: 7FDDF01A19BD97EEE850AEAD1014AC72DFB500BC
FILE: 02 - 보아 - The Shadow.flac
Size: 26068330 Hash: FA9A8BF34C6122AA98AA9C8BA15F9B95 Accuracy: -m0
Conclusion: CDDA 100%
Signature: A82934D2B15F953ED40717EE80111F5E0A5D7B35
FILE: 01 - 보아 - Only One.flac
Size: 26510628 Hash: 63B5B1F406E4DA47D5C4FF1D699C81A7 Accuracy: -m0
Conclusion: CDDA 100%
Signature: 25370EB130F479ACEC29F145A64767BB8AC03721
FILE: 13 로망스 (Romance).flac
Size: 37053170 Hash: 9CF43B806FD9D8CAB70A129BBD563A50 Accuracy: -m0
Conclusion: CDDA 100%
Signature: 97AC00645EDB2B208ECDBA5CE4F5C811DCBC3882
FILE: 12 Don't Know What To Say.flac
Size: 27973637 Hash: EF383F8489FAC5E4A00BB25530238BB2 Accuracy: -m0
Conclusion: CDDA 54%
Signature: 2CA5F7F40E265DD24E052D1D2D6E0FA04AB9D074
FILE: 11 하루하루 (Ordinary Day).flac
Size: 38529340 Hash: 521DC9EADDF904BC84891F81896E2672 Accuracy: -m0
Conclusion: CDDA 100%
Signature: 8CAD4D756194AB9F12FF7CAFDEE1188E654C2658
FILE: 10 Adrenaline.flac
Size: 26321145 Hash: 878B9D38083FEB4BB02BE02E1E8A9AC1 Accuracy: -m0
Conclusion: CDDA 100%
Signature: 209F0828F2D9D56BFB21E9FB9231BA5AA784D190
FILE: 09 한별 (Implode).flac
Size: 44441026 Hash: 45D3AD85E54E04CCA9CB26A3D2C57747 Accuracy: -m0
Conclusion: CDDA 100%
Signature: C63AAAD58EC3FA52B6D6CD153AEF1450DB3709FF
FILE: 08 Let Me.flac
Size: 29198786 Hash: 5E7F4649A86D8845478EEED5B066558F Accuracy: -m0
Conclusion: CDDA 100%
Signature: 9EE77F641193CDE52596CC05EA6F442730424B20
FILE: 07 M.E.P (My Electronic Piano).flac
Size: 28535440 Hash: 0FBCF8E04FD2A85ADD51CE686FC625CD Accuracy: -m0
Conclusion: CDDA 100%
Signature: 5BD02945DA656239978F5DEE54132B57F8B9D985
FILE: 06 옆 사람 (Stand By).flac
Size: 37048160 Hash: 4260576D7DA4D1D62EC46C34B590B13F Accuracy: -m0
Conclusion: CDDA 100%
Signature: 921B6C052DE0AA2227C356A5FB482A158B5DDE50
FILE: 05 Game.flac
Size: 27483432 Hash: CB1FCE18D818028184576D4D7514D373 Accuracy: -m0
Conclusion: CDDA 100%
Signature: 8EDB9E4F3CE33A7C781E08EF6A573E5084A12E77
FILE: 04 I'm OK (보고 싶더라).flac
Size: 31231621 Hash: 4E5B7FBFBA438AA2663393F7F2F604D8 Accuracy: -m0
Conclusion: CDDA 100%
Signature: 4F8940054E91107C343B282D15A7C8E2513135EF
FILE: 03 Dangerous.flac
Size: 24713115 Hash: C14E30FEA7CAE3E5857529C477DD8098 Accuracy: -m0
Conclusion: CDDA 100%
Signature: 0863666931E4E5A3225A17549D336759D6C85F76
FILE: 02 Hurricane Venus.flac
Size: 27868595 Hash: 0CF94A25A076FD964AED3C0C7933CC7F Accuracy: -m0
Conclusion: CDDA 100%
Signature: 0274F6FA6A9BFCB23E6D51B52625481602B24CA9
FILE: 01 Copy & Paste.flac
Size: 30523820 Hash: A1BE54A5ED0CFF0A81ED8559C52FB858 Accuracy: -m0
Conclusion: CDDA 100%
Signature: 38CBE7F7110312467C54D762E160039369DB59FE

Треклист:
01. Only One (3:39)
02. The Shadow (3:21)
03. 네모난 바퀴 (Hope) (4:37)
04. Not Over U (3:44)
05. The Top (2:38)
06. Mayday! Mayday! (너에게 닿기를 간절히 외치다) (3:41)
07. One Dream (2:31)
08. Only One [Instrumental] (3:39)
09. The Shadow [Instrumental] (3:21)
  
-----------------------

DON'T MODIFY THIS FILE

-----------------------

PERFORMER: auCDtect Task Manager, ver. 1.5.1RC6 build 1.5.1.7
Copyright (c) 2008-2010 y-soft. All rights reserved
http://y-soft.org

ANALYZER: auCDtect: CD records authenticity detector, version 0.8.2
Copyright (c) 2004 Oleg Berngardt. All rights reserved.
Copyright (c) 2004 Alexander Djourik. All rights reserved.

FILE: 09 - 보아 - The Shadow [Instrumental].flac
Size: 23845335 Hash: 7A63A309D3B1434838CE4EB2A654C3A9 Accuracy: -m0
Conclusion: CDDA 100%
Signature: 75BF6AE72580B6302575BC458CC7ECE027C6E377
FILE: 08 - 보아 - Only One [Instrumental].flac
Size: 23646146 Hash: 341D330525EB6FDFDF85543CF6E3E8EC Accuracy: -m0
Conclusion: CDDA 99%
Signature: 67E1E5F4127550CEB712E8680B4DCF511CC7134D
FILE: 07 - 보아 - One Dream.flac
Size: 19855073 Hash: CB50F32EA8BD3843D9545D14C571DB5D Accuracy: -m0
Conclusion: CDDA 100%
Signature: 7B19F3DBC39F89EDEAA396BA3FAF372A8F37EC3A
FILE: 06 - 보아 - Mayday! Mayday! (너에게 닿기를 간절히 외치다).flac
Size: 26846571 Hash: DC39DE4419E89F96723B1A1597BF6EFE Accuracy: -m0
Conclusion: CDDA 100%
Signature: EA49F24D259514A62F3B4E72EA33A49D94B0EE8E
FILE: 05 - 보아 - The Top.flac
Size: 21298495 Hash: DB7F6E4CE167EEBB2A77D5995346A6FA Accuracy: -m0
Conclusion: CDDA 100%
Signature: E64BC3060150CF8D36F6B622DD1FAF24424DCC40
FILE: 04 - 보아 - Not Over U.flac
Size: 30364185 Hash: 1049CF3BE59D317E549A3776D8EAFA3A Accuracy: -m0
Conclusion: CDDA 100%
Signature: 3326CD6022C5E6A504F11DEE7747D7C6E08B704E
FILE: 03 - 보아 - 네모난 바퀴 (Hope).flac
Size: 33622608 Hash: 534707EC0A5AE70FD79FAFE96D359F33 Accuracy: -m0
Conclusion: CDDA 100%
Signature: 7FDDF01A19BD97EEE850AEAD1014AC72DFB500BC
FILE: 02 - 보아 - The Shadow.flac
Size: 26068330 Hash: FA9A8BF34C6122AA98AA9C8BA15F9B95 Accuracy: -m0
Conclusion: CDDA 100%
Signature: A82934D2B15F953ED40717EE80111F5E0A5D7B35
FILE: 01 - 보아 - Only One.flac
Size: 26510628 Hash: 63B5B1F406E4DA47D5C4FF1D699C81A7 Accuracy: -m0
Conclusion: CDDA 100%
Signature: 25370EB130F479ACEC29F145A64767BB8AC03721

info [Профиль]  [ЛС] 

post 11-Янв-2013 20:24 (спустя 7 минут) [-]0[+]

Топик был перенесен из форума Оформление раздач (Музыка и Музыкальное видео) в форум Зарубежная Поп-музыка (lossless)

Phen1x
 

boldusev

Пол: Пол:Муж

Стаж: 7 лет 1 месяц

Сообщений: 114

Украина
Рейтинг

post 14-Янв-2013 18:54 (спустя 2 дня 22 часа) [-]0[+]

[Цитировать] 

Kawaii в "Об исполнители" забыли указать 3 её размера и общие параметры.
info [Профиль]  [ЛС] 

b3yond

Пол: Пол:Муж

Стаж: 6 лет 2 месяца

Сообщений: 22

Россия
Рейтинг

post 14-Янв-2013 21:44 (спустя 2 часа 50 минут) [-]0[+]

[Цитировать] 

Спасибо! Понравилась исполнительница!) Only One хорошая песня, послушаю дальше.
info [Профиль]  [ЛС] 

Kiprian

Пол: Пол:Муж

Стаж: 4 года 1 месяц

Сообщений: 166

Россия
Рейтинг

post 15-Янв-2013 11:26 (спустя 13 часов) [-]-2[+]

[Цитировать] 

А чёйто жанр j-pop,... а не k-pop,... или она на японском поёт?

_________________
info [Профиль]  [ЛС] 

Saren-kirovnet

Пол: Пол:Муж

Стаж: 7 лет 4 месяца

Сообщений: 538

Предупреждений: 2

Россия
Рейтинг

post 15-Янв-2013 11:38 (спустя 11 минут) [-]2[+]

[Цитировать] 

Kiprian писал(а):

А чёйто жанр j-pop,... а не k-pop,... или она на японском поёт?
Когда читать научишься, возвращайся
info [Профиль]  [ЛС] 

Phen1x

Пол: Пол:Муж

Стаж: 6 лет 2 месяца

Сообщений: 531

Украина
Рейтинг

post 15-Янв-2013 13:38 (спустя 2 часа) [-]0[+]

[Цитировать] 

Kiprian писал(а):

А чёйто жанр j-pop,... а не k-pop,... или она на японском поёт?
Не поверишь, и на японском, и на корейском, и на китайском, и на английском!

_________________
info [Профиль]  [ЛС] 

Kiprian

Пол: Пол:Муж

Стаж: 4 года 1 месяц

Сообщений: 166

Россия
Рейтинг

post 15-Янв-2013 17:24 (спустя 3 часа) [-]1[+]

[Цитировать] 

Phen1x
Угумсссс, прочёл описание, просто поле жанр дезинформировало...

_________________
info [Профиль]  [ЛС] 
Показать сообщения:    
Ответить на тему

Текущее время: 05-Дек 06:24

Часовой пояс: GMT + 4



Вы не можете начинать темы
Вы не можете отвечать на сообщения
Вы не можете редактировать свои сообщения
Вы не можете удалять свои сообщения
Вы не можете голосовать в опросах
Вы не можете прикреплять файлы к сообщениям
Вы не можете скачивать файлы