Ошибка

Шоу "Уральских пельменей". Снега и зрелищ [2012 г., Юмор, SATRip]

Ответить на тему
 
Автор Сообщение

Mephi1000fel

Пол: Пол:Муж

Стаж: 5 лет 2 месяца

Сообщений: 286

СССР
Рейтинг

post 01-Янв-2013 09:37 0[+]

[Цитировать] 

Шоу "Уральских пельменей". Снега и зрелищ


Год выпуска: 2012
Страна: Россия
Жанр: Юмор
Продолжительность: 01:34:59
Перевод: Не требуется
Язык субтитров: нет
Режиссер:
  • Уральские пельмени

В ролях:
  • Дмитрий Соколов, Дмитрий Бекоткин, Андрей Рожков, Максим Ярица, Сергей Исаев, Вячеслав Мясников, Сергей Нетиевский, Сергей Ершов, Александр Попов, Юлия Михалкова, Сергей Калугин

Описание: Юмористов нынче развелось видимо-невидимо. Да вот только, не все могут справиться с поставленной задачей. Ох, нелегкая это работа – в один миг рассмешить кого-то! А остроумные единомышленники из «Уральских пельменей» и за работу не считают свою деятельность. Они просто делают то, что умеют, что нравится им самим. Делают легко, от души. Их называют поставщиками смеха и они не возражают.
Качество: SATRip
Формат: AVI
Видео кодек: DivX
Аудио кодек: MP3
Видео: 720x400, 25 fps, 1500 Kbps (0.182 bit/pixel)
Аудио: 48 kHz, MPEG Layer 3, 2 ch, ~128.00 kbps avg

Код:

General
Complete name                            : F:\Shou.uralskih.pelmenei.31.12.2012.SATRip.avi
Format                                   : AVI
Format/Info                              : Audio Video Interleave
File size                                : 1.09 GiB
Duration                                 : 1h 34mn
Overall bit rate                         : 1 638 Kbps
Writing library                          : VirtualDub build 32706/release

Video
ID                                       : 0
Format                                   : MPEG-4 Visual
Format profile                           : Advanced Simple@L5
Format settings, BVOP                    : 2
Format settings, QPel                    : No
Format settings, GMC                     : No warppoints
Format settings, Matrix                  : Default (MPEG)
Codec ID                                 : XVID
Codec ID/Hint                            : XviD
Duration                                 : 1h 34mn
Bit rate                                 : 1 501 Kbps
Width                                    : 704 pixels
Height                                   : 400 pixels
Display aspect ratio                     : 16:9
Frame rate                               : 25.000 fps
Color space                              : YUV
Chroma subsampling                       : 4:2:0
Bit depth                                : 8 bits
Scan type                                : Progressive
Compression mode                         : Lossy
Bits/(Pixel*Frame)                       : 0.213
Stream size                              : 1 020 MiB (92%)
Writing library                          : XviD 1.2.1 (UTC 2008-12-04)

Audio
ID                                       : 1
Format                                   : MPEG Audio
Format version                           : Version 1
Format profile                           : Layer 3
Mode                                     : Joint stereo
Mode extension                           : MS Stereo
Codec ID                                 : 55
Codec ID/Hint                            : MP3
Duration                                 : 1h 34mn
Bit rate mode                            : Constant
Bit rate                                 : 128 Kbps
Channel(s)                               : 2 channels
Sampling rate                            : 48.0 KHz
Compression mode                         : Lossy
Stream size                              : 87.0 MiB (8%)
Alignment                                : Split accross interleaves
Interleave, duration                     : 40 ms (1.00 video frame)
Interleave, preload duration             : 500 ms

info [Профиль]  [ЛС] 

Montgomery

Пол: Пол:Муж

Стаж: 4 года

Сообщений: 706

Россия
Рейтинг

post 02-Янв-2013 19:11 (спустя 1 день 9 часов) [-]3[+]

[Цитировать] 

Пельмени как всегда на высоте. Умеют же шутить тонко, социально и совсем без пошлости и мата.
info [Профиль]  [ЛС] 
Показать сообщения:    
Ответить на тему

Текущее время: 09-Дек 07:58

Часовой пояс: GMT + 4



Вы не можете начинать темы
Вы не можете отвечать на сообщения
Вы не можете редактировать свои сообщения
Вы не можете удалять свои сообщения
Вы не можете голосовать в опросах
Вы не можете прикреплять файлы к сообщениям
Вы не можете скачивать файлы