Ошибка

Как Гринч украл рождество! / How the Grinch Stole Christmas! (Чак Джонс / Chuck Jones) [1966, мюзикл, семейный, BDRip-AVC] от R.G. Shadoof

Ответить на тему
 
Автор Сообщение

R.G. 25 Кадр

Стаж: 4 года 8 месяцев

Сообщений: 70

Россия
Рейтинг

post 29-Дек-2012 22:55 5[+]

[Цитировать] 


ИНФОРМАЦИЯ
Год выпуска: 1966
Страна :
Жанр : анимационный, короткометражный, мюзикл, семейный, мультфильм
Продолжительность : 00:25:45
Перевод : Любительский (одноголосый закадровый) + Оригинал
Субтитры: английские, русские
Режиссер : Чак Джонс / Chuck Jones, Бен Вашам / Ben Washam
Роли озвучивали : Борис Карлофф / Boris Karloff (Narrator / The Grinch), Джун Форэй / June Foray (Cindy Lou Who), Тарл Равенскрофт / Thurl Ravenscroft (Singer)


ОПИСАНИЕ:
Посреди гор в долине расположился сказочный городок Ктовилль, населенный не менее сказочными жителями, любимым праздником которых является, конечно же, Рождество! И только Гринч, живущий в пещере близлежащей горы, ненавидит Его. Он злой, брюзгливый и одинокий, компанию ему составляет лишь верный пес Макс. Причин такой отрешенности и ненависти может быть много, но самая вероятная из них состоит в том, что у Гринча сердце в два раза меньше обычного. И все бы ничего, да только в зеленую голову Гринча пришла ужасная мысль - предотвратить приход Рождества...

ТЕХ.ДАННЫЕ:
  • Качество: BDRip-AVC (Источник: MrSherlockHolmes / BDRemux / 1080p)
  • Формат: MKV
  • Видео кодек: x264
  • Аудио кодек: AC3
  • Видео: 820x600 (1.37:1), 23.976 fps, x264 ~3000 kbps avg, 0.254 bit/pixel
  • Аудио#1: 48 kHz, AC3 Dolby Digital, 2/0 (L,R) Surround Encoded ch, ~192 kbps
  • Аудио#2: 48 kHz, AC3 Dolby Digital, 2/0 (L,R) ch, ~192 kbps

Формат : Matroska
Версия формата : Version 2
Размер файла : 623 Мбайт
Продолжительность : 25 м.
Общий поток : 3385 Кбит/сек
Дата кодирования : UTC 2012-11-22 20:32:38
Программа кодирования : mkvmerge v5.5.0 ('Healer') built on Apr 6 2012 21:43:24
Библиотека кодирования : libebml v1.2.3 + libmatroska v1.3.0

Видео
Идентификатор : 1
Формат : AVC
Формат/Информация : Advanced Video Codec
Профиль формата : High@L4.1
Параметр CABAC формата : Да
Параметр ReFrames формата : 10 кадров
Идентификатор кодека : V_MPEG4/ISO/AVC
Продолжительность : 25 м.
Битрейт : 3000 Кбит/сек
Ширина : 820 пикселей
Высота : 600 пикселей
Соотношение сторон : 4:3
Соотношение сторон в оригинале : 4:3
Частота кадров : 23,976 кадра/сек
Цветовое пространство : YUV
Субдискретизация насыщенности : 4:2:0
Битовая глубина : 8 бит
Тип развёртки : Прогрессивная
Бит/(Пиксели*Кадры) : 0.254
Размер потока : 540 Мбайт (87%)
Заголовок : Kak.Grinch.Ukral.Rozhdestvo.1966.BDRip.x264.AC3 | Deep Fusion
Библиотека кодирования : x264 core 125 r2200 999b753
Настройки программы : cabac=1 / ref=10 / deblock=1:-3:-2 / analyse=0x3:0x113 / me=umh / subme=11 / psy=1 / psy_rd=1.07:0.05 / mixed_ref=1 / me_range=48 / chroma_me=1 / trellis=2 / 8x8dct=1 / cqm=0 / deadzone=21,11 / fast_pskip=0 / chroma_qp_offset=-5 / threads=6 / lookahead_threads=1 / sliced_threads=0 / nr=0 / decimate=1 / interlaced=0 / bluray_compat=0 / constrained_intra=0 / bframes=12 / b_pyramid=2 / b_adapt=2 / b_bias=0 / direct=1 / weightb=1 / open_gop=0 / weightp=2 / keyint=240 / keyint_min=23 / scenecut=40 / intra_refresh=0 / rc_lookahead=60 / rc=2pass / mbtree=0 / bitrate=3000 / ratetol=1.0 / qcomp=0.70 / qpmin=10 / qpmax=69 / qpstep=4 / cplxblur=20.0 / qblur=0.5 / vbv_maxrate=62500 / vbv_bufsize=50000 / nal_hrd=none / ip_ratio=1.40 / pb_ratio=1.30 / aq=1:0.80
Язык : English
Default : Да
Forced : Нет

Аудио #1
Идентификатор : 2
Формат : AC-3
Формат/Информация : Audio Coding 3
Профиль формата : Dolby Digital
Расширение режима : CM (complete main)
Параметр Endianness формата : Big
Идентификатор кодека : A_AC3
Продолжительность : 25 м.
Вид битрейта : Постоянный
Битрейт : 192 Кбит/сек
Каналы : 2 канала
Расположение каналов : Front: L R
Частота : 48,0 КГц
Битовая глубина : 16 бит
Метод сжатия : С потерями
Размер потока : 35,4 Мбайт (6%)
Заголовок : Оригинал (английский)
Язык : English
Default : Да
Forced : Нет

Аудио #2
Идентификатор : 3
Формат : AC-3
Формат/Информация : Audio Coding 3
Расширение режима : CM (complete main)
Параметр Endianness формата : Big
Идентификатор кодека : A_AC3
Продолжительность : 25 м.
Вид битрейта : Постоянный
Битрейт : 192 Кбит/сек
Каналы : 2 канала
Расположение каналов : Front: L R
Частота : 48,0 КГц
Битовая глубина : 16 бит
Метод сжатия : С потерями
Размер потока : 35,4 Мбайт (6%)
Заголовок : Любительский (одноголосый, закадровый) behaviour
Язык : Russian
Default : Нет
Forced : Нет

Текст #1
Идентификатор : 4
Формат : UTF-8
Идентификатор кодека : S_TEXT/UTF8
Идентификатор кодека/Информация : UTF-8 Plain Text
Заголовок : русские (полные, by Narцissa)
Язык : Russian
Default : Да
Forced : Нет

Текст #2
Идентификатор : 5
Формат : UTF-8
Идентификатор кодека : S_TEXT/UTF8
Идентификатор кодека/Информация : UTF-8 Plain Text
Заголовок : Английские (полные)
Язык : English
Default : Нет
Forced : Нет[/code]


Релиз группы:
Автор рипа : Captain Evidence


Если вы скачали данный релиз и хотите выложить его на другом ресурсе - указывайте первоисточник - R.G. Shadoof (Tapochek.net)
pic="http://lostpic.net/images/398cba5c523e1245f20c0f9ae2cfd6a1.png"




info [Профиль]  [ЛС] 
Показать сообщения:    
Ответить на тему

Текущее время: 05-Дек 04:28

Часовой пояс: GMT + 4



Вы не можете начинать темы
Вы не можете отвечать на сообщения
Вы не можете редактировать свои сообщения
Вы не можете удалять свои сообщения
Вы не можете голосовать в опросах
Вы не можете прикреплять файлы к сообщениям
Вы не можете скачивать файлы