Ошибка

Полярный экспресс / The Polar Express (Роберт Земекис) [2004, фэнтези, приключения, семейный, мультфильм, HDRip] от R.G. Shadoof

Ответить на тему
 
Автор Сообщение

R.G. 25 Кадр

Стаж: 5 лет 2 месяца

Сообщений: 70

Россия
Рейтинг

post 29-Дек-2012 21:35 5[+]

[Цитировать] 


ИНФОРМАЦИЯ
Год выпуска: 2004
Страна :
Жанр : фэнтези, приключения, семейный, мультфильм
Продолжительность : 01:39:56
Перевод : Профессиональный (полное дублирование) + Профессиональный (многоголосый, закадровый) + Авторский (Королёв)
Режиссер : Роберт Земекис
В ролях : Том Хэнкс, Майкл Джитер, Нона Гей, Питер Сколари, Эдди Дизен, Лесли Хартер Земекис, Чарльз Флайшер, Джош Эли, Марк Мендонка, Роландас Хендрикс


ОПИСАНИЕ:
Экранизация одноименной детской книги о необыкновенном путешествии маленького мальчика на волшебном поезде «Полярный экспресс» на Северный полюс к Санта-Клаусу в канун Рождества…

ТЕХ.ДАННЫЕ:
  • Качество: HDRip (Источник: / BDRip / 1080p)
  • Формат: AVI
  • Видео кодек: XviD
  • Аудио кодек: AC3
  • Видео: 720x304 (2.37:1), 23.976 fps, XviD build 64 ~1967 kbps avg, 0.38 bit/pixel
  • Аудио#1: 48 kHz, AC3 Dolby Digital, 3/2 (L,C,R,l,r) + LFE ch, ~384 kbps
  • Аудио#2: 48 kHz, AC3 Dolby Digital, 3/2 (L,C,R,l,r) + LFE ch, ~384 kbps
  • Аудио#3: 48 kHz, AC3 Dolby Digital, 3/2 (L,C,R,l,r) + LFE ch, ~384 kbps


Код:

General
Complete name                            : C:\Users\iCrab\Desktop\Polyarnyj.ekspress.2004.TRIPLE.HDRip.XviD.AC3.-R.G.Shadoof [WYGD].avi
Format                                   : AVI
Format/Info                              : Audio Video Interleave
Format profile                           : OpenDML
File size                                : 2.18 GiB
Duration                                 : 1h 39mn
Overall bit rate                         : 3 127 Kbps
Movie name                               : Полярный экспресс HDrip [R.G. Shadoof - WYGD]
Director                                 : What You Gonna Do ?
Writing application                      : VirtualDubMod 1.5.10.2 (build 2540/release)
Copyright                                : R.G. Shadoof
Comment                                  : 29.12.2012

Video
ID                                       : 0
Format                                   : MPEG-4 Visual
Format profile                           : Advanced Simple@L5
Format settings, BVOP                    : 1
Format settings, QPel                    : No
Format settings, GMC                     : No warppoints
Format settings, Matrix                  : Custom
Codec ID                                 : XVID
Codec ID/Hint                            : XviD
Duration                                 : 1h 39mn
Bit rate                                 : 1 951 Kbps
Width                                    : 720 pixels
Height                                   : 304 pixels
Display aspect ratio                     : 2.35:1
Frame rate                               : 23.976 fps
Color space                              : YUV
Chroma subsampling                       : 4:2:0
Bit depth                                : 8 bits
Scan type                                : Progressive
Compression mode                         : Lossy
Bits/(Pixel*Frame)                       : 0.372
Stream size                              : 1.36 GiB (62%)
Writing library                          : XviD 64

Audio #1
ID                                       : 1
Format                                   : AC-3
Format/Info                              : Audio Coding 3
Mode extension                           : CM (complete main)
Format settings, Endianness              : Big
Codec ID                                 : 2000
Duration                                 : 1h 39mn
Bit rate mode                            : Constant
Bit rate                                 : 384 Kbps
Channel(s)                               : 6 channels
Channel positions                        : Front: L C R, Side: L R, LFE
Sampling rate                            : 48.0 KHz
Bit depth                                : 16 bits
Compression mode                         : Lossy
Stream size                              : 274 MiB (12%)
Alignment                                : Split accross interleaves
Interleave, duration                     : 42 ms (1.00 video frame)
Interleave, preload duration             : 500 ms

Audio #2
ID                                       : 2
Format                                   : AC-3
Format/Info                              : Audio Coding 3
Mode extension                           : CM (complete main)
Format settings, Endianness              : Big
Codec ID                                 : 2000
Duration                                 : 1h 39mn
Bit rate mode                            : Constant
Bit rate                                 : 384 Kbps
Channel(s)                               : 6 channels
Channel positions                        : Front: L C R, Side: L R, LFE
Sampling rate                            : 48.0 KHz
Bit depth                                : 16 bits
Compression mode                         : Lossy
Stream size                              : 274 MiB (12%)
Alignment                                : Split accross interleaves
Interleave, duration                     : 42 ms (1.00 video frame)
Interleave, preload duration             : 500 ms

Audio #3
ID                                       : 3
Format                                   : AC-3
Format/Info                              : Audio Coding 3
Mode extension                           : CM (complete main)
Format settings, Endianness              : Big
Codec ID                                 : 2000
Duration                                 : 1h 39mn
Bit rate mode                            : Constant
Bit rate                                 : 384 Kbps
Channel(s)                               : 6 channels
Channel positions                        : Front: L C R, Side: L R, LFE
Sampling rate                            : 48.0 KHz
Bit depth                                : 16 bits
Compression mode                         : Lossy
Stream size                              : 274 MiB (12%)
Alignment                                : Split accross interleaves
Interleave, duration                     : 42 ms (1.00 video frame)
Interleave, preload duration             : 500 ms


Релиз группы:
Автор рипа : What You Gonna Do ?


Если вы скачали данный релиз и хотите выложить его на другом ресурсе - указывайте первоисточник - R.G. Shadoof (Tapochek.net)
pic="http://i53.fastpic.ru/big/2012/1229/53/2b2638cb9ef753151d7be68fe00f4b53.jpg"




info [Профиль]  [ЛС] 

What You Gonna Do

Пол: Пол:Муж

Стаж: 5 лет 10 месяцев

Сообщений: 345

Американские Виргинские острова
Рейтинг

post 29-Дек-2012 21:40 (спустя 4 минуты) [-]0[+]

[Цитировать] 

anime_9

Код:

http://i53.fastpic.ru/big/2012/1229/53/2b2638cb9ef753151d7be68fe00f4b53.jpg

В фильме присутствует "плавающий" кроп.
info [Профиль]  [ЛС] 

Rinzler

Пол: Пол:Муж

Стаж: 5 лет 10 месяцев

Сообщений: 80

Россия
Рейтинг

post 29-Дек-2012 21:51 (спустя 11 минут) [-]-1[+]

[Цитировать] 

What You Gonna Do
Спасибо! уже есть, что глянуть на каникулах kolob_117
info [Профиль]  [ЛС] 

Rammzik

Пол: Пол:Муж

Стаж: 4 года 7 месяцев

Сообщений: 260

Сербия
Рейтинг

post 29-Дек-2012 23:04 (спустя 1 час 12 минут) [-]1[+]

[Цитировать] 

Очень приятный мультик в особенности если смотреть на Рождественских каникулах

_________________
info [Профиль]  [ЛС] 
Показать сообщения:    
Ответить на тему

Текущее время: 23-Май 18:53

Часовой пояс: GMT + 4



Вы не можете начинать темы
Вы не можете отвечать на сообщения
Вы не можете редактировать свои сообщения
Вы не можете удалять свои сообщения
Вы не можете голосовать в опросах
Вы не можете прикреплять файлы к сообщениям
Вы не можете скачивать файлы