Ошибка

КВН-2012. Высшая лига. Финал (28.12.2012) [2012, Тв-шоу, юмор, SATRip]

Ответить на тему
 
Автор Сообщение

Progum

Пол: Пол:Муж

Стаж: 6 лет 8 месяцев

Сообщений: 389

Предупреждений: 1

СССР
Рейтинг

post 28-Дек-2012 19:26 0[+]

[Цитировать] 

КВН-2012. Высшая лига. Финал

Год выпуска: 2012
Страна: Россия
Жанр: Тв-шоу, юмор
Продолжительность:01:56:32

Играют команды:
"Раисы", Иркутск
"Триод и Диод", Смоленск
"ГородЪ ПятигорскЪ", сборная Пятигорска
"Факультет журналистики", Санкт-Петербург

Качество: SATRip
Формат: AVI
Видео кодек: XviD
Аудио кодек: MP3
Видео: 704x400 (1.76:1), 25 fps, ~1759 kbps avg, 0.25 bit/pixel
Аудио: 48 kHz, MPEG Layer 3, 2 ch, ~128.00 kbps avg
Video
ID : 0
Format : MPEG-4 Visual
Format profile : Advanced Simple@L5
Format settings, BVOP : 2
Format settings, QPel : No
Format settings, GMC : No warppoints
Format settings, Matrix : Custom
Codec ID : XVID
Codec ID/Hint : XviD
Duration : 1h 54mn
Bit rate : 1 824 Kbps
Width : 720 pixels
Height : 400 pixels
Display aspect ratio : 16:9
Frame rate : 25.000 fps
Color space : YUV
Chroma subsampling : 4:2:0
Bit depth : 8 bits
Scan type : Progressive
Compression mode : Lossy
Bits/(Pixel*Frame) : 0.253
Stream size : 1.46 GiB (93%)
Writing library : XviD 1.2.1 (UTC 2008-12-04)

Audio
ID : 1
Format : MPEG Audio
Format version : Version 1
Format profile : Layer 3
Mode : Joint stereo
Mode extension : MS Stereo
Codec ID : 55
Codec ID/Hint : MP3
Duration : 1h 54mn
Source duration : 1h 54mn
Bit rate mode : Constant
Bit rate : 128 Kbps
Channel(s) : 2 channels
Sampling rate : 44.1 KHz
Compression mode : Lossy
Stream size : 105 MiB (7%)
Alignment : Aligned on interleaves
Interleave, duration : 40 ms (1.00 video frame)

Releases by Progum
info [Профиль]  [ЛС] 

Game_Stalker

Пол: Пол:Муж

Стаж: 4 года 4 месяца

Сообщений: 59

Россия
Рейтинг

post 28-Дек-2012 23:20 (спустя 3 часа) [-]1[+]

[Цитировать] 

Пятигорск смело делит первое место с Триод и Диод.
Кстати был в Питере на "КВН Финал на бис" вот там атмосфера намного круче была. Камер нет, игроки уже знают кто победил - все были расслаблены, жгли по полной. Даже Масляков дико тролил зал.

_________________
Хочешь сделать хорошо - сделай это сам.
info [Профиль]  [ЛС] 

stigmata03

Пол: Пол:Муж

Стаж: 6 лет 7 месяцев

Сообщений: 8

Россия
Рейтинг

post 29-Дек-2012 00:11 (спустя 50 минут) [-]0[+]

[Цитировать] 

Оперативно)
info [Профиль]  [ЛС] 

CarterSlade

Пол: Пол:Муж

Стаж: 5 лет 5 месяцев

Сообщений: 40

Украина
Рейтинг

post 29-Дек-2012 03:20 (спустя 3 часа) [-]0[+]

[Цитировать] 

блин какая приятная неожиданность, я вроде читал что финал только 30 будет, спасибо!!!
info [Профиль]  [ЛС] 
Показать сообщения:    
Ответить на тему

Текущее время: 04-Дек 01:58

Часовой пояс: GMT + 4



Вы не можете начинать темы
Вы не можете отвечать на сообщения
Вы не можете редактировать свои сообщения
Вы не можете удалять свои сообщения
Вы не можете голосовать в опросах
Вы не можете прикреплять файлы к сообщениям
Вы не можете скачивать файлы