Ошибка

Кэйон! (фильм) | К-он! (фильм) | Eiga K-On! | K-On! Never Forget Those Days!! [Movie] [комедия, музыка, школа] [BDRip] [1080p] [Любительский(JAP+SUB)]

Ответить на тему
 
Автор Сообщение

Алмаз

Пол: Пол:Муж

Стаж: 6 лет 4 месяца

Сообщений: 1836

Россия
Рейтинг

post 18-Дек-2012 23:56 1[+]

[Цитировать] 

Кэйон! (фильм)
Eiga K-On! | K-On! Never Forget Those Days!!
Год выпуска: 2011
Страна: Япония
Жанр: комедия, музыка, школа
Продолжительность: 110 мин.
Перевод:
русские субтитры от Hyakka Ryoran Fansubs & Stan WarHammer & Nesitach (внешним файлом)
английские субтитры от CoalGuys
Озвучка:
многоголосая от Renegade Team & Anilibria & Lucky Clover
одноголосая (жен.) от Amu-chan
Режиссер: Ямада Наоко
Студия: Kyoto Animation
Описание:
Продолжение истории про участниц клуба лёгкой музыки. На этот раз, в честь окончания школы, девчонки решили сделать себе маленький подарок - слетать за границу! И после долгих и серьёзных раздумий выбор пал на Лондон, колыбель рок-музыки!
Информационные ссылки: AniDB || World Art || MAL
Качество: BDRip | Тип видео: без хардсаба | Формат: mkv
Энкод: Kuroi-raws
Видео: x264 (Hi10P), 1920x1080, 14.9 Mbps, 23.976 fps
Аудио JAP 1: FLAC, 48000Hz, 3361 Kbps, 6ch
Аудио JAP 2: FLAC, 48000Hz, 1415 Kbps, 2ch
Аудио JAP 3: AC3, 48000Hz, 640 Kbps, 2ch (комментарии)
Аудио RUS 1: AC3, 48000Hz, 448 Kbps, 6ch (внешним файлом) | (sample)
Аудио RUS 2: AC3, 48000Hz, 192 Kbps, 2ch (внешним файлом) | (sample)
Субтитры JAP: PGS, встроенные


 
General
Unique ID : 238208188767632330021760642740569199657 (0xB3353A76C1B55B7887780880260F5429)
Format : Matroska
Format version : Version 2
File size : 16.6 GiB
Duration : 1h 49mn
Overall bit rate mode : Variable
Overall bit rate : 21.7 Mbps
Encoded date : UTC 2012-08-13 19:29:30
Writing application : mkvmerge v5.7.0 ('The Whirlwind') built on Jul 8 2012 20:08:51
Writing library : libebml v1.2.3 + libmatroska v1.3.0
Attachment : Yes / Yes / Yes / Yes / Yes / Yes / Yes / Yes / Yes / Yes / Yes / Yes / Yes / Yes / Yes / Yes / Yes / Yes / Yes / Yes / Yes / Yes / Yes / Yes / Yes / Yes / Yes / Yes
Video #1
ID : 1
Format : AVC
Format/Info : Advanced Video Codec
Format profile : High 10@L5.1
Format settings, CABAC : Yes
Format settings, ReFrames : 16 frames
Muxing mode : Header stripping
Codec ID : V_MPEG4/ISO/AVC
Duration : 1h 49mn
Nominal bit rate : 14.9 Mbps
Width : 1 920 pixels
Height : 1 080 pixels
Display aspect ratio : 16:9
Frame rate mode : Constant
Frame rate : 23.976 fps
Color space : YUV
Chroma subsampling : 4:2:0
Bit depth : 10 bits
Scan type : Progressive
Bits/(Pixel*Frame) : 0.300
Title : [Kuroi-raws] Eiga K-On [BDrip 1920x1080 x264 FLAC]
Writing library : x264 core 125 r2208 d9d2288
Encoding settings : cabac=1 / ref=16 / deblock=1:-2:-2 / analyse=0x3:0x133 / me=umh / subme=9 / psy=1 / psy_rd=0.80:0.00 / mixed_ref=1 / me_range=24 / chroma_me=1 / trellis=2 / 8x8dct=1 / cqm=0 / deadzone=21,11 / fast_pskip=1 / chroma_qp_offset=-2 / threads=15 / lookahead_threads=2 / sliced_threads=0 / nr=0 / decimate=0 / interlaced=0 / bluray_compat=0 / constrained_intra=0 / bframes=8 / b_pyramid=2 / b_adapt=2 / b_bias=0 / direct=3 / weightb=1 / open_gop=0 / weightp=2 / keyint=250 / keyint_min=23 / scenecut=40 / intra_refresh=0 / rc=2pass / mbtree=0 / bitrate=14930 / ratetol=1.0 / qcomp=0.80 / qpmin=8 / qpmax=42 / qpstep=4 / cplxblur=20.0 / qblur=0.5 / ip_ratio=1.40 / pb_ratio=1.30 / aq=1:1.00
Language : Japanese
Default : Yes
Forced : No
Audio #2
ID : 2
Format : FLAC
Format/Info : Free Lossless Audio Codec
Codec ID : A_FLAC
Duration : 1h 49mn
Bit rate mode : Variable
Channel(s) : 6 channels
Sampling rate : 48.0 KHz
Bit depth : 24 bits
Title : LPCM 5.1 -> FLAC 5.1
Writing library : libFLAC 1.2.1 (UTC 2007-09-17)
Language : Japanese
Default : Yes
Forced : No
Audio #3
ID : 3
Format : FLAC
Format/Info : Free Lossless Audio Codec
Codec ID : A_FLAC
Duration : 1h 49mn
Bit rate mode : Variable
Channel(s) : 2 channels
Sampling rate : 48.0 KHz
Bit depth : 24 bits
Title : LPCM -> FLAC
Writing library : libFLAC 1.2.1 (UTC 2007-09-17)
Language : Japanese
Default : No
Forced : No
Audio #4
ID : 4
Format : AC-3
Format/Info : Audio Coding 3
Mode extension : CM (complete main)
Format settings, Endianness : Big
Muxing mode : Header stripping
Codec ID : A_AC3
Duration : 1h 49mn
Bit rate mode : Constant
Bit rate : 640 Kbps
Channel(s) : 2 channels
Channel positions : Front: L R
Sampling rate : 48.0 KHz
Bit depth : 16 bits
Compression mode : Lossy
Stream size : 503 MiB (3%)
Title : Audio commentary 1
Language : Japanese
Default : No
Forced : No
Audio #5
ID : 5
Format : AC-3
Format/Info : Audio Coding 3
Mode extension : CM (complete main)
Format settings, Endianness : Big
Muxing mode : Header stripping
Codec ID : A_AC3
Duration : 1h 49mn
Bit rate mode : Constant
Bit rate : 640 Kbps
Channel(s) : 2 channels
Channel positions : Front: L R
Sampling rate : 48.0 KHz
Bit depth : 16 bits
Compression mode : Lossy
Stream size : 503 MiB (3%)
Title : Audio commentary 2
Language : Japanese
Default : No
Forced : No
Audio #6
ID : 6
Format : AC-3
Format/Info : Audio Coding 3
Mode extension : CM (complete main)
Format settings, Endianness : Big
Muxing mode : Header stripping
Codec ID : A_AC3
Duration : 1h 49mn
Bit rate mode : Constant
Bit rate : 640 Kbps
Channel(s) : 2 channels
Channel positions : Front: L R
Sampling rate : 48.0 KHz
Bit depth : 16 bits
Compression mode : Lossy
Stream size : 503 MiB (3%)
Title : Audio commentary 3
Language : Japanese
Default : No
Forced : No
Text #7
ID : 7
Format : PGS
Muxing mode : zlib
Codec ID : S_HDMV/PGS
Codec ID/Info : The same subtitle format used on BDs/HD-DVDs
Title : Japanese Subtitles
Language : Japanese
Default : Yes
Forced : No
Text #8
ID : 8
Format : ASS
Codec ID : S_TEXT/ASS
Codec ID/Info : Advanced Sub Station Alpha
Compression mode : Lossless
Title : English Subtitles (CoalGuys)
Language : English
Default : No
Forced : No

info [Профиль]  [ЛС] 

ZashikiWarashi

Пол: Пол:Муж

Стаж: 4 года 1 месяц

Сообщений: 461

Предупреждений: 1

Россия
Рейтинг

post 19-Дек-2012 06:55 (спустя 6 часов) [-]2[+]

[Цитировать] 

Ааа, муги-тян великолепна !!

добавлено спустя 4 минуты 1 секунда:

Даже руки скачать зачесались ><
info [Профиль]  [ЛС] 

Ramio Lin

Пол: Пол:Муж

Стаж: 6 лет 1 месяц

Сообщений: 56

Россия
Рейтинг

post 19-Дек-2012 07:38 (спустя 43 минуты) [-]1[+]

[Цитировать] 

Азу-НЯн ОМЕГО НЯЯЯЯЯЯЯЯЯЯЯЯШААА !!!! =^_^=
Жаль что съездить на Рашу даже в вариантах не было ))

_________________
Не дай угаснуть свету в своём сердце ~^
info [Профиль]  [ЛС] 

LuckyS

Пол: Пол:Муж

Стаж: 7 лет 3 месяца

Сообщений: 39

Литва
Рейтинг

post 19-Дек-2012 23:39 (спустя 16 часов) [-]0[+]

[Цитировать] 

Ramio Lin писал(а):

Жаль что съездить на Рашу даже в вариантах не было ))
А че там делать,на медведей с балалайками смотреть?

_________________
info [Профиль]  [ЛС] 

ZashikiWarashi

Пол: Пол:Муж

Стаж: 4 года 1 месяц

Сообщений: 461

Предупреждений: 1

Россия
Рейтинг

post 20-Дек-2012 08:47 (спустя 9 часов) [-]0[+]

[Цитировать] 

"Катюшу" исполнять : D
info [Профиль]  [ЛС] 

Алмаз

Пол: Пол:Муж

Стаж: 6 лет 4 месяца

Сообщений: 1836

Россия
Рейтинг

post 21-Янв-2013 22:42 (спустя 1 месяц 1 день) [-]0[+]

[Цитировать] 

Позолотил =)

_________________
Паранойя - чрезвычайно утешительное состояние ума. Если вам кажется, что против вас что-то замышляют - значит вы что-то да стоите! (с) Гильбран Трус (Митчелл Сэнди - Игра предателя)
info [Профиль]  [ЛС] 
Показать сообщения:    
Ответить на тему

Текущее время: 09-Дек 04:04

Часовой пояс: GMT + 4



Вы не можете начинать темы
Вы не можете отвечать на сообщения
Вы не можете редактировать свои сообщения
Вы не можете удалять свои сообщения
Вы не можете голосовать в опросах
Вы не можете прикреплять файлы к сообщениям
Вы не можете скачивать файлы