Ошибка

Феи: Тайна Зимнего Леса / Secret Of The Wings (Роберт Ганнавей, Пегги Холмс) [2012, Мультфильм, фэнтези, семейный, HDRip-AVC]

Ответить на тему
 
Автор Сообщение

ProZorg_tm

Пол: Пол:Муж

Стаж: 4 года 9 месяцев

Сообщений: 598

Израиль
Рейтинг

post 17-Дек-2012 20:12 0[+]

[Цитировать] 

Феи: Тайна Зимнего Леса / Secret Of The Wings
«Два мира. Одна тайна»

Год выпуска: 2012
Страна: США
Выпущено: DisneyToon Studios, Walt Disney Pictures
Жанр: Мультфильм, фэнтези, семейный

Режиссёр: Роберт Ганнавей, Пегги Холмс
В главных ролях: Тимоти Далтон, Люси Хейл, Меган Хилти, Анжелика Хьюстон, Мэтт Лантер, Джесси МакКартни, Мэй Уитман, Люси Лью, Рэйвен, Дебби Райан

Перевод: Профессиональный (полное дублирование)
Субтитры: Английские
Переход по главам: Есть

Описание:
Динь-Динь и ее подруги всегда боялись пересекать границу с Зимним лесом, ведь существует поверье, что там очень опасно. В один прекрасный день Динь-Динь, сгорая от любопытства, подходит вплотную к лесу, и ее крылья неожиданно начинают блестеть и переливаться. Завороженная Динь, желая узнать тайну волшебных крыльев, кутается в теплое пальто и отправляется в глубь таинственного леса, где ее ждет неожиданное открытие...

Автор рипа:
Дата премьеры (мир): 16 августа 2012
Дата премьеры (РФ): 29 ноября 2012, «WDSSPR»

Качество: HDRip-AVC исх. Феи: Тайна Зимнего Леса / Secret Of The Wings 2012 BDRip 720p [EbP]
Продолжительность: 01:15:04

Формат: MKV
Видео кодек: H.264
Аудио кодек: AC3
Видео: 896x504 (16:9), 23.976 fps, H.264 ~2 399 kbps avg, 0.222 bit/pixel
Аудио: 48.0 KHz, 6 channels (Front: L C R, Side: L R, LFE), 384.00 kbps avg
raw [info]: 896x504p 1:1 @ 24000/1001 fps (cfr)
x264 [info]: using SAR=1/1
x264 [info]: using cpu capabilities: MMX2 SSE2Fast SSSE3 FastShuffle SSE4.2 AVX
x264 [info]: profile High, level 4.1
x264 [info]: frame I:1024 Avg QP:15.17 size: 97333
x264 [info]: frame P:30042 Avg QP:18.76 size: 21573
x264 [info]: frame B:76919 Avg QP:21.36 size: 7845
x264 [info]: consecutive B-frames: 5.4% 5.3% 11.6% 43.5% 12.5% 18.4% 1.4% 1.4% 0.2% 0.4%
x264 [info]: mb I I16..4: 6.7% 57.5% 35.8%
x264 [info]: mb P I16..4: 0.5% 9.2% 2.5% P16..4: 20.3% 20.9% 13.7% 4.3% 0.9% skip:27.7%
x264 [info]: mb B I16..4: 0.1% 1.9% 0.4% B16..8: 20.7% 15.6% 4.2% direct: 5.3% skip:51.8% L0:35.0% L1:41.4% BI:23.6%
x264 [info]: 8x8 transform intra:73.3% inter:46.0%
x264 [info]: direct mvs spatial:94.4% temporal:5.6%
x264 [info]: coded y,uvDC,uvAC intra: 91.3% 88.5% 70.1% inter: 18.7% 15.8% 6.6%
x264 [info]: i16 v,h,dc,p: 12% 9% 14% 65%
x264 [info]: i8 v,h,dc,ddl,ddr,vr,hd,vl,hu: 13% 11% 6% 8% 11% 12% 12% 12% 15%
x264 [info]: i4 v,h,dc,ddl,ddr,vr,hd,vl,hu: 13% 8% 5% 8% 16% 14% 13% 11% 12%
x264 [info]: i8c dc,h,v,p: 40% 24% 18% 18%
x264 [info]: Weighted P-Frames: Y:4.5% UV:2.8%
x264 [info]: ref P L0: 53.7% 12.2% 13.4% 4.7% 3.4% 2.7% 2.2% 1.4% 1.2% 1.1% 0.9% 0.8% 0.7% 0.7% 0.7% 0.1%
x264 [info]: ref B L0: 81.1% 8.0% 3.7% 1.8% 1.3% 1.0% 0.8% 0.5% 0.5% 0.4% 0.3% 0.3% 0.2% 0.1%
x264 [info]: ref B L1: 94.6% 5.4%
x264 [info]: kb/s:2400.09
x264 [total]: encoded 107985 frames, 11.28 fps, 2400.09 kb/s
General
Unique ID : 237740644536462420114803293912073728368 (0xB2DB2EC0E8E698CB8DEE948FAE6B7170)
Complete name : D:\Fei.tayna.zimnego.lesa.2012.HDRip-AVC.by Matroska_1.45.mkv
Format : Matroska
Format version : Version 2
File size : 1.46 GiB
Duration : 1h 15mn
Overall bit rate : 2 786 Kbps
Movie name : Fei.tayna.zimnego.lesa.2012.HDRip-AVC.by dOrOgOi
Encoded date : UTC 2012-12-15 17:58:30
Writing application : mkvmerge v5.8.0 ('No Sleep / Pillow') built on Sep 2 2012 15:37:04
Writing library : libebml v1.2.3 + libmatroska v1.3.0
Video
ID : 1
Format : AVC
Format/Info : Advanced Video Codec
Format profile : High@L4.1
Format settings, CABAC : Yes
Format settings, ReFrames : 15 frames
Codec ID : V_MPEG4/ISO/AVC
Duration : 1h 15mn
Bit rate : 2 399 Kbps
Width : 896 pixels
Height : 504 pixels
Display aspect ratio : 16:9
Frame rate mode : Constant
Frame rate : 23.976 fps
Color space : YUV
Chroma subsampling : 4:2:0
Bit depth : 8 bits
Scan type : Progressive
Bits/(Pixel*Frame) : 0.222
Stream size : 1.23 GiB (84%)
Title : Fei.tayna.zimnego.lesa.2012.HDRip-AVC.by dOrOgOi
Writing library : x264 core 125 r2208 d9d2288
Encoding settings : cabac=1 / ref=15 / deblock=1:-2:-1 / analyse=0x3:0x133 / me=umh / subme=11 / psy=1 / psy_rd=1.00:0.15 / mixed_ref=1 / me_range=48 / chroma_me=1 / trellis=2 / 8x8dct=1 / cqm=0 / deadzone=21,11 / fast_pskip=0 / chroma_qp_offset=-3 / threads=12 / lookahead_threads=2 / sliced_threads=0 / nr=0 / decimate=1 / interlaced=0 / bluray_compat=0 / constrained_intra=0 / bframes=9 / b_pyramid=2 / b_adapt=2 / b_bias=0 / direct=3 / weightb=1 / open_gop=0 / weightp=2 / keyint=250 / keyint_min=23 / scenecut=40 / intra_refresh=0 / rc=2pass / mbtree=0 / bitrate=2399 / ratetol=1.0 / qcomp=0.60 / qpmin=0 / qpmax=69 / qpstep=4 / cplxblur=20.0 / qblur=0.5 / ip_ratio=1.40 / pb_ratio=1.30 / aq=2:1.00
Language : English
Default : Yes
Forced : No
Audio
ID : 2
Format : AC-3
Format/Info : Audio Coding 3
Mode extension : CM (complete main)
Format settings, Endianness : Big
Codec ID : A_AC3
Duration : 1h 15mn
Bit rate mode : Constant
Bit rate : 384 Kbps
Channel(s) : 6 channels
Channel positions : Front: L C R, Side: L R, LFE
Sampling rate : 48.0 KHz
Bit depth : 16 bits
Compression mode : Lossy
Stream size : 206 MiB (14%)
Default : Yes
Forced : No
Text #1
ID : 3
Format : UTF-8
Codec ID : S_TEXT/UTF8
Codec ID/Info : UTF-8 Plain Text
Title : SDH
Language : English
Default : No
Forced : No
Text #2
ID : 4
Format : UTF-8
Codec ID : S_TEXT/UTF8
Codec ID/Info : UTF-8 Plain Text
Language : English
Default : No
Forced : No
Menu
00:00:00.000 : en:00:00:00.000
00:05:53.019 : en:00:05:53.019
00:09:04.627 : en:00:09:04.627
00:14:10.516 : en:00:14:10.516
00:20:32.481 : en:00:20:32.481
00:28:17.404 : en:00:28:17.404
00:34:46.209 : en:00:34:46.209
00:40:26.466 : en:00:40:26.466
00:48:07.134 : en:00:48:07.134
00:53:50.686 : en:00:53:50.686
01:00:37.175 : en:01:00:37.175
01:07:47.563 : en:01:07:47.563

info [Профиль]  [ЛС] 

SoSyra

Пол: Пол:Муж

Стаж: 4 года

Сообщений: 80

Украина
Рейтинг

post 18-Дек-2012 15:50 (спустя 19 часов) [-]2[+]

[Цитировать] 

Спасибо, ща ребенок заценит!
info [Профиль]  [ЛС] 

post 02-Апр-2013 10:46 (спустя 3 месяца 14 дней) [-]0[+]

Топик был перенесен из форума Rips в форум Зарубежные полнометражные мультфильмы

chingis
 
Показать сообщения:    
Ответить на тему

Текущее время: 11-Дек 15:56

Часовой пояс: GMT + 4



Вы не можете начинать темы
Вы не можете отвечать на сообщения
Вы не можете редактировать свои сообщения
Вы не можете удалять свои сообщения
Вы не можете голосовать в опросах
Вы не можете прикреплять файлы к сообщениям
Вы не можете скачивать файлы