Ошибка

Феи: Тайна зимнего леса / Secret of the Wings (Роберт Ганнавей\Roberts Gannaway, Пегги Холмс\Peggy Holmes) [2012 г., мультфильм, фэнтези, семейный,HDRip-AVC]

Ответить на тему
 
Автор Сообщение

NINJA_MASTER

Пол: Пол:Муж

Стаж: 6 лет 4 месяца

Сообщений: 276

Россия
Рейтинг

post 03-Дек-2012 00:41 0[+]

[Цитировать] 

Феи: Тайна зимнего леса / Secret of the Wings

Год выпуска: 2012
Страна: США, Walt Disney
Жанр: мультфильм, фэнтези, семейный
Продолжительность: 01:15:04
Перевод: Любительский (многоголосый, закадровый) [Русский]
Перевод 2: Профессиональный (многоголосый, дублированный) [Украинский]
Оригинальный аудиопоток: английский

Язык субтитров: английские, французские,румынские,немецкие,греческие, испанские
Режиссер:
  • Роберт Ганнавей\Roberts Gannaway, Пегги Холмс\Peggy Holmes


В ролях:
  • Тимоти Далтон, Люси Хейл, Меган Хилти, Анжелика Хьюстон, Мэтт Лантер, Джесси МакКартни, Мэй Уитман, Люси Лью, Рэйвен, Дебби Райан


Описание: Динь-Динь и ее подруги всегда боялись пересекать границу с Зимним лесом, ведь существует поверье, что там очень опасно. В один прекрасный день Динь-Динь, сгорая от любопытства, подходит вплотную к лесу, и ее крылья неожиданно начинают блестеть и переливаться. Завороженная Динь, желая узнать тайну волшебных крыльев, кутается в теплое пальто и отправляется в глубь таинственного леса, где ее ждет неожиданное открытие.

Качество: HDRip-AVC
Формат: MKV
Видео кодек: H.264
Аудио кодек: AC3
Видео: MPEG4 Video (H264), 1024x576, 23,98fps, 2370 Kbps
Аудио: AC3, 48000Hz, 6ch, 384 Kbps [Russian, Любительский многоголосый (Audio 1)]
Аудио #2: AC3, 48000Hz, 6ch, 384 Kbps [English, Оригинал (Audio 2)]
Аудио #3: AC3, 48000Hz, stereo, 192 Kbps [Ukrainian, Украинский (дублированный) (Audio 3)]

Cубтитры: английские, французские,румынские,немецкие,греческие, испанские
Формат субтитров: softsub (UTF)

General
Unique ID : 201440184246285191164736992376755049542 (0x978BF7E17A84F09B8DFCC092F517D446)
Complete name : D:\Fei.Tayna.zimnego.lesa.2012.x264.HDRip.(AVC).mkv
Format : Matroska
File size : 1.75 GiB
Duration : 1h 15mn
Overall bit rate : 3 334 Kbps
Encoded date : UTC 2012-11-04 19:54:48
Writing application : mkvmerge v2.1.0 ('Another Place To Fall') built on Aug 19 2007 13:40:07
Writing library : libebml v0.7.7 + libmatroska v0.8.1

Video
ID : 1
Format : AVC
Format/Info : Advanced Video Codec
Format profile : High@L4.1
Format settings, CABAC : Yes
Format settings, ReFrames : 8 frames
Codec ID : V_MPEG4/ISO/AVC
Duration : 1h 15mn
Bit rate : 2 370 Kbps
Width : 1 024 pixels
Height : 576 pixels
Display aspect ratio : 16:9
Frame rate : 23.976 fps
Color space : YUV
Chroma subsampling : 4:2:0
Bit depth : 8 bits
Scan type : Progressive
Bits/(Pixel*Frame) : 0.168
Stream size : 1.21 GiB (69%)
Writing library : x264 core 115 r1937 aa21558
Encoding settings : cabac=1 / ref=8 / deblock=1:-2:-2 / analyse=0x3:0x113 / me=umh / subme=8 / psy=1 / psy_rd=1.00:0.10 / mixed_ref=0 / me_range=32 / chroma_me=1 / trellis=2 / 8x8dct=1 / cqm=0 / deadzone=21,11 / fast_pskip=1 / chroma_qp_offset=-3 / threads=6 / sliced_threads=0 / nr=0 / decimate=1 / interlaced=0 / bluray_compat=0 / constrained_intra=0 / bframes=8 / b_pyramid=2 / b_adapt=2 / b_bias=0 / direct=3 / weightb=1 / open_gop=0 / weightp=0 / keyint=250 / keyint_min=23 / scenecut=40 / intra_refresh=0 / rc_lookahead=30 / rc=2pass / mbtree=1 / bitrate=2370 / ratetol=1.0 / qcomp=0.60 / qpmin=15 / qpmax=47 / qpstep=3 / cplxblur=20.0 / qblur=0.5 / ip_ratio=1.40 / aq=1:1.10
Language : English

Audio #1
ID : 2
Format : AC-3
Format/Info : Audio Coding 3
Mode extension : CM (complete main)
Codec ID : A_AC3
Duration : 1h 15mn
Bit rate mode : Constant
Bit rate : 384 Kbps
Channel(s) : 6 channels
Channel positions : Front: L C R, Side: L R, LFE
Sampling rate : 48.0 KHz
Bit depth : 16 bits
Compression mode : Lossy
Stream size : 206 MiB (12%)
Title : Любительский многоголосый
Language : Russian

Audio #2
ID : 3
Format : AC-3
Format/Info : Audio Coding 3
Mode extension : CM (complete main)
Codec ID : A_AC3
Duration : 1h 15mn
Bit rate mode : Constant
Bit rate : 384 Kbps
Channel(s) : 6 channels
Channel positions : Front: L C R, Side: L R, LFE
Sampling rate : 48.0 KHz
Bit depth : 16 bits
Compression mode : Lossy
Stream size : 206 MiB (12%)
Title : Оригинал
Language : English

Audio #3
ID : 4
Format : AC-3
Format/Info : Audio Coding 3
Mode extension : CM (complete main)
Codec ID : A_AC3
Duration : 1h 15mn
Bit rate mode : Constant
Bit rate : 192 Kbps
Channel(s) : 2 channels
Channel positions : Front: L R
Sampling rate : 48.0 KHz
Bit depth : 16 bits
Compression mode : Lossy
Stream size : 103 MiB (6%)
Title : Украинский (дублированный)
Language : Ukrainian

Text #1
ID : 5
Format : UTF-8
Codec ID : S_TEXT/UTF8
Codec ID/Info : UTF-8 Plain Text
Title : Английские
Language : English

Text #2
ID : 6
Format : UTF-8
Codec ID : S_TEXT/UTF8
Codec ID/Info : UTF-8 Plain Text
Title : Английские
Language : English

Text #3
ID : 7
Format : UTF-8
Codec ID : S_TEXT/UTF8
Codec ID/Info : UTF-8 Plain Text
Title : Французские
Language : French

Text #4
ID : 8
Format : UTF-8
Codec ID : S_TEXT/UTF8
Codec ID/Info : UTF-8 Plain Text
Title : Испанские
Language : Spanish

Text #5
ID : 9
Format : UTF-8
Codec ID : S_TEXT/UTF8
Codec ID/Info : UTF-8 Plain Text
Title : Греческие
Language : Greek

Text #6
ID : 10
Format : UTF-8
Codec ID : S_TEXT/UTF8
Codec ID/Info : UTF-8 Plain Text
Title : Германские
Language : German

Text #7
ID : 11
Format : UTF-8
Codec ID : S_TEXT/UTF8
Codec ID/Info : UTF-8 Plain Text
Title : Румынские
Language : Romanian

Menu
00:00:00.000 : en:00:00:00.000 / en:00:00:00.000
00:05:53.019 : en:00:05:53.019 / en:00:05:53.019
00:09:04.627 : en:00:09:04.627 / en:00:09:04.627
00:14:10.516 : en:00:14:10.516 / en:00:14:10.516
00:20:32.481 : en:00:20:32.481 / en:00:20:32.481
00:28:17.404 : en:00:28:17.404 / en:00:28:17.404
00:34:46.209 : en:00:34:46.209 / en:00:34:46.209
00:40:26.466 : en:00:40:26.466 / en:00:40:26.466
00:48:07.134 : en:00:48:07.134 / en:00:48:07.134
00:53:50.686 : en:00:53:50.686 / en:00:53:50.686
01:00:37.175 : en:01:00:37.175 / en:01:00:37.175
01:07:47.563 : en:01:07:47.563 / en:01:07:47.563

info [Профиль]  [ЛС] 

Zerl1k

Пол: Пол:Муж

Стаж: 4 года 6 месяцев

Сообщений: 114

Россия
Рейтинг

post 04-Дек-2012 13:38 (спустя 1 день 12 часов) [-]-5[+]

[Цитировать] 

NINJA_MASTER
в шабке укажите что это AVC
info [Профиль]  [ЛС] 

AlexFormula

Пол: Пол:Муж

Стаж: 7 лет 8 месяцев

Сообщений: 16621

Рейтинг

post 05-Дек-2012 16:30 (спустя 1 день 2 часа) [-]0[+]

[Цитировать] 

Так в случае с украинским переводом...это закадровый или дубляж?
info [Профиль]  [ЛС] 

NINJA_MASTER

Пол: Пол:Муж

Стаж: 6 лет 4 месяца

Сообщений: 276

Россия
Рейтинг

post 05-Дек-2012 16:58 (спустя 27 минут) [-]0[+]

[Цитировать] 

Formula писал(а):

Так в случае с украинским переводом...это закадровый или дубляж?
Это дубляж.
info [Профиль]  [ЛС] 

ffs2001

Стаж: 5 лет 1 месяц

Сообщений: 37

Рейтинг

post 06-Дек-2012 13:58 (спустя 21 час) [-]0[+]

[Цитировать] 

У ГГ совершенно неприличные ляхи.

Раздающему спасибо.
info [Профиль]  [ЛС] 

zeraf

Пол: Пол:Муж

Стаж: 7 лет 2 месяца

Сообщений: 406

Латвия
Рейтинг

post 06-Дек-2012 20:54 (спустя 6 часов) [-]2[+]

[Цитировать] 

а чего, правильно. те кто смотрели питера пена в детстве уже выросли. а историю продолжать надо. вот им и подают теперь динь-динь, для удовлетворения потребностей. отличный ход дисней)))
info [Профиль]  [ЛС] 

post 17-Мар-2013 16:19 (спустя 3 месяца 10 дней) [-]0[+]

Топик был перенесен из форума Rips в форум Зарубежные полнометражные мультфильмы

chingis
 
Показать сообщения:    
Ответить на тему

Текущее время: 07-Дек 22:26

Часовой пояс: GMT + 4



Вы не можете начинать темы
Вы не можете отвечать на сообщения
Вы не можете редактировать свои сообщения
Вы не можете удалять свои сообщения
Вы не можете голосовать в опросах
Вы не можете прикреплять файлы к сообщениям
Вы не можете скачивать файлы