Ошибка

Лицо со шрамом / Scarface (Брайан Де Пальма) [1983 г., Триллер, драма, криминал, BDRemux 1080p]

Ответить на тему
 
Автор Сообщение

Vzvilin

Стаж: 4 года 1 месяц

Сообщений: 3

Рейтинг

post 17-Ноя-2012 09:09 4[+]

[Цитировать] 

Лицо со шрамом / Scarface

Год выпуска: 1983
Страна: США
Жанр: Триллер, драма, криминал
Продолжительность: 02:50:00

Режиссёр: Брайан Де Пальма

В ролях: Аль Пачино, Стивен Бауэр, Мишель Пфайффер, Мэри Элизабет Мастрантонио, Роберт Лоджа, Мириам Колон, Ф. Мюррэй Абрахам, Пол Шенар, Харрис Юлин, Анхель Салазар и др.

Перевод: Профессиональный (многоголосый закадровый), Авторский

Описание:

Весной 1980 года был открыт порт Мэйриэл Харбор, и тысячи кубинских беженцев ринулись в Соединенные Штаты на поиски Американской Мечты. Один из них нашел ее на залитых солнцем улицах Майами. Богатство, власть и страсть превзошли даже самые невероятные его мечты. Его звали Тони Монтана. Мир запомнил его под другим именем — «Лицо со шрамом»…

Технические параметры:

Качество: Blu-Ray Remux
Формат: MKV
Видео кодек: Vc-1
Аудио кодек: DTS
Видео: 1920x1080, 19159 kbps, 23.976 fps

Звук:

Аудио 1: Russian: MVO; DTS 5.1 48 KHz ~1510 kbps [Позитив-Мультимедиа]
Аудио 2: Russian: AVO; DTS 5.1 48 KHz ~755 kbps [Строев]

Аудио 3: English: DTS-HD Master Audio 7.1 48 KHz 24-bit ~5682 kbps (DTS-ES Core 5.1 48 KHz 24-bit ~1510 kbps)
Аудио 4: English: DTS 2.0 48 KHz ~755 kbps

Субтитры: Формат: Stivvie (.srt), English - forced, eng, SDH (.srt / .sup)
Format : Matroska
Format version : Version 2
File size : 33.1 GiB
Duration : 2h 50mn
Overall bit rate mode : Variable
Overall bit rate : 27.9 Mbps
Encoded date : UTC 2012-03-17 01:59:43
Writing application : mkvmerge v5.4.0 ('Piper') built on Mar 10 2012 13:34:39
Writing library : libebml v1.2.3 + libmatroska v1.3.0

Video
ID : 1
Format : VC-1
Format profile : Advanced@L3
Codec ID : V_MS/VFW/FOURCC / WVC1
Codec ID/Hint : Microsoft
Duration : 2h 50mn
Bit rate : 21.6 Mbps
Width : 1 920 pixels
Height : 1 080 pixels
Display aspect ratio : 16:9
Frame rate mode : Constant
Frame rate : 23.976 fps
Chroma subsampling : 4:2:0
Bit depth : 8 bits
Scan type : Progressive
Compression mode : Lossy
Bits/(Pixel*Frame) : 0.435
Stream size : 25.7 GiB (78%)
Title : Scarface ~19159 kbps
Language : English
Default : No
Forced : No

Audio #1
ID : 2
Format : DTS
Format/Info : Digital Theater Systems
Codec ID : A_DTS
Duration : 2h 50mn
Bit rate mode : Constant
Bit rate : 1 510 Kbps
Channel(s) : 6 channels
Channel positions : Front: L C R, Side: L R, LFE
Sampling rate : 48.0 KHz
Bit depth : 24 bits
Compression mode : Lossy
Stream size : 1.79 GiB (5%)
Title : MVO; DTS 5.1 ~1510 kbps 48 kHz [Positive-Multimedia]
Language : Russian
Default : No
Forced : No

Audio #2
ID : 3
Format : DTS
Format/Info : Digital Theater Systems
Codec ID : A_DTS
Duration : 2h 50mn
Bit rate mode : Constant
Bit rate : 755 Kbps
Channel(s) : 6 channels
Channel positions : Front: L C R, Side: L R, LFE
Sampling rate : 48.0 KHz
Bit depth : 24 bits
Compression mode : Lossy
Stream size : 917 MiB (3%)
Title : AVO; DTS 5.1 ~755 kbps 48 kHz [Stroev]
Language : Russian
Default : No
Forced : No

Audio #3
ID : 4
Format : DTS
Format/Info : Digital Theater Systems
Format profile : MA / Core
Codec ID : A_DTS
Duration : 2h 50mn
Bit rate mode : Variable
Bit rate : 2 701 Kbps / 1 510 Kbps
Channel(s) : 8 channels / 6 channels
Channel positions : Front: L C R, Side: L R, Back: L R, LFE / Front: L C R, Side: L R, LFE
Sampling rate : 48.0 KHz
Bit depth : 24 bits
Compression mode : Lossless / Lossy
Title : DTS-HD Master Audio 7.1 ~5682 kbps 48 kHz 24-bit (DTS-ES Core 5.1 ~1510 kbps 48 kHz 24-bit)
Language : English
Default : No
Forced : No

Audio #4
ID : 5
Format : DTS
Format/Info : Digital Theater Systems
Codec ID : A_DTS
Duration : 2h 50mn
Bit rate mode : Constant
Bit rate : 755 Kbps
Channel(s) : 2 channels
Channel positions : Front: L R
Sampling rate : 48.0 KHz
Bit depth : 24 bits
Compression mode : Lossy
Stream size : 917 MiB (3%)
Title : DTS 2.0 ~755 kbps
Language : English
Default : No
Forced : No

Text #1
ID : 6
Format : UTF-8
Codec ID : S_TEXT/UTF8
Codec ID/Info : UTF-8 Plain Text
Title : Stevvie
Language : Russian
Default : No
Forced : No

Text #2
ID : 7
Format : UTF-8
Codec ID : S_TEXT/UTF8
Codec ID/Info : UTF-8 Plain Text
Title : forced
Language : English
Default : No
Forced : No

Text #3
ID : 8
Format : UTF-8
Codec ID : S_TEXT/UTF8
Codec ID/Info : UTF-8 Plain Text
Language : English
Default : No
Forced : No

Text #4
ID : 9
Format : UTF-8
Codec ID : S_TEXT/UTF8
Codec ID/Info : UTF-8 Plain Text
Title : SDH
Language : English
Default : No
Forced : No

Text #5
ID : 10
Format : PGS
Muxing mode : zlib
Codec ID : S_HDMV/PGS
Codec ID/Info : The same subtitle format used on BDs/HD-DVDs
Title : Commentaries; (.sup) PGS
Language : Russian
Default : No
Forced : No

Text #6
ID : 11
Format : PGS
Muxing mode : zlib
Codec ID : S_HDMV/PGS
Codec ID/Info : The same subtitle format used on BDs/HD-DVDs
Title : forced; (.sup) PGS
Language : English
Default : No
Forced : No

Text #7
ID : 12
Format : PGS
Muxing mode : zlib
Codec ID : S_HDMV/PGS
Codec ID/Info : The same subtitle format used on BDs/HD-DVDs
Title : SDH; (.sup) PGS
Language : English
Default : No
Forced : No

Text #8
ID : 13
Format : PGS
Muxing mode : zlib
Codec ID : S_HDMV/PGS
Codec ID/Info : The same subtitle format used on BDs/HD-DVDs
Title : Commentaries; (.sup) PGS
Language : English
Default : No
Forced : No

Menu
00:00:00.000 : :A Politcal Prisoner (Main Titles)
00:08:11.574 : :Freedom Town
00:10:55.238 : :A Killing for a Green Card
00:13:40.194 : :The Good Life
00:15:43.025 : :A New Job
00:20:58.299 : :Colombians and Chain Saws
00:29:51.289 : :Mr. Lopez
00:33:09.362 : :Elvira
00:34:42.539 : :A Night in Babylon
00:43:13.174 : :How to Pick Up Girls
00:46:46.053 : :Going in Style
00:50:45.251 : :The Prodigal Returns
00:59:02.706 : :The Drug Lord
01:04:15.643 : :Revenge
01:08:20.471 : :Serious Money
01:12:57.540 : :A Proposal
01:17:17.842 : :Shakedown
01:23:33.133 : :Brothery Love
01:28:48.323 : :Two Guns for Tony
01:33:44.244 : :A Hostile Takeover
01:43:31.497 : :Prosperity
01:47:01.707 : :Laundry Bills
01:51:48.410 : :Philosophy in the Bathtub
01:57:19.991 : :The Cost of Doing Business
02:02:43.106 : :Problems and Solutions
02:07:08.204 : :Dinner Conversation
02:13:58.405 : :Prelude to Murder
02:16:04.448 : :No Women and Children
02:21:46.081 : :Severing Business Ties
02:24:22.779 : :The End of the Honeymoon
02:30:37.862 : :Preparing for War
02:35:14.889 : :Gina's Offering
02:37:33.069 : :Siege
02:40:04.303 : :Montana's Last Stand
02:43:21.000 : :End Titles
info [Профиль]  [ЛС] 
Показать сообщения:    
Ответить на тему

Текущее время: 05-Дек 00:23

Часовой пояс: GMT + 4



Вы не можете начинать темы
Вы не можете отвечать на сообщения
Вы не можете редактировать свои сообщения
Вы не можете удалять свои сообщения
Вы не можете голосовать в опросах
Вы не можете прикреплять файлы к сообщениям
Вы не можете скачивать файлы