Ошибка

Храбрая сердцем / Brave (Марк Эндрюс, Бренда Чэпман, Стив Пурселл) [2012 г., мультфильм, фэнтези, комедия, приключения, семейный, DVB]

Ответить на тему
 
Автор Сообщение

Progum

Пол: Пол:Муж

Стаж: 6 лет 8 месяцев

Сообщений: 389

Предупреждений: 1

СССР
Рейтинг

post 31-Окт-2012 10:45 3[+]

[Цитировать] 

Храбрая сердцем / Brave
«Измените свою судьбу.»

Год выпуска: 2012
Страна: США / Walt Disney Pictures
Жанр: мультфильм, фэнтези, комедия, приключения, семейный
Продолжительность: 01:30:12
Перевод: Профессиональный (полное дублирование)[HTB+]

Режиссер: Марк Эндрюс, Бренда Чэпман, Стив Пурселл

В ролях: Робби Колтрейн, Келли Макдоналд, Эмма Томпсон, Джули Уолтерс, Кевин МакКидд, Крэйг Фергюсон, Билли Коннолли

Испокон веков мифы и легенды окутывают загадочной пеленой живописные отроги Шотландских гор. Искусной лучнице Мериде приходится выбирать свой путь в жизни самостоятельно, и однажды она отказывается следовать древним традициям королевства, бросая вызов могущественным шотландским кланам и их предводителям: нескладному лорду МакГаффину, угрюмому лорду Макинтошу и сварливому лорду Дингволлу. Неосторожные поступки Мериды грозят повергнуть королевство в хаос, и тогда она отправляется за советом к эксцентричной отшельнице, которая вместо помощи накладывает на Мериду опасное заклятье. Юной принцессе предстоит полагаться только на собственную храбрость, чтобы преодолеть могущественное волшебство и победить самого страшного зверя из тех, что водятся в горных долинах.

Доп.Информация:


Качество: DVB
Формат: MPG
Видео кодек: MPEG-TS
Аудио кодек: AC3
Видео: 720x576@1024x576, 25 fps, 3088 kbps
Аудио: AC3, 48 KHz, 6 ch, 384 kbps
Video
ID : 4113 (0x1011)
Menu ID : 1 (0x1)
Format : MPEG Video
Format version : Version 2
Format profile : Main@Main
Format settings, BVOP : Yes
Format settings, Matrix : Custom
Format settings, GOP : M=3, N=15
Codec ID : 2
Duration : 1h 30mn
Bit rate mode : Variable
Bit rate : 3 088 Kbps
Maximum bit rate : 15.0 Mbps
Width : 720 pixels
Height : 576 pixels
Display aspect ratio : 16:9
Frame rate : 25.000 fps
Standard : PAL
Color space : YUV
Chroma subsampling : 4:2:0
Bit depth : 8 bits
Scan type : Progressive
Scan order : Top Field First
Compression mode : Lossy
Bits/(Pixel*Frame) : 0.298
Stream size : 1.95 GiB (84%)

Audio
ID : 4352 (0x1100)
Menu ID : 1 (0x1)
Format : AC-3
Format/Info : Audio Coding 3
Mode extension : CM (complete main)
Codec ID : 129
Duration : 1h 30mn
Bit rate mode : Constant
Bit rate : 384 Kbps
Channel(s) : 6 channels
Channel positions : Front: L C R, Side: L R, LFE
Sampling rate : 48.0 KHz
Bit depth : 16 bits
Compression mode : Lossy
Delay relative to video : 6ms
Stream size : 248 MiB (10%)
Language : Russian

Releases by Progum
info [Профиль]  [ЛС] 

Crazy Panda

Пол: Пол:Муж

Стаж: 7 лет 2 месяца

Сообщений: 343

Россия
Рейтинг

post 31-Окт-2012 14:51 (спустя 4 часа) [-]0[+]

[Цитировать] 

Спасибо большое.
info [Профиль]  [ЛС] 

maximmx

Пол: Пол:Муж

Стаж: 6 лет 8 месяцев

Сообщений: 7

Израиль
Рейтинг

post 31-Окт-2012 15:42 (спустя 50 минут) [-]0[+]

[Цитировать] 

Ээх, надеялся, что в начале мультика покажут две короткометражки. Как это было в кинотеатре. Но тут только Храбрая сердцем.
Тем не менее, спасибо за релиз. Сестренка обрадуется!
info [Профиль]  [ЛС] 

Dart128

Пол: Пол:Муж

Стаж: 7 лет 8 месяцев

Сообщений: 2117

Рейтинг

post 31-Окт-2012 15:49 (спустя 7 минут) [-]1[+]

[Цитировать] 

maximmx
Короткометражки скорей всего будут на DVD и Blue-Ray.

_________________
Перед тем как что-то сделать, подумайте, а не противоречит ли это правилам!
info [Профиль]  [ЛС] 

cepbep

Пол: Пол:Муж

Стаж: 4 года 1 месяц

Сообщений: 9

Россия
Рейтинг

post 31-Окт-2012 17:07 (спустя 1 час 17 минут) [-]0[+]

[Цитировать] 

Не могу терпеть до релиза.Так что качаю.
info [Профиль]  [ЛС] 

MasJedl

Пол: Пол:Муж

Стаж: 7 лет 1 месяц

Сообщений: 21

Рейтинг

post 31-Окт-2012 18:14 (спустя 1 час 6 минут) [-]1[+]

[Цитировать] 

720x576@1024x576 это в смысли картинка немного растянута? не как оригинале, да?
info [Профиль]  [ЛС] 

minimalzka

Пол: Пол:Муж

Стаж: 4 года 1 месяц

Сообщений: 260

Россия
Рейтинг

post 31-Окт-2012 18:25 (спустя 10 минут) [-]0[+]

[Цитировать] 

автору Progum : Respekt i uvaghuha =)

_________________
info [Профиль]  [ЛС] 

rontus

Пол: Пол:Муж

Стаж: 6 лет 1 месяц

Сообщений: 46

СССР
Рейтинг

post 31-Окт-2012 18:26 (спустя 1 минута) [-]0[+]

[Цитировать] 

большое спасибо, сильно ждали

_________________
"Нравиться нужно себе, начальнику и сексуальному партнеру. Остальные пусть стараются понравится тебе."
Литвак М.Е.
info [Профиль]  [ЛС] 

casio81

Стаж: 4 года 1 месяц

Сообщений: 3

Предупреждений: 1

Россия
Рейтинг

post 31-Окт-2012 23:33 (спустя 5 часов) [-]0[+]

[Цитировать] 

1080I хочу, руки чешутся скачать, но подожду качества. Мульт классный.
info [Профиль]  [ЛС] 

ToroS

Пол: Пол:Муж

Стаж: 5 лет

Сообщений: 71

Россия
Рейтинг

post 01-Ноя-2012 19:53 (спустя 20 часов) [-]-1[+]

[Цитировать] 

скорости вообще нету(
info [Профиль]  [ЛС] 

Briga

Пол: Пол:Муж

Стаж: 6 лет 8 месяцев

Сообщений: 139

Зимбабве
Рейтинг

post 01-Ноя-2012 23:51 (спустя 3 часа) [-]0[+]

[Цитировать] 

эгоисты ,дайте скачать !
info [Профиль]  [ЛС] 
Показать сообщения:    
Ответить на тему

Текущее время: 03-Дек 10:55

Часовой пояс: GMT + 4



Вы не можете начинать темы
Вы не можете отвечать на сообщения
Вы не можете редактировать свои сообщения
Вы не можете удалять свои сообщения
Вы не можете голосовать в опросах
Вы не можете прикреплять файлы к сообщениям
Вы не можете скачивать файлы