Ошибка

Время приключений / Adventure Time / 2 сезон / 1-13 (13) (Пендлтон Ворд / Pendleton Ward) [2010 г., мультфильм, фэнтези, комедия, приключения, HDTVRip 720p]

Ответить на тему
 
Автор Сообщение

Ritsu

Пол: Пол:Муж

Стаж: 5 лет 5 месяцев

Сообщений: 856

Австралия
Рейтинг

post 28-Окт-2012 01:35 3[+]

[Цитировать] 

Время приключений

Оригинальное название: Adventure Time
Год выпуска: 2010
Страна: США
Жанр: мультфильм, фэнтези, комедия, приключения
Серия: Серия 1-13 из 13
Сезон: Второй
Продолжительность: 00:11:00
Перевод: Субтитры

Режиссер:
  • Пендлтон Ворд / Pendleton Ward
В ролях:
  • Джереми Шада
  • Джон Димаджио
  • Хинден Уолш
  • Том Кенни
  • Оливия Олсон

Описание:
Пора Приключений - американский анимационный сериал, созданный Пендлтоном Вордом. Сериал повествует о необыкновенных и весёлых приключениях двух лучших друзей: мальчика Финна и его собаки Джейка. Действие сериала происходит в волшебной стране Ууу. Финн - 13-летний мальчик, который обожает путешествовать и спасать принцесс из лап ужасных монстров и злодеев, населяющих Землю Ууу. Джейк - лучший друг Финна. Это волшебная собака со способностью растягивать своё тело до практически любых размеров и форм. Джейку 28 лет и он исполняет роль эдакого приятеля-наставника Финна, а его волшебные способности помогают мальчику в его борьбе со злом.




Качество: HDTVRip
Формат: MKV
Данные видео: AVC 1280x720 23.976fps ~1800Kbps avg
Данные аудио: AC-3 48000Hz 6ch 384Kbps [Cartoon Network]
1 It Came from the Nightosphere / The Eyes
2 Loyalty to the King / Blood Under the Skin
3 Storytelling / Slow Love
4 Power Animal / Crystals Have Power
5 The Other Tarts / To Cut a Woman's Hair
6 The Chamber of Frozen Blades / Her Parents
7 The Pods / The Silent King
8 The Real You / Guardians of Sunshine
9 Death in Bloom / Susan Strong
10 Mystery Train / Go With Me
11 Belly of the Beast / The Limit
12 Video Makers / Heat Signature
13 Mortal Folly / Mortal Recoil

General
Unique ID : 181064470135852667524705302230961288686 (0x8837BF9D0923FEDEB8E822C5BF4CF5EE)
Complete name : F:\Video\Cartoons\Adventure Time\S02E01a - It Came from the Nightosphere.mkv
Format : Matroska
File size : 166 MiB
Duration : 10mn 46s
Overall bit rate : 2 160 Kbps
Encoded date : UTC 2011-01-12 17:57:30
Writing application : mkvmerge v4.4.0 ('Die Wiederkehr') built on Oct 31 2010 21:52:48
Writing library : libebml v1.0.0 + libmatroska v1.0.0

Video
ID : 1
Format : AVC
Format/Info : Advanced Video Codec
Format profile : High@L5.1
Format settings, CABAC : Yes
Format settings, ReFrames : 4 frames
Codec ID : V_MPEG4/ISO/AVC
Duration : 10mn 46s
Bit rate : 1 800 Kbps
Width : 1 280 pixels
Height : 720 pixels
Display aspect ratio : 16:9
Frame rate : 23.976 fps
Color space : YUV
Chroma subsampling : 4:2:0
Bit depth : 8 bits
Scan type : Progressive
Bits/(Pixel*Frame) : 0.081
Stream size : 134 MiB (80%)
Title : Adventure Time - 201a - It Came from the Nightosphere {C_P} (720p)
Writing library : x264 core 98 r1649 20cbe10
Encoding settings : cabac=1 / ref=5 / deblock=1:0:0 / analyse=0x3:0x133 / me=hex / subme=7 / psy=1 / psy_rd=1.00:0.00 / mixed_ref=1 / me_range=16 / chroma_me=1 / trellis=1 / 8x8dct=1 / cqm=0 / deadzone=21,11 / fast_pskip=1 / chroma_qp_offset=-2 / threads=6 / sliced_threads=0 / nr=0 / decimate=1 / interlaced=0 / constrained_intra=0 / bframes=10 / b_pyramid=1 / b_adapt=1 / b_bias=0 / direct=1 / weightb=1 / weightp=2 / keyint=250 / keyint_min=25 / scenecut=40 / intra_refresh=0 / rc_lookahead=40 / rc=abr / mbtree=1 / bitrate=1800 / ratetol=1.0 / qcomp=0.60 / qpmin=10 / qpmax=51 / qpstep=4 / ip_ratio=1.40 / aq=1:1.00
Language : English

Audio
ID : 2
Format : AC-3
Format/Info : Audio Coding 3
Mode extension : CM (complete main)
Codec ID : A_AC3
Duration : 10mn 46s
Bit rate mode : Constant
Bit rate : 384 Kbps
Channel(s) : 6 channel 63
Channel positions : Front: L C R, Side: L R, LFE
Sampling rate : 48.0 KHz
Bit depth : 16 bits
Compression mode : Lossy
Delay relative to video : 9ms
Stream size : 29.6 MiB (18%)
Title : Encoded by iqe for #Cartoon_Palace on irc.cartoonpalace.info
Language : English
В интернете нету раздачи в хорошем качестве и с дуляжем. Но есть убогий ТВрип, который я скоро сюда запилю.
Я бы конечно мог снять звук с того шлака и приделать сюда, но после 2х часов сношения с этим у меня вышел весьма сомнительный продукт :3

info [Профиль]  [ЛС] 

Jan1tor

Пол: Пол:Муж

Стаж: 6 лет 2 месяца

Сообщений: 114

Россия
Рейтинг

post 29-Окт-2012 10:54 (спустя 1 день 9 часов) [-]3[+]

[Цитировать] 

Офигенно крутой сериал, всем советую kolob_117
info [Профиль]  [ЛС] 

brainman

Пол: Пол:Муж

Стаж: 6 лет 8 месяцев

Сообщений: 36

Предупреждений: 1

Россия
Рейтинг

post 29-Окт-2012 11:31 (спустя 37 минут) [-]0[+]

[Цитировать] 

Если хотите посмотреть с дубляжом, то на ТыТрубе есть:
http://www.youtube.com/playlist?list=PL71C2A5FDCE3EED28&feature=plcp
info [Профиль]  [ЛС] 

Jan1tor

Пол: Пол:Муж

Стаж: 6 лет 2 месяца

Сообщений: 114

Россия
Рейтинг

post 30-Окт-2012 17:16 (спустя 1 день 5 часов) [-]0[+]

[Цитировать] 

Кстати, по русскому CN показывают немного урезанную версию сериала (многих моментов нет) и если прикручивать дубляж к HD-рипу, то нужно оставлять на не переведенные места субтитры.
info [Профиль]  [ЛС] 

Ritsu

Пол: Пол:Муж

Стаж: 5 лет 5 месяцев

Сообщений: 856

Австралия
Рейтинг

post 31-Окт-2012 23:15 (спустя 1 день 5 часов) [-]1[+]

[Цитировать] 

Jan1tor писал(а):

и если прикручивать дубляж к HD-рипу, то нужно оставлять на не переведенные места субтитры.
Вот с этим я тоже столкнулся, когда пытался совершить данное действие :3

_________________
Флудите вместе с Рицу и будет вам счастье! ^__^

"...Зажжем рок в этой дыре!.."
info [Профиль]  [ЛС] 

Aberfort

Пол: Пол:Муж

Стаж: 4 года 1 месяц

Сообщений: 95

Рейтинг

post 29-Окт-2014 22:43 (спустя 1 год 11 месяцев) [-]1[+]

[Цитировать] 

А что в сабже особенного хочется узнать мнение взрослых ) а то чадо без ума от него , приходится самому смотреть ..
info [Профиль]  [ЛС] 
Показать сообщения:    
Ответить на тему

Текущее время: 09-Дек 21:29

Часовой пояс: GMT + 4



Вы не можете начинать темы
Вы не можете отвечать на сообщения
Вы не можете редактировать свои сообщения
Вы не можете удалять свои сообщения
Вы не можете голосовать в опросах
Вы не можете прикреплять файлы к сообщениям
Вы не можете скачивать файлы