Ошибка

Ледниковый период 4: Континентальный дрейф / Ice Age: Continental Drift (Стив Мартино, Майк Тёрмайер) [2012 г., Мультфильм, комедия, приключения, семейный, BDRip-AVC]

Ответить на тему
 
Автор Сообщение

L

Пол: Пол:Муж

Стаж: 6 лет 8 месяцев

Сообщений: 10835

Украина
Рейтинг

post 14-Окт-2012 20:46 2[+]

[Цитировать] 



Ледниковый период 4: Континентальный дрейф
Ice Age: Continental Drift
Год выпуска: 2012
Страна: США / Blue Sky Studios
Жанр: Мультфильм, комедия, приключения, семейный
Продолжительность: 01:27:45
Перевод: Профессиональный (полное дублирование) "чистый звук"
Субтитры: нет
Навигация по главам: есть

Режиссер: Стив Мартино, Майк Трумейер
В ролях: Рэй Романо, Джон Легуизамо, Куин Латифа, Дэнис Лири, Джош Пек, Азиз Ансари, Джой Бехар, Кристофер Кэмпбелл, Ален Шаба, Эстер Дин
Роли дублировали: Степан Старчико (Manny), Антон Комолов (Sid), Ольга Шелест (Ellie), Александр Груздев (Diego), Иван Охлобыстин (Captain Gutt), Вероника Саркисова (Peaches), Альбина Джанабаева (Shira), Александр Невский (Flynn)

Описание: После приключений под землей прошло семь лет. Случился дрейф континентов. Главные герои мультфильма, отделённые от стада, вынуждены использовать айсберг в качестве плота. Они пересекают океан и попадают в неизвестные им ранее земли с экзотическими животными и пиратами, враждебно настроенными к ним. Скрэту удаётся получить свой жёлудь, но он перемещается в новые для него земли.

| |

Раздача от:
Автор рипа: ]L
Исходник: Ice.Age.Continental.Drift.2012.1080p.AVC.DTS-HD.MA.7.1-3LT0N

Качество: BDRip-AVC
Контейнер: MKV
Видео: AVC / High@L4.1 / 1032 x 430 / 1 929 Kbps / 2.40:1
Аудио:
48 kHz, AC3, 3/2 (L,C,R,l,r) + LFE ch, ~448.00 kbps avg - профессиональный (дублированный)
Главы: как на BD, 25 шт.


• Главный злодей капитан Гад — это гигантопитек (доисторический орангутанг).
• Джереми Реннер должен был участвовать в мультфильме, но покинул проект из-за несогласованности расписаний съемок.
• По слухам, первоначальная версия сюжета включала в себя Мэнни, Сида, Диего, Элли и Белку замерзших во льдах и случайно размороженных в музее в наши дни. Фильм предположительно должен был называться «Ice Age: Th4w».

Код:

Общее
Уникальный идентификатор         : 213530081329070648952147739923872757210 (0xA0A465D3FC967A28BAEE1B02007435DA)
Полное имя                       : F:\RG25KADR\Lednikovyj.Period.4.Kontinentalnyj.Drejf.2012.BDRip.x264.ac3.RG.25.Kadr[by.L].mkv
Формат                           : Matroska
Версия формата                   : Version 2
Размер файла                     : 1,46 Гбайт
Продолжительность                : 1 ч. 28 м.
Общий поток                      : 2357 Кбит/сек
Название фильма                  : Ice Age: Continental Drift (2012) | RG 25 Kadr by L [unionpeer]
Дата кодирования                 : UTC 2012-10-14 06:34:15
Программа кодирования            : mkvmerge v3.2.0 ('Beginnings') built on Feb 12 2010 16:46:17
Библиотека кодирования           : libebml v0.7.9 + libmatroska v0.8.1

Видео
Идентификатор                    : 1
Формат                           : AVC
Формат/Информация                : Advanced Video Codec
Профиль формата                  : High@L4.1
Параметр CABAC формата           : Да
Параметр ReFrames формата        : 12 кадров
Идентификатор кодека             : V_MPEG4/ISO/AVC
Продолжительность                : 1 ч. 28 м.
Битрейт                          : 1929 Кбит/сек
Ширина                           : 1032 пикселя
Высота                           : 430 пикселей
Соотношение сторон               : 2,40:1
Частота кадров                   : 23,976 кадра/сек
Цветовое пространство            : YUV
Субдискретизация насыщенности    : 4:2:0
Битовая глубина                  : 8 бит
Тип развёртки                    : Прогрессивная
Бит/(Пиксели*Кадры)              : 0.181
Размер потока                    : 1,15 Гбайт (79%)
Библиотека кодирования           : x264 core 125 r2200 999b753
Настройки программы              : cabac=1 / ref=12 / deblock=1:1:1 / analyse=0x3:0x113 / me=umh / subme=11 / psy=1 / psy_rd=0.95:0.05 / mixed_ref=1 / me_range=32 / chroma_me=1 / trellis=2 / 8x8dct=1 / cqm=0 / deadzone=21,11 / fast_pskip=0 / chroma_qp_offset=-3 / threads=6 / lookahead_threads=1 / sliced_threads=0 / nr=0 / decimate=1 / interlaced=0 / bluray_compat=0 / constrained_intra=0 / bframes=8 / b_pyramid=2 / b_adapt=1 / b_bias=0 / direct=1 / weightb=1 / open_gop=0 / weightp=2 / keyint=240 / keyint_min=22 / scenecut=40 / intra_refresh=0 / rc=2pass / mbtree=0 / bitrate=1929 / ratetol=1.0 / qcomp=0.70 / qpmin=10 / qpmax=61 / qpstep=4 / cplxblur=20.0 / qblur=0.5 / ip_ratio=1.40 / pb_ratio=1.30 / aq=2:0.70
Язык                             : English
Default                          : Нет
Forced                           : Нет

Аудио
Идентификатор                    : 2
Формат                           : AC-3
Формат/Информация                : Audio Coding 3
Расширение режима                : CM (complete main)
Идентификатор кодека             : A_AC3
Продолжительность                : 1 ч. 28 м.
Вид битрейта                     : Постоянный
Битрейт                          : 448 Кбит/сек
Каналы                           : 6 каналов
Расположение каналов             : Front: L C R, Side: L R, LFE
Частота                          : 48,0 КГц
Битовая глубина                  : 16 бит
Метод сжатия                     : С потерями
Размер потока                    : 284 Мбайт (19%)
Заголовок                        : Дубляж
Язык                             : Russian
Default                          : Да
Forced                           : Нет

Меню
00:00:00.000                     : en:00:00:00.000
00:03:24.037                     : en:00:03:24.037
00:05:07.223                     : en:00:05:07.223
00:09:33.406                     : en:00:09:33.406
00:13:08.704                     : en:00:13:08.704
00:15:55.329                     : en:00:15:55.329
00:18:22.643                     : en:00:18:22.643
00:22:23.717                     : en:00:22:23.717
00:25:56.555                     : en:00:25:56.555
00:29:17.964                     : en:00:29:17.964
00:32:57.600                     : en:00:32:57.600
00:36:14.380                     : en:00:36:14.380
00:38:41.652                     : en:00:38:41.652
00:43:48.709                     : en:00:43:48.709
00:45:29.643                     : en:00:45:29.643
00:49:38.976                     : en:00:49:38.976
00:53:49.476                     : en:00:53:49.476
00:57:22.856                     : en:00:57:22.856
01:02:31.038                     : en:01:02:31.038
01:08:08.334                     : en:01:08:08.334
01:11:10.474                     : en:01:11:10.474
01:13:14.640                     : en:01:13:14.640
01:16:53.400                     : en:01:16:53.400
01:19:23.633                     : en:01:19:23.633
01:27:45.051                     : en:01:27:45.051


info [Профиль]  [ЛС] 

Lazutchik-web

Пол: Пол:Жен

Стаж: 7 лет 8 месяцев

Сообщений: 778

Россия
Рейтинг

post 19-Окт-2012 15:40 (спустя 4 дня) [-]0[+]

[Цитировать] 

Спасибо, дождались лицухи наконец-то) Дети в восторге будут) anime_93 anime_93

_________________
info [Профиль]  [ЛС] 

L

Пол: Пол:Муж

Стаж: 6 лет 8 месяцев

Сообщений: 10835

Украина
Рейтинг

post 19-Окт-2012 20:23 (спустя 4 часа) [-]0[+]

[Цитировать] 

Цитата:

Перевод: Профессиональный (полное дублирование) "чистый звук"

_________________
info [Профиль]  [ЛС] 

nortan

Пол: Пол:Муж

Стаж: 4 года 1 месяц

Сообщений: 48

Украина
Рейтинг

post 21-Окт-2012 15:21 (спустя 1 день 18 часов) [-]0[+]

[Цитировать] 

Мульт неплохой как всегда интересный. На мой взгляд ледниковый период никогда не испортиться kolob_117 kolob_111
info [Профиль]  [ЛС] 

Ильья

Пол: Пол:Муж

Стаж: 7 лет 8 месяцев

Сообщений: 1668

Россия
Рейтинг

post 22-Окт-2012 18:38 (спустя 1 день 3 часа) [-]0[+]

[Цитировать] 

nortan писал(а):

На мой взгляд ледниковый период никогда не испортиться kolob_117 kolob_111
kolob_183
уважаемые, прошу вас, ну не позорьтесь... kolob_132
info [Профиль]  [ЛС] 

Briga

Пол: Пол:Муж

Стаж: 6 лет 9 месяцев

Сообщений: 139

Зимбабве
Рейтинг

post 24-Окт-2012 00:59 (спустя 1 день 6 часов) [-]5[+]

[Цитировать] 

Картавая обезьяна весь фильм испоганила.
info [Профиль]  [ЛС] 

BOSS116

Пол: Пол:Муж

Стаж: 4 года 1 месяц

Сообщений: 7

Украина
Рейтинг

post 25-Окт-2012 00:08 (спустя 23 часа) [-]0[+]

[Цитировать] 

Уже лицуха есть

_________________
info [Профиль]  [ЛС] 

L

Пол: Пол:Муж

Стаж: 6 лет 8 месяцев

Сообщений: 10835

Украина
Рейтинг

post 25-Окт-2012 07:36 (спустя 7 часов) [-]0[+]

[Цитировать] 

BOSS116
Я счастлив.

_________________
info [Профиль]  [ЛС] 

Slim

Пол: Пол:Муж

Стаж: 6 лет

Сообщений: 22

США
Рейтинг

post 31-Окт-2012 16:00 (спустя 6 дней) [-]1[+]

[Цитировать] 

Мульт отличный,впрочем меньшого я и неожидал kolob_111
info [Профиль]  [ЛС] 

post 19-Фев-2013 10:22 (спустя 3 месяца 18 дней) [-]0[+]

Топик был перенесен из форума Rips в форум Зарубежные полнометражные мультфильмы

chingis
 
Показать сообщения:    
Ответить на тему

Текущее время: 09-Дек 13:51

Часовой пояс: GMT + 4



Вы не можете начинать темы
Вы не можете отвечать на сообщения
Вы не можете редактировать свои сообщения
Вы не можете удалять свои сообщения
Вы не можете голосовать в опросах
Вы не можете прикреплять файлы к сообщениям
Вы не можете скачивать файлы