Ошибка

До окончания фрилича осталось:


Прометей 3D / Prometheus 3D (Ридли Скотт) [2012 г., ужасы, фантастика, боевик, Blu-ray Rip 3D]

Ответить на тему

Нужны ли подобные раздачи в 3D?

Да!   75%  75%  [ 135 ]
Нет!   24%  24%  [ 43 ]

Всего проголосовало : 178

 
Автор Сообщение

Towelie

Пол: Пол:Муж

Стаж: 6 лет 6 месяцев

Сообщений: 153

Россия
Рейтинг

post 02-Окт-2012 20:01 1[+]

[Цитировать] 

Прометей 3D / Prometheus 3D

Год выпуска: 2012
Страна: США
Жанр: ужасы, фантастика, боевик
Продолжительность: 02:03:46
Перевод: Профессиональный (полное дублирование)
Язык субтитров: русские/украинские

Режиссер:
  • Ридли Скотт


В ролях:
  • Нуми Рапас, Майкл Фассбендер, Шарлиз Терон, Идрис Эльба, Гай Пирс, Логан Маршалл-Грин, Шон Харрис, Рейф Сполл, Иман Эллиотт, Бенедикт Вонг


Описание: В поисках сакрального знания группа ученых отправляется в самые темные и неизведанные чертоги вселенной. Именно там, в отдаленных мирах, находясь на пределе своих умственных и физических возможностей, им предстоит вступить в безжалостную схватку за будущее всего человечества…



Качество: Blu-ray Rip
Формат: MKV
Формат 3D: Half SideBySide / Горизонтальная анаморфная стереопара
Порядок ракурсов: левый ракурс первый
Видео кодек: H.264
Аудио кодек: AC3
Видео: 1920x1080p / 23.976fps / 11000 kbps
Аудио 1: Русский / AC3 / 48000Hz / 5.1 ch / 640 Kbps
Аудио 2: Украинский / AC3 / 48000Hz / 5.1 ch / 448 Kbps
Аудио 3: Английский / AC3 / 48000Hz / 5.1 ch / 640 Kbps
Format : Matroska
File size : 10.9 GiB
Duration : 2h 3mn
Overall bit rate : 12.6 Mbps
Movie name : Prometheus 3D (2012)
Encoded date : UTC 2012-10-01 16:18:37
Writing application : mkvmerge v3.4.0 ('Rapunzel') сборка от May 15 2010 09:38:20
Writing library : libebml v0.8.0 + libmatroska v0.9.0

Video
ID : 1
Format : AVC
Format/Info : Advanced Video Codec
Format profile : High@L4.1
Format settings, CABAC : Yes
Format settings, ReFrames : 4 frames
Codec ID : V_MPEG4/ISO/AVC
Duration : 2h 3mn
Bit rate : 11.0 Mbps
Width : 1 920 pixels
Height : 1 080 pixels
Display aspect ratio : 16:9
Frame rate : 23.976 fps
Color space : YUV
Chroma subsampling : 4:2:0
Bit depth : 8 bits
Scan type : Progressive
Bits/(Pixel*Frame) : 0.221
Stream size : 9.17 GiB (84%)
Title : Prometheus 3D (2012)
Writing library : x264 core 120 r2146 bcd41db
Encoding settings : cabac=1 / ref=3 / deblock=1:0:0 / analyse=0x3:0x113 / me=hex / subme=7 / psy=1 / psy_rd=1.00:0.00 / mixed_ref=1 / me_range=16 / chroma_me=1 / trellis=1 / 8x8dct=1 / cqm=0 / deadzone=21,11 / fast_pskip=1 / chroma_qp_offset=-2 / threads=12 / sliced_threads=0 / nr=0 / decimate=1 / interlaced=0 / bluray_compat=0 / constrained_intra=0 / bframes=3 / b_pyramid=2 / b_adapt=1 / b_bias=0 / direct=1 / weightb=1 / open_gop=0 / weightp=2 / keyint=250 / keyint_min=23 / scenecut=40 / intra_refresh=0 / rc_lookahead=40 / rc=abr / mbtree=1 / bitrate=11000 / ratetol=1.0 / qcomp=0.60 / qpmin=0 / qpmax=69 / qpstep=4 / ip_ratio=1.40 / aq=1:1.00
Language : English

Audio #1
ID : 2
Format : AC-3
Format/Info : Audio Coding 3
Mode extension : CM (complete main)
Codec ID : A_AC3
Duration : 2h 3mn
Bit rate mode : Constant
Bit rate : 640 Kbps
Channel(s) : 6 channels
Channel positions : Front: L C R, Side: L R, LFE
Sampling rate : 48.0 KHz
Bit depth : 16 bits
Stream size : 567 MiB (5%)
Title : Русский Дубляж
Language : Russian

Audio #2
ID : 3
Format : AC-3
Format/Info : Audio Coding 3
Mode extension : CM (complete main)
Codec ID : A_AC3
Duration : 2h 3mn
Bit rate mode : Constant
Bit rate : 448 Kbps
Channel(s) : 6 channels
Channel positions : Front: L C R, Side: L R, LFE
Sampling rate : 48.0 KHz
Bit depth : 16 bits
Stream size : 397 MiB (4%)
Title : Украинский
Language : Ukrainian

Audio #3
ID : 4
Format : AC-3
Format/Info : Audio Coding 3
Mode extension : CM (complete main)
Codec ID : A_AC3
Duration : 2h 3mn
Bit rate mode : Constant
Bit rate : 640 Kbps
Channel(s) : 6 channels
Channel positions : Front: L C R, Side: L R, LFE
Sampling rate : 48.0 KHz
Bit depth : 16 bits
Stream size : 567 MiB (5%)
Language : English

Text #1
ID : 5
Format : UTF-8
Codec ID : S_TEXT/UTF8
Codec ID/Info : UTF-8 Plain Text
Language : Russian

Text #2
ID : 6
Format : UTF-8
Codec ID : S_TEXT/UTF8
Codec ID/Info : UTF-8 Plain Text
Language : Ukrainian
Внимание! Для воспроизведения данного контента требуется специальное оборудование с поддержкой 3D.
info [Профиль]  [ЛС] 

Turtle-a

Стаж: 7 лет 8 месяцев

Сообщений: 100

Рейтинг

post 03-Окт-2012 17:28 (спустя 21 час) [-]0[+]

[Цитировать] 

удаленные сцены есть ?
info [Профиль]  [ЛС] 

Turokt76

Пол: Пол:Муж

Стаж: 6 лет 11 месяцев

Сообщений: 599

Россия
Рейтинг

post 03-Окт-2012 18:00 (спустя 32 минуты) [-]0[+]

[Цитировать] 

ооо спасибо !
info [Профиль]  [ЛС] 

sarraf

Стаж: 7 лет 3 месяца

Сообщений: 28

Россия
Рейтинг

post 03-Окт-2012 18:42 (спустя 41 минута) [-]2[+]

[Цитировать] 

Когда же ждать режиссёрскую то....
info [Профиль]  [ЛС] 

Shoogo

Стаж: 7 лет 3 месяца

Сообщений: 264

Рейтинг

post 03-Окт-2012 21:02 (спустя 2 часа 20 минут) [-]1[+]

[Цитировать] 

Извините за оффтоп... А когда будет бд коллекционка с доп материалом на 7 часов?
info [Профиль]  [ЛС] 
Показать сообщения:    
Ответить на тему

Текущее время: 10-Дек 05:12

Часовой пояс: GMT + 4



Вы не можете начинать темы
Вы не можете отвечать на сообщения
Вы не можете редактировать свои сообщения
Вы не можете удалять свои сообщения
Вы не можете голосовать в опросах
Вы не можете прикреплять файлы к сообщениям
Вы не можете скачивать файлы