Ошибка

Легенда о динозаврах / March of the Dinosaurs (Мэттью Томпсон / Matthew Thompson) [2011, Великобритания, мультфильм, документальный, драма, BDRip 720p]

Ответить на тему
 
Автор Сообщение

HerHunG

Пол: Пол:Муж

Стаж: 4 года 4 месяца

Сообщений: 135

Казахстан
Рейтинг

post 22-Сен-2012 23:51 2[+]

[Цитировать] 

Легенда о динозаврах / March of the Dinosaurs
-

Год выпуска: 2011
Страна: Великобритания
Жанр: мультфильм, документальный, драма
Продолжительность: 01:28:59
Перевод: Одноголосый закадровый | [Лицензия]
Русские субтитры: нет
Режиссер: Мэттью Томпсон / Matthew Thompson
В ролях: Стивен Фрай
Описание:
Поход динозавров — это полуторачасовая история, рассказывающая о том, как несколько динозавров мелового периода мигрировали на сотни километров, к богатым пастбищам крайнего севера. В то же время, другие динозавры сделали север с его холодными, темными зимами своим постоянным домом. Фильм основан на реальных научных свидетельствах того, что некоторые динозавры мигрировали на огромные расстояния за пищей, пока другие постоянно проживали на севере Америки.

В этой анимационной картине показывается жизнь динозавров более 70 миллионов лет назад. Главные герои — два молодых динозавра, Скар — молодой эдмонтозавр-вегетарианец, вылупившийся весной, и Патч — молодой плотоядный самец трудона. Как хищник, Патч все лето питался детенышами эдмонтозавров. К несчастью для него, его любимая еда собирается вскоре пересилиться на юг. Трудоны, вроде Патча, способны выжить зимой, и в фильме показывается его жизнь на жестоком севере. Выживет только сильнейший и они сражаются за остатки пищи в постоянной темноте. Подойдут любые средства.

Скачать: Сэмпл
Качество: BDRip 720p
Формат: MKV
Видеокодек: AVC
Аудиокодек: AC3
Видео: 1280x720 at 23.976 fps, MPEG-4 AVC, ~3649 kbps avg
Аудио 1: Russian: 48 kHz, AC3, 3/2 (L,C,R,l,r) + LFE ch, ~448.00 kbps avg |Одноголосый закадровый, R5|
Аудио 2: English: 48 kHz, DTS, 3/2 (L,C,R,l,r) + LFE ch, ~1536.00 kbps avg |Original|
Субтитры: English
Релиз:
General
Unique ID : 176775275612472702350307379075571502510 (0x84FDADFF0BAB76E39538467F904BCDAE)
Complete name : Legenda.o.dinozavrah.2011.P.BDRip.720p.IRONCLUB.mkv
Format : Matroska
Format version : Version 2
File size : 3.56 GiB
Duration : 1h 29mn
Overall bit rate : 5 721 Kbps
Movie name : IRONCLUB
Encoded date : UTC 2012-09-22 17:23:52
Writing application : mkvmerge v4.9.1 ('Ich will') сборка от Jul 11 2011 23:53:15
Writing library : libebml v1.2.1 + libmatroska v1.1.1

Video
ID : 1
Format : AVC
Format/Info : Advanced Video Codec
Format profile : High@L4.1
Format settings, CABAC : Yes
Format settings, ReFrames : 5 frames
Codec ID : V_MPEG4/ISO/AVC
Duration : 1h 29mn
Bit rate : 3 649 Kbps
Nominal bit rate : 4 503 Kbps
Width : 1 280 pixels
Height : 720 pixels
Display aspect ratio : 16:9
Frame rate : 23.976 fps
Color space : YUV
Chroma subsampling : 4:2:0
Bit depth : 8 bits
Scan type : Progressive
Bits/(Pixel*Frame) : 0.165
Stream size : 2.27 GiB (64%)
Title : March.Of.The.Dinosaurs.2011.720p.BluRay.x264-7SinS
Writing library : x264 core 115 r2008 4c552d8
Encoding settings : cabac=1 / ref=5 / deblock=1:0:0 / analyse=0x3:0x133 / me=umh / subme=7 / psy=1 / psy_rd=1.00:0.00 / mixed_ref=1 / me_range=16 / chroma_me=1 / trellis=1 / 8x8dct=1 / cqm=0 / deadzone=21,11 / fast_pskip=0 / chroma_qp_offset=-2 / threads=12 / sliced_threads=0 / nr=0 / decimate=1 / interlaced=0 / bluray_compat=0 / constrained_intra=0 / bframes=3 / b_pyramid=2 / b_adapt=1 / b_bias=0 / direct=1 / weightb=1 / open_gop=0 / weightp=2 / keyint=250 / keyint_min=23 / scenecut=40 / intra_refresh=0 / rc_lookahead=40 / rc=2pass / mbtree=1 / bitrate=4503 / ratetol=1.0 / qcomp=0.60 / qpmin=0 / qpmax=69 / qpstep=4 / cplxblur=20.0 / qblur=0.5 / ip_ratio=1.40 / aq=1:1.00
Language : English
Default : Yes
Forced : Yes

Audio #1
ID : 2
Format : AC-3
Format/Info : Audio Coding 3
Mode extension : CM (complete main)
Format settings, Endianness : Big
Codec ID : A_AC3
Duration : 1h 29mn
Bit rate mode : Constant
Bit rate : 448 Kbps
Channel(s) : 6 channels
Channel positions : Front: L C R, Side: L R, LFE
Sampling rate : 48.0 KHz
Bit depth : 16 bits
Compression mode : Lossy
Stream size : 285 MiB (8%)
Title : DD 5.1 @ 448 - AVO, R5
Language : Russian
Default : Yes
Forced : Yes

Audio #2
ID : 3
Format : DTS
Format/Info : Digital Theater Systems
Codec ID : A_DTS
Duration : 1h 29mn
Bit rate mode : Constant
Bit rate : 1 510 Kbps
Channel(s) : 6 channels
Channel positions : Front: L C R, Side: L R, LFE
Sampling rate : 48.0 KHz
Bit depth : 24 bits
Compression mode : Lossy
Delay relative to video : 11ms
Stream size : 961 MiB (26%)
Title : DTS 5.1 @ 1536 kbps
Language : English
Default : No
Forced : No

Text
ID : 4
Format : UTF-8
Codec ID : S_TEXT/UTF8
Codec ID/Info : UTF-8 Plain Text
Language : English
Default : No
Forced : No
info [Профиль]  [ЛС] 

MeatMaker

Пол: Пол:Муж

Стаж: 6 лет 9 месяцев

Сообщений: 79

Рейтинг

post 23-Сен-2012 02:28 (спустя 2 часа 37 минут) [-]1[+]

[Цитировать] 

Цитата:

Трудоны
Тродоны
info [Профиль]  [ЛС] 

BlackSun_84

Пол: Пол:Муж

Стаж: 7 лет 2 месяца

Сообщений: 24

Рейтинг

post 23-Сен-2012 17:17 (спустя 14 часов) [-]0[+]

[Цитировать] 

А есть такой же, но в перламутровых пуговицах, в 1080р, хотябы BDRip?
info [Профиль]  [ЛС] 
Показать сообщения:    
Ответить на тему

Текущее время: 11-Дек 13:57

Часовой пояс: GMT + 4



Вы не можете начинать темы
Вы не можете отвечать на сообщения
Вы не можете редактировать свои сообщения
Вы не можете удалять свои сообщения
Вы не можете голосовать в опросах
Вы не можете прикреплять файлы к сообщениям
Вы не можете скачивать файлы