Ошибка

(Nu-Metal) Godsmack - Дискография (1997-2012), FLAC (tracks+.cue), lossless

Ответить на тему
 
Автор Сообщение

Raxent

Пол: Пол:Муж

Стаж: 6 лет 11 месяцев

Сообщений: 219

Рейтинг

post 02-Сен-2012 10:56 1[+]

[Цитировать] 

Godsmack

pic="http://i40.fastpic.ru/big/2012/0902/6e/5c42bf181ea5a34a9c8b47fc03f91f6e.jpg"

Жанр: Nu-Metal | Страна: United States (Lawrence, Massachusetts) | Год выпуска: 1997-2012
Аудио кодек: FLAC | Тип рипа: tracks+.cue | Битрейт аудио: lossless | Источник: What.CD
Продолжительность: 08:05:00

Studio Albums
01. Moonbaby (4:23)
02. Immune (4:48)
03. Time Bomb (3:57)
04. Keep Away (5:06)
05. Situation (5:31)
06. Stress (5:02)
07. Bad Religion (3:40)
08. Get Up, Get Out! (5:31)
09. Now or Never (5:05)
10. Going Down (3:30)
11. Voodoo (4:39)
12. Whatever (3:25)
 
X Lossless Decoder version 20090215 (100.1)

XLD extraction logfile from 2009-02-20 22:05:33 -0500

Godsmack / All Wound Up...

Used drive : MATSHITA DVD-R UJ-85J (revision FBZ8)

Use cdparanoia mode : YES (CDParanoia III 10.2 engine)
Disable audio cache : OK for the drive with cache less than 2750KB
Make use of C2 pointers : NO
Read offset correction : 102
Max retry count : 100

TOC of the extracted CD
Track | Start | Length | Start sector | End sector
---------------------------------------------------------
1 | 00:00:00 | 04:22:42 | 0 | 19691
2 | 04:22:42 | 04:47:63 | 19692 | 41279
3 | 09:10:30 | 03:56:47 | 41280 | 59026
4 | 13:07:02 | 05:06:13 | 59027 | 81989
5 | 18:13:15 | 05:31:17 | 81990 | 106831
6 | 23:44:32 | 05:02:35 | 106832 | 129516
7 | 28:46:67 | 03:39:48 | 129517 | 145989
8 | 32:26:40 | 05:30:40 | 145990 | 170779
9 | 37:57:05 | 05:04:52 | 170780 | 193631
10 | 43:01:57 | 03:29:60 | 193632 | 209366
11 | 46:31:42 | 04:39:03 | 209367 | 230294
12 | 51:10:45 | 03:25:10 | 230295 | 245679

Track 01
Filename : /Users/furntree/Desktop/All Wound Up [FLAC]/01 Godsmack - Moonbaby.flac

CRC32 hash (test run) : DE458B96
CRC32 hash : DE458B96
CRC32 hash (skip zero) : 41E08B0B
AccurateRip signature : F79497FA
->Track not present in AccurateRip database.
Statistics
Read error : 0
Skipped (treated as error) : 0
Edge jitter error (maybe fixed) : 0
Atom jitter error (maybe fixed) : 0
Drift error (maybe fixed) : 0
Dropped bytes error (maybe fixed) : 0
Duplicated bytes error (maybe fixed) : 0

Track 02
Filename : /Users/furntree/Desktop/All Wound Up [FLAC]/02 Godsmack - Immune.flac

CRC32 hash (test run) : C8C0C4A7
CRC32 hash : C8C0C4A7
CRC32 hash (skip zero) : 713635FB
AccurateRip signature : 9628DA1C
->Track not present in AccurateRip database.
Statistics
Read error : 0
Skipped (treated as error) : 0
Edge jitter error (maybe fixed) : 0
Atom jitter error (maybe fixed) : 0
Drift error (maybe fixed) : 0
Dropped bytes error (maybe fixed) : 0
Duplicated bytes error (maybe fixed) : 0

Track 03
Filename : /Users/furntree/Desktop/All Wound Up [FLAC]/03 Godsmack - Time Bomb.flac

CRC32 hash (test run) : A59E5E34
CRC32 hash : A59E5E34
CRC32 hash (skip zero) : ADB8F8C6
AccurateRip signature : 6190A626
->Track not present in AccurateRip database.
Statistics
Read error : 0
Skipped (treated as error) : 0
Edge jitter error (maybe fixed) : 0
Atom jitter error (maybe fixed) : 0
Drift error (maybe fixed) : 0
Dropped bytes error (maybe fixed) : 0
Duplicated bytes error (maybe fixed) : 0

Track 04
Filename : /Users/furntree/Desktop/All Wound Up [FLAC]/04 Godsmack - Keep Away.flac

CRC32 hash (test run) : 1F3E6141
CRC32 hash : 1F3E6141
CRC32 hash (skip zero) : 63EF997F
AccurateRip signature : 64FFBB5F
->Track not present in AccurateRip database.
Statistics
Read error : 0
Skipped (treated as error) : 0
Edge jitter error (maybe fixed) : 0
Atom jitter error (maybe fixed) : 0
Drift error (maybe fixed) : 0
Dropped bytes error (maybe fixed) : 0
Duplicated bytes error (maybe fixed) : 0

Track 05
Filename : /Users/furntree/Desktop/All Wound Up [FLAC]/05 Godsmack - Situation.flac

CRC32 hash (test run) : 56BA2B3A
CRC32 hash : 56BA2B3A
CRC32 hash (skip zero) : 3C58BABB
AccurateRip signature : 5A975592
->Track not present in AccurateRip database.
Statistics
Read error : 0
Skipped (treated as error) : 0
Edge jitter error (maybe fixed) : 0
Atom jitter error (maybe fixed) : 0
Drift error (maybe fixed) : 0
Dropped bytes error (maybe fixed) : 0
Duplicated bytes error (maybe fixed) : 0

Track 06
Filename : /Users/furntree/Desktop/All Wound Up [FLAC]/06 Godsmack - Stress.flac

CRC32 hash (test run) : E51F3B08
CRC32 hash : E51F3B08
CRC32 hash (skip zero) : 729D1814
AccurateRip signature : 7C9964B2
->Track not present in AccurateRip database.
Statistics
Read error : 0
Skipped (treated as error) : 0
Edge jitter error (maybe fixed) : 0
Atom jitter error (maybe fixed) : 0
Drift error (maybe fixed) : 0
Dropped bytes error (maybe fixed) : 0
Duplicated bytes error (maybe fixed) : 0

Track 07
Filename : /Users/furntree/Desktop/All Wound Up [FLAC]/07 Godsmack - Bad Religion.flac

CRC32 hash (test run) : B5EE3048
CRC32 hash : B5EE3048
CRC32 hash (skip zero) : 85EEDC4C
AccurateRip signature : DE8158D3
->Track not present in AccurateRip database.
Statistics
Read error : 0
Skipped (treated as error) : 0
Edge jitter error (maybe fixed) : 0
Atom jitter error (maybe fixed) : 0
Drift error (maybe fixed) : 0
Dropped bytes error (maybe fixed) : 0
Duplicated bytes error (maybe fixed) : 0

Track 08
Filename : /Users/furntree/Desktop/All Wound Up [FLAC]/08 Godsmack - Get Up, Get Out!.flac

CRC32 hash (test run) : EB17602E
CRC32 hash : EB17602E
CRC32 hash (skip zero) : FDB65AEB
AccurateRip signature : 7074C600
->Track not present in AccurateRip database.
Statistics
Read error : 0
Skipped (treated as error) : 0
Edge jitter error (maybe fixed) : 0
Atom jitter error (maybe fixed) : 0
Drift error (maybe fixed) : 0
Dropped bytes error (maybe fixed) : 0
Duplicated bytes error (maybe fixed) : 0

Track 09
Filename : /Users/furntree/Desktop/All Wound Up [FLAC]/09 Godsmack - Now or Never.flac

CRC32 hash (test run) : 615D7AE5
CRC32 hash : 615D7AE5
CRC32 hash (skip zero) : ED21C7CD
AccurateRip signature : F42C4D08
->Track not present in AccurateRip database.
Statistics
Read error : 0
Skipped (treated as error) : 0
Edge jitter error (maybe fixed) : 0
Atom jitter error (maybe fixed) : 0
Drift error (maybe fixed) : 0
Dropped bytes error (maybe fixed) : 0
Duplicated bytes error (maybe fixed) : 0

Track 10
Filename : /Users/furntree/Desktop/All Wound Up [FLAC]/10 Godsmack - Going Down.flac

CRC32 hash (test run) : 8EAC6DA9
CRC32 hash : 8EAC6DA9
CRC32 hash (skip zero) : 8981BE9A
AccurateRip signature : A472FE4F
->Track not present in AccurateRip database.
Statistics
Read error : 0
Skipped (treated as error) : 0
Edge jitter error (maybe fixed) : 0
Atom jitter error (maybe fixed) : 0
Drift error (maybe fixed) : 0
Dropped bytes error (maybe fixed) : 0
Duplicated bytes error (maybe fixed) : 0

Track 11
Filename : /Users/furntree/Desktop/All Wound Up [FLAC]/11 Godsmack - Voodoo.flac

CRC32 hash (test run) : 5BC47731
CRC32 hash : 5BC47731
CRC32 hash (skip zero) : B94765A2
AccurateRip signature : CBB214DD
->Track not present in AccurateRip database.
Statistics
Read error : 0
Skipped (treated as error) : 0
Edge jitter error (maybe fixed) : 0
Atom jitter error (maybe fixed) : 0
Drift error (maybe fixed) : 0
Dropped bytes error (maybe fixed) : 0
Duplicated bytes error (maybe fixed) : 0

Track 12
Filename : /Users/furntree/Desktop/All Wound Up [FLAC]/12 Godsmack - Whatever.flac

CRC32 hash (test run) : CCA6AB04
CRC32 hash : CCA6AB04
CRC32 hash (skip zero) : E19DCE4A
AccurateRip signature : ADBBFEFB
->Track not present in AccurateRip database.
Statistics
Read error : 0
Skipped (treated as error) : 0
Edge jitter error (maybe fixed) : 0
Atom jitter error (maybe fixed) : 0
Drift error (maybe fixed) : 0
Dropped bytes error (maybe fixed) : 0
Duplicated bytes error (maybe fixed) : 0

No errors occurred

End of status report
 
TITLE "All Wound Up..."
PERFORMER "Godsmack"
REM GENRE "Metal"
REM DATE "1998-07-28"
FILE "01 Godsmack - Moonbaby.wav" WAVE
TRACK 01 AUDIO
TITLE "Moonbaby"
INDEX 01 00:00:00
FILE "02 Godsmack - Immune.wav" WAVE
TRACK 02 AUDIO
TITLE "Immune"
INDEX 01 00:00:00
FILE "03 Godsmack - Time Bomb.wav" WAVE
TRACK 03 AUDIO
TITLE "Time Bomb"
INDEX 01 00:00:00
FILE "04 Godsmack - Keep Away.wav" WAVE
TRACK 04 AUDIO
TITLE "Keep Away"
INDEX 01 00:00:00
FILE "05 Godsmack - Situation.wav" WAVE
TRACK 05 AUDIO
TITLE "Situation"
INDEX 01 00:00:00
TRACK 06 AUDIO
TITLE "Stress"
INDEX 00 05:29:32
FILE "06 Godsmack - Stress.wav" WAVE
INDEX 01 00:00:00
FILE "07 Godsmack - Bad Religion.wav" WAVE
TRACK 07 AUDIO
TITLE "Bad Religion"
INDEX 01 00:00:00
TRACK 08 AUDIO
TITLE "Get Up, Get Out!"
INDEX 00 03:38:28
FILE "08 Godsmack - Get Up, Get Out!.wav" WAVE
INDEX 01 00:00:00
FILE "09 Godsmack - Now or Never.wav" WAVE
TRACK 09 AUDIO
TITLE "Now or Never"
INDEX 01 00:00:00
FILE "10 Godsmack - Going Down.wav" WAVE
TRACK 10 AUDIO
TITLE "Going Down"
INDEX 01 00:00:00
TRACK 11 AUDIO
TITLE "Voodoo"
INDEX 00 03:27:13
FILE "11 Godsmack - Voodoo.wav" WAVE
INDEX 01 00:00:00
TRACK 12 AUDIO
TITLE "Whatever"
INDEX 00 04:37:30
FILE "12 Godsmack - Whatever.wav" WAVE
INDEX 01 00:00:00
 
AUDIOCHECKER v2.0 beta (build 457) - by Dester - opdester@freemail.hu
~~~~~~~~~~~~~~~~~~~~~~~~~~~~~~~~~~
-=== DO NOT EDIT THIS FILE! ===-

Path: ...\1997.07.28 - All Wound Up

01 -=- 01 Godsmack - Moonbaby.flac -=- CDDA (100%)
02 -=- 02 Godsmack - Immune.flac -=- CDDA (100%)
03 -=- 03 Godsmack - Time Bomb.flac -=- CDDA (99%)
04 -=- 04 Godsmack - Keep Away.flac -=- CDDA (99%)
05 -=- 05 Godsmack - Situation.flac -=- CDDA (100%)
06 -=- 06 Godsmack - Stress.flac -=- CDDA (100%)
07 -=- 07 Godsmack - Bad Religion.flac -=- CDDA (100%)
08 -=- 08 Godsmack - Get Up, Get Out!.flac -=- CDDA (100%)
09 -=- 09 Godsmack - Now or Never.flac -=- CDDA (100%)
10 -=- 10 Godsmack - Going Down.flac -=- CDDA (99%)
11 -=- 11 Godsmack - Voodoo.flac -=- CDDA (100%)
12 -=- 12 Godsmack - Whatever.flac -=- CDDA (100%)

Summary 99,75% CDDA

170902404
01. Moon Baby (4:23)
02. Whatever (3:26)
03. Keep Away (4:50)
04. Time Bomb (4:00)
05. Bad Religion (3:41)
06. Immune (4:50)
07. Someone In London (2:03)
08. Get Up, Get Out! (3:30)
09. Now Or Never (5:06)
10. Stress (5:04)
11. Situation (5:48)
12. Voodoo (9:03)
 
EAC extraction logfile from 27. August 2006, 11:02 for CD
Godsmack / Godsmack

Used drive : _NEC DVD_RW ND-3550A Adapter: 1 ID: 0
Read mode : Secure with NO C2, accurate stream, disable cache
Read offset correction : 48
Overread into Lead-In and Lead-Out : No

Used output format : C:\Program Files\FLAC\flac.exe (User Defined Encoder)
320 kBit/s
Additional command line options : -V -8 -T "artist=%a" -T "title=%t" -T "album=%g" -T "date=%y" -T "tracknumber=%n" -T "genre=%m" %s

Other options :
Fill up missing offset samples with silence : Yes
Delete leading and trailing silent blocks : No
Installed external ASPI interface

Track 1
Filename C:\download\Godsmack - Godsmack\01 - Moon Baby.wav

Pre-gap length 0:00:02.00

Peak level 98.4 %
Track quality 100.0 %
Test CRC 178F6CE8
Copy CRC 178F6CE8
Copy OK

Track 2
Filename C:\download\Godsmack - Godsmack\02 - Whatever.wav

Peak level 93.6 %
Track quality 100.0 %
Test CRC FF71A999
Copy CRC FF71A999
Copy OK

Track 3
Filename C:\download\Godsmack - Godsmack\03 - Keep Away.wav

Peak level 100.0 %
Track quality 100.0 %
Test CRC 8478300B
Copy CRC 8478300B
Copy OK

Track 4
Filename C:\download\Godsmack - Godsmack\04 - Time Bomb.wav

Peak level 100.0 %
Track quality 100.0 %
Test CRC FDB91E2C
Copy CRC FDB91E2C
Copy OK

Track 5
Filename C:\download\Godsmack - Godsmack\05 - Bad Religion.wav

Pre-gap length 0:00:02.46

Peak level 100.0 %
Track quality 100.0 %
Test CRC 3EDDD7E8
Copy CRC 3EDDD7E8
Copy OK

Track 6
Filename C:\download\Godsmack - Godsmack\06 - Immune.wav

Pre-gap length 0:00:01.57

Peak level 100.0 %
Track quality 100.0 %
Test CRC 147CCB0F
Copy CRC 147CCB0F
Copy OK

Track 7
Filename C:\download\Godsmack - Godsmack\07 - Someone In London.wav

Pre-gap length 0:00:02.06

Peak level 94.5 %
Track quality 100.0 %
Test CRC 07BED6F4
Copy CRC 07BED6F4
Copy OK

Track 8
Filename C:\download\Godsmack - Godsmack\08 - Get Up, Get Out!.wav

Peak level 100.0 %
Track quality 99.9 %
Test CRC 1A7E5813
Copy CRC 1A7E5813
Copy OK

Track 9
Filename C:\download\Godsmack - Godsmack\09 - Now Or Never.wav

Pre-gap length 0:00:01.64

Peak level 100.0 %
Track quality 100.0 %
Test CRC AC7581D4
Copy CRC AC7581D4
Copy OK

Track 10
Filename C:\download\Godsmack - Godsmack\10 - Stress.wav

Pre-gap length 0:00:02.24

Peak level 100.0 %
Track quality 99.9 %
Test CRC A3DF9459
Copy CRC A3DF9459
Copy OK

Track 11
Filename C:\download\Godsmack - Godsmack\11 - Situation.wav

Pre-gap length 0:00:01.69

Peak level 100.0 %
Track quality 99.9 %
Test CRC CDADF9F5
Copy CRC CDADF9F5
Copy OK

Track 12
Filename C:\download\Godsmack - Godsmack\12 - Voodoo.wav

Pre-gap length 0:00:02.73

Peak level 100.0 %
Track quality 100.0 %
Test CRC C61CAA9F
Copy CRC C61CAA9F
Copy OK

No errors occured

End of status report
 
REM GENRE Rock
REM DATE 1998
REM DISCID 7E0D0F0C
REM COMMENT "ExactAudioCopy v0.95b3"
CATALOG 0000000000000
PERFORMER "Godsmack"
TITLE "Godsmack"
FILE "01 - Moon Baby.wav" WAVE
TRACK 01 AUDIO
TITLE "Moon Baby"
PERFORMER "Godsmack"
ISRC USUR19801027
INDEX 01 00:00:00
FILE "02 - Whatever.wav" WAVE
TRACK 02 AUDIO
TITLE "Whatever"
PERFORMER "Godsmack"
ISRC USUR19801039
INDEX 01 00:00:00
FILE "03 - Keep Away.wav" WAVE
TRACK 03 AUDIO
TITLE "Keep Away"
PERFORMER "Godsmack"
ISRC USUR19801031
INDEX 01 00:00:00
FILE "04 - Time Bomb.wav" WAVE
TRACK 04 AUDIO
TITLE "Time Bomb"
PERFORMER "Godsmack"
ISRC USUR19801030
INDEX 01 00:00:00
TRACK 05 AUDIO
TITLE "Bad Religion"
PERFORMER "Godsmack"
ISRC USUR19801034
INDEX 00 03:57:22
FILE "05 - Bad Religion.wav" WAVE
INDEX 01 00:00:00
TRACK 06 AUDIO
TITLE "Immune"
PERFORMER "Godsmack"
ISRC USUR19801029
INDEX 00 03:39:10
FILE "06 - Immune.wav" WAVE
INDEX 01 00:00:00
TRACK 07 AUDIO
TITLE "Someone In London"
PERFORMER "Godsmack"
ISRC USUR19801165
INDEX 00 04:48:07
FILE "07 - Someone In London.wav" WAVE
INDEX 01 00:00:00
FILE "08 - Get Up, Get Out!.wav" WAVE
TRACK 08 AUDIO
TITLE "Get Up, Get Out!"
PERFORMER "Godsmack"
ISRC USUR19801035
INDEX 01 00:00:00
TRACK 09 AUDIO
TITLE "Now Or Never"
PERFORMER "Godsmack"
ISRC USUR19801036
INDEX 00 03:27:65
FILE "09 - Now Or Never.wav" WAVE
INDEX 01 00:00:00
TRACK 10 AUDIO
TITLE "Stress"
PERFORMER "Godsmack"
ISRC USUR19801033
INDEX 00 05:03:57
FILE "10 - Stress.wav" WAVE
INDEX 01 00:00:00
TRACK 11 AUDIO
TITLE "Situation"
PERFORMER "Godsmack"
ISRC USUR19801203
INDEX 00 05:02:10
FILE "11 - Situation.wav" WAVE
INDEX 01 00:00:00
TRACK 12 AUDIO
TITLE "Voodoo"
PERFORMER "Godsmack"
ISRC USUR19801038
INDEX 00 05:44:70
FILE "12 - Voodoo.wav" WAVE
INDEX 01 00:00:00
 
AUDIOCHECKER v2.0 beta (build 457) - by Dester - opdester@freemail.hu
~~~~~~~~~~~~~~~~~~~~~~~~~~~~~~~~~~
-=== DO NOT EDIT THIS FILE! ===-

Path: ...\1998.08.25 - Godsmack

01 -=- 01 - Moon Baby.flac -=- CDDA (100%)
02 -=- 02 - Whatever.flac -=- CDDA (100%)
03 -=- 03 - Keep Away.flac -=- CDDA (100%)
04 -=- 04 - Time Bomb.flac -=- CDDA (99%)
05 -=- 05 - Bad Religion.flac -=- CDDA (100%)
06 -=- 06 - Immune.flac -=- CDDA (99%)
07 -=- 07 - Someone In London.flac -=- CDDA (100%)
08 -=- 08 - Get Up, Get Out!.flac -=- CDDA (100%)
09 -=- 09 - Now Or Never.flac -=- CDDA (100%)
10 -=- 10 - Stress.flac -=- CDDA (100%)
11 -=- 11 - Situation.flac -=- CDDA (100%)
12 -=- 12 - Voodoo.flac -=- CDDA (100%)

Summary 99,83% CDDA

231344020
01. Sick of Life (3:52)
02. Awake (5:04)
03. Greed (3:29)
04. Bad Magick (4:17)
05. Goin' Down (3:24)
06. Mistakes (5:59)
07. Trippin' (4:56)
08. Forgive Me (4:19)
09. Vampires (3:47)
10. The Journey (0:50)
11. Spiral (5:35)
 
EAC extraction logfile from 2. October 2006, 11:59 for CD
Godsmack / Awake

Used drive : HP DVD Writer 200j Adapter: 2 ID: 0
Read mode : Secure with NO C2, accurate stream, disable cache
Read offset correction : 120
Overread into Lead-In and Lead-Out : No

Used output format : c:\Program Files\FLAC\flac.exe (User Defined Encoder)
128 kBit/s
Additional command line options : -V -8 -T "artist=%a" -T "title=%t" -T "album=%g" -T "date=%y" -T "tracknumber=%n" -T "genre=%m" %s

Other options :
Fill up missing offset samples with silence : Yes
Delete leading and trailing silent blocks : No
Installed external ASPI interface

Track 1
Filename c:\Flac\Godsmack - Awake\01 - Sick of Life.wav

Pre-gap length 0:00:02.00

Peak level 98.7 %
Track quality 100.0 %
Test CRC D4A0401D
Copy CRC D4A0401D
Copy OK

Track 2
Filename c:\Flac\Godsmack - Awake\02 - Awake.wav

Peak level 98.7 %
Track quality 100.0 %
Test CRC D7E4A233
Copy CRC D7E4A233
Copy OK

Track 3
Filename c:\Flac\Godsmack - Awake\03 - Greed.wav

Peak level 98.7 %
Track quality 100.0 %
Test CRC B2595E09
Copy CRC B2595E09
Copy OK

Track 4
Filename c:\Flac\Godsmack - Awake\04 - Bad Magick.wav

Peak level 98.7 %
Track quality 100.0 %
Test CRC 4554F545
Copy CRC 4554F545
Copy OK

Track 5
Filename c:\Flac\Godsmack - Awake\05 - Goin' Down.wav

Pre-gap length 0:00:01.66

Peak level 98.7 %
Track quality 100.0 %
Test CRC A131F2D4
Copy CRC A131F2D4
Copy OK

Track 6
Filename c:\Flac\Godsmack - Awake\06 - Mistakes.wav

Pre-gap length 0:00:01.86

Peak level 98.7 %
Track quality 99.9 %
Test CRC DAD0AEF3
Copy CRC DAD0AEF3
Copy OK

Track 7
Filename c:\Flac\Godsmack - Awake\07 - Trippin'.wav

Peak level 98.7 %
Track quality 100.0 %
Test CRC AF0BC16E
Copy CRC AF0BC16E
Copy OK

Track 8
Filename c:\Flac\Godsmack - Awake\08 - Forgive Me.wav

Peak level 98.7 %
Track quality 100.0 %
Test CRC E676BCBD
Copy CRC E676BCBD
Copy OK

Track 9
Filename c:\Flac\Godsmack - Awake\09 - Vampires.wav

Peak level 98.7 %
Track quality 100.0 %
Test CRC FA8C9560
Copy CRC FA8C9560
Copy OK

Track 10
Filename c:\Flac\Godsmack - Awake\10 - The Journey.wav

Pre-gap length 0:00:01.84

Peak level 46.4 %
Track quality 100.0 %
Test CRC 53603264
Copy CRC 53603264
Copy OK

Track 11
Filename c:\Flac\Godsmack - Awake\11 - Spiral.wav

Peak level 98.7 %
Track quality 100.0 %
Test CRC A8447D96
Copy CRC A8447D96
Copy OK

No errors occured

End of status report
 
REM GENRE Metal
REM DATE 2000
REM DISCID AA100A0C
REM COMMENT "ExactAudioCopy v0.95b4"
PERFORMER "Godsmack"
TITLE "Awake"
FILE "01 - Sick of Life.wav" WAVE
TRACK 01 AUDIO
TITLE "Sick of Life"
PERFORMER "Godsmack"
INDEX 01 00:00:00
FILE "02 - Awake.wav" WAVE
TRACK 02 AUDIO
TITLE "Awake"
PERFORMER "Godsmack"
INDEX 01 00:00:00
FILE "03 - Greed.wav" WAVE
TRACK 03 AUDIO
TITLE "Greed"
PERFORMER "Godsmack"
INDEX 01 00:00:00
FILE "04 - Bad Magick.wav" WAVE
TRACK 04 AUDIO
TITLE "Bad Magick"
PERFORMER "Godsmack"
INDEX 01 00:00:00
TRACK 05 AUDIO
TITLE "Goin' Down"
PERFORMER "Godsmack"
INDEX 00 04:15:55
FILE "05 - Goin' Down.wav" WAVE
INDEX 01 00:00:00
TRACK 06 AUDIO
TITLE "Mistakes"
PERFORMER "Godsmack"
INDEX 00 03:22:13
FILE "06 - Mistakes.wav" WAVE
INDEX 01 00:00:00
FILE "07 - Trippin'.wav" WAVE
TRACK 07 AUDIO
TITLE "Trippin'"
PERFORMER "Godsmack"
INDEX 01 00:00:00
FILE "08 - Forgive Me.wav" WAVE
TRACK 08 AUDIO
TITLE "Forgive Me"
PERFORMER "Godsmack"
INDEX 01 00:00:00
FILE "09 - Vampires.wav" WAVE
TRACK 09 AUDIO
TITLE "Vampires"
PERFORMER "Godsmack"
INDEX 01 00:00:00
TRACK 10 AUDIO
TITLE "The Journey"
PERFORMER "Godsmack"
INDEX 00 03:45:30
FILE "10 - The Journey.wav" WAVE
INDEX 01 00:00:00
FILE "11 - Spiral.wav" WAVE
TRACK 11 AUDIO
TITLE "Spiral"
PERFORMER "Godsmack"
INDEX 01 00:00:00
TRACK 12 MODEx/2xxx
TITLE "Data Track"
PERFORMER "Godsmack"
INDEX 00 05:34:67
 
AUDIOCHECKER v2.0 beta (build 457) - by Dester - opdester@freemail.hu
~~~~~~~~~~~~~~~~~~~~~~~~~~~~~~~~~~
-=== DO NOT EDIT THIS FILE! ===-

Path: ...\2000.10.31 - Awake

01 -=- 01 - Sick of Life.flac -=- CDDA (100%)
02 -=- 02 - Awake.flac -=- CDDA (99%)
03 -=- 03 - Greed.flac -=- CDDA (100%)
04 -=- 04 - Bad Magick.flac -=- CDDA (99%)
05 -=- 05 - Goin' Down.flac -=- CDDA (99%)
06 -=- 06 - Mistakes.flac -=- CDDA (100%)
07 -=- 07 - Trippin'.flac -=- CDDA (100%)
08 -=- 08 - Forgive Me.flac -=- CDDA (100%)
09 -=- 09 - Vampires.flac -=- CDDA (100%)
10 -=- 10 - The Journey.flac -=- CDDA (100%)
11 -=- 11 - Spiral.flac -=- CDDA (100%)

Summary 99,73% CDDA

14717812
01. Straight Out Of Line (4:19)
02. Faceless (3:36)
03. Changes (4:20)
04. Make Me Believe (4:09)
05. I Stand Alone (4:06)
06. Re-Align (4:21)
07. I Fucking Hate You (4:07)
08. Releasing The Demons (4:13)
09. Dead And Broken (4:11)
10. I Am (3:59)
11. The Awakening (1:29)
12. Serenity (4:35)
 
EAC extraction logfile from 24. December 2006, 11:52 for CD
Godsmack / Faceless

Used drive : SAMSUNG DVD-ROM SD-616F Adapter: 0 ID: 1
Read mode : Secure with NO C2, accurate stream, disable cache
Read offset correction : 1182
Overread into Lead-In and Lead-Out : No

Used output format : C:\Program Files\FLAC\flac.exe (User Defined Encoder)
320 kBit/s
Additional command line options : -T "artist=%a" -T "title=%t" -T "album=%g" -T "date=%y" -T "tracknumber=%n" -T "genre=%m" -5 %s

Other options :
Fill up missing offset samples with silence : Yes
Delete leading and trailing silent blocks : No
Installed external ASPI interface

Track 1
Filename F:\Music\Godsmack - Faceless\01 - Straight Out Of Line.wav

Pre-gap length 0:00:02.00

Peak level 100.0 %
Track quality 100.0 %
Test CRC 6A32BAC0
Copy CRC 6A32BAC0
Copy OK

Track 2
Filename F:\Music\Godsmack - Faceless\02 - Faceless.wav

Peak level 100.0 %
Track quality 100.0 %
Test CRC 62CD4293
Copy CRC 62CD4293
Copy OK

Track 3
Filename F:\Music\Godsmack - Faceless\03 - Changes.wav

Pre-gap length 0:00:01.04

Peak level 100.0 %
Track quality 100.0 %
Test CRC 31B7C933
Copy CRC 31B7C933
Copy OK

Track 4
Filename F:\Music\Godsmack - Faceless\04 - Make Me Believe.wav

Peak level 100.0 %
Track quality 100.0 %
Test CRC 730CFE43
Copy CRC 730CFE43
Copy OK

Track 5
Filename F:\Music\Godsmack - Faceless\05 - I Stand Alone.wav

Peak level 100.0 %
Track quality 99.9 %
Test CRC 0FADE457
Copy CRC 0FADE457
Copy OK

Track 6
Filename F:\Music\Godsmack - Faceless\06 - Re-Align.wav

Peak level 100.0 %
Track quality 100.0 %
Test CRC 2C956C1A
Copy CRC 2C956C1A
Copy OK

Track 7
Filename F:\Music\Godsmack - Faceless\07 - I Fucking Hate You.wav

Peak level 100.0 %
Track quality 100.0 %
Test CRC 8DB94A62
Copy CRC 8DB94A62
Copy OK

Track 8
Filename F:\Music\Godsmack - Faceless\08 - Releasing The Demons.wav

Peak level 100.0 %
Track quality 99.9 %
Test CRC D40CE76F
Copy CRC D40CE76F
Copy OK

Track 9
Filename F:\Music\Godsmack - Faceless\09 - Dead And Broken.wav

Peak level 100.0 %
Track quality 99.9 %
Test CRC 7EF4713E
Copy CRC 7EF4713E
Copy OK

Track 10
Filename F:\Music\Godsmack - Faceless\10 - I Am.wav

Peak level 100.0 %
Track quality 100.0 %
Test CRC 447361A4
Copy CRC 447361A4
Copy OK

Track 11
Filename F:\Music\Godsmack - Faceless\11 - The Awakening.wav

Pre-gap length 0:00:01.40

Peak level 100.0 %
Track quality 100.0 %
Test CRC D1A99C99
Copy CRC D1A99C99
Copy OK

Track 12
Filename F:\Music\Godsmack - Faceless\12 - Serenity.wav

Peak level 100.0 %
Track quality 100.0 %
Test CRC 91667C23
Copy CRC 91667C23
Copy OK

No errors occured

End of status report
 
CATALOG 0101000036000
PERFORMER "Godsmack"
TITLE "Faceless"
FILE "C:\Documents and Settings\Markus\Tyцpцytд\Godsmack - Faceless\01 - Straight Out Of Line.wav" WAVE
TRACK 01 AUDIO
TITLE "Straight Out Of Line"
PERFORMER "Godsmack"
ISRC 0@4000800000
INDEX 01 00:00:00
FILE "C:\Documents and Settings\Markus\Tyцpцytд\Godsmack - Faceless\02 - Faceless.wav" WAVE
TRACK 02 AUDIO
TITLE "Faceless"
PERFORMER "Godsmack"
ISRC 0P4000600042
INDEX 01 00:00:00
TRACK 03 AUDIO
TITLE "Changes"
PERFORMER "Godsmack"
ISRC 0`4000400075
INDEX 00 03:34:65
FILE "C:\Documents and Settings\Markus\Tyцpцytд\Godsmack - Faceless\03 - Changes.wav" WAVE
INDEX 01 00:00:00
FILE "C:\Documents and Settings\Markus\Tyцpцytд\Godsmack - Faceless\04 - Make Me Believe.wav" WAVE
TRACK 04 AUDIO
TITLE "Make Me Believe"
PERFORMER "Godsmack"
ISRC 104000600121
INDEX 01 00:00:00
FILE "C:\Documents and Settings\Markus\Tyцpцytд\Godsmack - Faceless\05 - I Stand Alone.wav" WAVE
TRACK 05 AUDIO
TITLE "I Stand Alone"
PERFORMER "Godsmack"
ISRC 1@4000300162
INDEX 01 00:00:00
FILE "C:\Documents and Settings\Markus\Tyцpцytд\Godsmack - Faceless\06 - Re-Align.wav" WAVE
TRACK 06 AUDIO
TITLE "Re-Align"
PERFORMER "Godsmack"
ISRC 1P4000300203
INDEX 01 00:00:00
FILE "C:\Documents and Settings\Markus\Tyцpцytд\Godsmack - Faceless\07 - I Fucking Hate You.wav" WAVE
TRACK 07 AUDIO
TITLE "I Fucking Hate You"
PERFORMER "Godsmack"
ISRC 1`4000100245
INDEX 01 00:00:00
FILE "C:\Documents and Settings\Markus\Tyцpцytд\Godsmack - Faceless\08 - Releasing The Demons.wav" WAVE
TRACK 08 AUDIO
TITLE "Releasing The Demons"
PERFORMER "Godsmack"
ISRC 1`4410200285
INDEX 01 00:00:00
FILE "C:\Documents and Settings\Markus\Tyцpцytд\Godsmack - Faceless\09 - Dead And Broken.wav" WAVE
TRACK 09 AUDIO
TITLE "Dead And Broken"
PERFORMER "Godsmack"
ISRC 2@4000300331
INDEX 01 00:00:00
FILE "C:\Documents and Settings\Markus\Tyцpцytд\Godsmack - Faceless\10 - I Am.wav" WAVE
TRACK 10 AUDIO
TITLE "I Am"
PERFORMER "Godsmack"
ISRC 404001000372
INDEX 01 00:00:00
TRACK 11 AUDIO
TITLE "The Awakening"
PERFORMER "Godsmack"
ISRC 4@4000700412
INDEX 00 03:58:02
FILE "C:\Documents and Settings\Markus\Tyцpцytд\Godsmack - Faceless\11 - The Awakening.wav" WAVE
INDEX 01 00:00:00
FILE "C:\Documents and Settings\Markus\Tyцpцytд\Godsmack - Faceless\12 - Serenity.wav" WAVE
TRACK 12 AUDIO
TITLE "Serenity"
PERFORMER "Godsmack"
ISRC 4@41:3400425
INDEX 01 00:00:00
TRACK 13 MODEx/2xxx
TITLE "Data Track"
PERFORMER "Godsmack"
ISRC 4`4000600495
INDEX 00 04:34:55
 
AUDIOCHECKER v2.0 beta (build 457) - by Dester - opdester@freemail.hu
~~~~~~~~~~~~~~~~~~~~~~~~~~~~~~~~~~
-=== DO NOT EDIT THIS FILE! ===-

Path: ...\2003.04.08 - Faceless

01 -=- 01 - Straight Out Of Line.flac -=- CDDA (100%)
02 -=- 02 - Faceless.flac -=- CDDA (100%)
03 -=- 03 - Changes.flac -=- CDDA (100%)
04 -=- 04 - Make Me Believe.flac -=- CDDA (100%)
05 -=- 05 - I Stand Alone.flac -=- CDDA (99%)
06 -=- 06 - Re-Align.flac -=- CDDA (100%)
07 -=- 07 - I Fucking Hate You.flac -=- CDDA (100%)
08 -=- 08 - Releasing The Demons.flac -=- CDDA (100%)
09 -=- 09 - Dead And Broken.flac -=- CDDA (100%)
10 -=- 10 - I Am.flac -=- CDDA (100%)
11 -=- 11 - The Awakening.flac -=- CDDA (100%)
12 -=- 12 - Serenity.flac -=- CDDA (100%)

Summary 99,92% CDDA

104031764
01. Livin' In Sin (4:40)
02. Speak (3:57)
03. The Enemy (4:07)
04. Shine Down (5:01)
05. Hollow (4:32)
06. No Rest For The Wicked (4:38)
07. Bleeding Me (3:38)
08. Voodoo Too (5:26)
09. Temptation (4:07)
10. Mama (5:15)
11. One Rainy Day (7:22)
 
Exact Audio Copy V0.99 prebeta 4 from 23. January 2008

EAC extraction logfile from 21. April 2009, 17:15

Godsmack / IV

Used drive : HL-DT-STDVD-RAM GSA-H55N Adapter: 0 ID: 0

Read mode : Secure
Utilize accurate stream : Yes
Defeat audio cache : Yes
Make use of C2 pointers : No

Read offset correction : 102
Overread into Lead-In and Lead-Out : No
Fill up missing offset samples with silence : Yes
Delete leading and trailing silent blocks : No
Null samples used in CRC calculations : Yes
Used interface : Native Win32 interface for Win NT & 2000
Gap handling : Appended to previous track

Used output format : User Defined Encoder
Selected bitrate : 320 kBit/s
Quality : High
Add ID3 tag : No
Command line compressor : C:\Program Files (x86)\Exact Audio Copy\Flac\flac.exe
Additional command line options : -V -8 -T "artist=%a" -T "title=%t" -T "album=%g" -T "date=%y" -T "tracknumber=%n" -T "genre=%m" %s

TOC of the extracted CD

Track | Start | Length | Start sector | End sector
---------------------------------------------------------
1 | 0:00.00 | 4:39.68 | 0 | 20992
2 | 4:39.68 | 3:57.21 | 20993 | 38788
3 | 8:37.14 | 4:07.24 | 38789 | 57337
4 | 12:44.38 | 5:01.08 | 57338 | 79920
5 | 17:45.46 | 4:32.03 | 79921 | 100323
6 | 22:17.49 | 4:37.72 | 100324 | 121170
7 | 26:55.46 | 3:37.50 | 121171 | 137495
8 | 30:33.21 | 5:26.37 | 137496 | 161982
9 | 35:59.58 | 4:06.44 | 161983 | 180476
10 | 40:06.27 | 5:14.44 | 180477 | 204070
11 | 45:20.71 | 7:21.72 | 204071 | 237217

Track 1

Filename H:\EACRips\Godsmack - 2006 - IV\01 - Livin' In Sin.wav

Pre-gap length 0:00:02.00

Peak level 98.5 %
Track quality 99.9 %
Test CRC 878F8FE7
Copy CRC 878F8FE7
Cannot be verified as accurate (confidence 83) [67D01216], AccurateRip returned [91C5CF02]
Copy OK

Track 2

Filename H:\EACRips\Godsmack - 2006 - IV\02 - Speak.wav

Peak level 99.8 %
Track quality 100.0 %
Test CRC 75928D9B
Copy CRC 75928D9B
Cannot be verified as accurate (confidence 84) [CD79F95B], AccurateRip returned [ABE6AB72]
Copy OK

Track 3

Filename H:\EACRips\Godsmack - 2006 - IV\03 - The Enemy.wav

Peak level 99.8 %
Track quality 100.0 %
Test CRC 2D524517
Copy CRC 2D524517
Cannot be verified as accurate (confidence 83) [0284C503], AccurateRip returned [FDCFDF27]
Copy OK

Track 4

Filename H:\EACRips\Godsmack - 2006 - IV\04 - Shine Down.wav

Peak level 99.8 %
Track quality 100.0 %
Test CRC E1EB4285
Copy CRC E1EB4285
Cannot be verified as accurate (confidence 82) [22E88AFD], AccurateRip returned [CED6ED0F]
Copy OK

Track 5

Filename H:\EACRips\Godsmack - 2006 - IV\05 - Hollow.wav

Peak level 99.4 %
Track quality 100.0 %
Test CRC 50D8C868
Copy CRC 50D8C868
Cannot be verified as accurate (confidence 83) [4BEAC6EC], AccurateRip returned [8FA0819D]
Copy OK

Track 6

Filename H:\EACRips\Godsmack - 2006 - IV\06 - No Rest For The Wicked.wav

Peak level 99.8 %
Track quality 99.9 %
Test CRC 1756A121
Copy CRC 1756A121
Cannot be verified as accurate (confidence 83) [15591AFC], AccurateRip returned [21550AE6]
Copy OK

Track 7

Filename H:\EACRips\Godsmack - 2006 - IV\07 - Bleeding Me.wav

Peak level 99.8 %
Track quality 100.0 %
Test CRC 1ECF11C4
Copy CRC 1ECF11C4
Cannot be verified as accurate (confidence 83) [BBD4B544], AccurateRip returned [DC2DDCD2]
Copy OK

Track 8

Filename H:\EACRips\Godsmack - 2006 - IV\08 - Voodoo Too.wav

Peak level 99.8 %
Track quality 100.0 %
Test CRC DEFEE025
Copy CRC DEFEE025
Cannot be verified as accurate (confidence 83) [4C4DC0E5], AccurateRip returned [5BE2D689]
Copy OK

Track 9

Filename H:\EACRips\Godsmack - 2006 - IV\09 - Temptation.wav

Peak level 99.8 %
Track quality 100.0 %
Test CRC E9CB6943
Copy CRC E9CB6943
Cannot be verified as accurate (confidence 83) [05FDCADA], AccurateRip returned [2C7D4450]
Copy OK

Track 10

Filename H:\EACRips\Godsmack - 2006 - IV\10 - Mama.wav

Peak level 99.8 %
Track quality 100.0 %
Test CRC 016D7091
Copy CRC 016D7091
Cannot be verified as accurate (confidence 83) [C75107AE], AccurateRip returned [13D36E75]
Copy OK

Track 11

Filename H:\EACRips\Godsmack - 2006 - IV\11 - One Rainy Day.wav

Peak level 99.8 %
Track quality 99.9 %
Test CRC 05289B07
Copy CRC 05289B07
Cannot be verified as accurate (confidence 82) [3FEB5D93], AccurateRip returned [795693AD]
Copy OK

No tracks could be verified as accurate
You may have a different pressing from the one(s) in the database

No errors occurred

End of status report

 
REM GENRE "Heavy Metal"
REM DATE 2006
REM DISCID 920C5A0B
REM COMMENT "ExactAudioCopy v0.99pb4"
FILE "01 - Livin' In Sin.wav" WAVE
TRACK 01 AUDIO
INDEX 01 00:00:00
FILE "02 - Speak.wav" WAVE
TRACK 02 AUDIO
INDEX 01 00:00:00
FILE "03 - The Enemy.wav" WAVE
TRACK 03 AUDIO
INDEX 01 00:00:00
FILE "04 - Shine Down.wav" WAVE
TRACK 04 AUDIO
INDEX 01 00:00:00
FILE "05 - Hollow.wav" WAVE
TRACK 05 AUDIO
INDEX 01 00:00:00
FILE "06 - No Rest For The Wicked.wav" WAVE
TRACK 06 AUDIO
INDEX 01 00:00:00
FILE "07 - Bleeding Me.wav" WAVE
TRACK 07 AUDIO
INDEX 01 00:00:00
FILE "08 - Voodoo Too.wav" WAVE
TRACK 08 AUDIO
INDEX 01 00:00:00
FILE "09 - Temptation.wav" WAVE
TRACK 09 AUDIO
INDEX 01 00:00:00
FILE "10 - Mama.wav" WAVE
TRACK 10 AUDIO
INDEX 01 00:00:00
FILE "11 - One Rainy Day.wav" WAVE
TRACK 11 AUDIO
INDEX 01 00:00:00
 
AUDIOCHECKER v2.0 beta (build 457) - by Dester - opdester@freemail.hu
~~~~~~~~~~~~~~~~~~~~~~~~~~~~~~~~~~
-=== DO NOT EDIT THIS FILE! ===-

Path: ...\2006.04.25 - IV

01 -=- 01 - Livin' In Sin.flac -=- CDDA (100%)
02 -=- 02 - Speak.flac -=- CDDA (100%)
03 -=- 03 - The Enemy.flac -=- CDDA (100%)
04 -=- 04 - Shine Down.flac -=- CDDA (100%)
05 -=- 05 - Hollow.flac -=- CDDA (99%)
06 -=- 06 - No Rest For The Wicked.flac -=- CDDA (99%)
07 -=- 07 - Bleeding Me.flac -=- CDDA (100%)
08 -=- 08 - Voodoo Too.flac -=- CDDA (100%)
09 -=- 09 - Temptation.flac -=- CDDA (100%)
10 -=- 10 - Mama.flac -=- CDDA (100%)
11 -=- 11 - One Rainy Day.flac -=- CDDA (99%)

Summary 99,73% CDDA

97895348
01. Cryin' Like A Bitch (3:23)
02. Saints and Sinners (4:10)
03. War and Peace (3:10)
04. Love-Hate-Sex-Pain (5:15)
05. What If? (6:35)
06. Devil's Swing (3:31)
07. Good Day To Die (3:56)
08. Forever Shamed (3:24)
09. Shadow of a Soul (4:45)
10. The Oracle (6:23)
 
Exact Audio Copy V0.99 prebeta 5 from 4. May 2009

EAC extraction logfile from 30. April 2010, 12:49

Godsmack / The Oracle

Used drive : SONY CD-RW CRX230EE Adapter: 0 ID: 1

Read mode : Secure
Utilize accurate stream : Yes
Defeat audio cache : Yes
Make use of C2 pointers : No

Read offset correction : 6
Overread into Lead-In and Lead-Out : No
Fill up missing offset samples with silence : Yes
Delete leading and trailing silent blocks : No
Null samples used in CRC calculations : Yes
Used interface : Native Win32 interface for Win NT & 2000
Gap handling : Appended to previous track

Used output format : User Defined Encoder
Selected bitrate : 128 kBit/s
Quality : High
Add ID3 tag : No
Command line compressor : C:\Users\XeRo\Documents\flac.exe
Additional command line options : -V -8 -T "artist=%a" -T "title=%t" -T "album=%g" -T "date=%y" -T "tracknumber=%n" -T "genre=%m" %s

TOC of the extracted CD

Track | Start | Length | Start sector | End sector
---------------------------------------------------------
1 | 0:00.00 | 3:22.72 | 0 | 15221
2 | 3:22.72 | 4:10.00 | 15222 | 33971
3 | 7:32.72 | 3:09.44 | 33972 | 48190
4 | 10:42.41 | 5:15.34 | 48191 | 71849
5 | 15:58.00 | 6:35.30 | 71850 | 101504
6 | 22:33.30 | 3:30.44 | 101505 | 117298
7 | 26:03.74 | 3:55.50 | 117299 | 134973
8 | 29:59.49 | 3:23.60 | 134974 | 150258
9 | 33:23.34 | 4:44.46 | 150259 | 171604
10 | 38:08.05 | 6:22.44 | 171605 | 200298

Track 1

Filename C:\Users\XeRo\Documents\Godsmack - The Oracle (flac)\01 - Cryin' Like A Bitch.wav

Pre-gap length 0:00:02.00

Peak level 100.0 %
Track quality 100.0 %
Test CRC F4B6627D
Copy CRC F4B6627D
Track not present in AccurateRip database
Copy OK

Track 2

Filename C:\Users\XeRo\Documents\Godsmack - The Oracle (flac)\02 - Saints and Sinners.wav

Pre-gap length 0:00:01.22

Peak level 100.0 %
Track quality 100.0 %
Test CRC E13796E6
Copy CRC E13796E6
Track not present in AccurateRip database
Copy OK

Track 3

Filename C:\Users\XeRo\Documents\Godsmack - The Oracle (flac)\03 - War and Peace.wav

Peak level 100.0 %
Track quality 99.9 %
Test CRC DDF5E405
Copy CRC DDF5E405
Track not present in AccurateRip database
Copy OK

Track 4

Filename C:\Users\XeRo\Documents\Godsmack - The Oracle (flac)\04 - Love-Hate-Sex-Pain.wav

Pre-gap length 0:00:01.01

Peak level 100.0 %
Track quality 99.9 %
Test CRC E2C25CE3
Copy CRC E2C25CE3
Track not present in AccurateRip database
Copy OK

Track 5

Filename C:\Users\XeRo\Documents\Godsmack - The Oracle (flac)\05 - What If .wav

Peak level 100.0 %
Track quality 100.0 %
Test CRC 368627EF
Copy CRC 368627EF
Track not present in AccurateRip database
Copy OK

Track 6

Filename C:\Users\XeRo\Documents\Godsmack - The Oracle (flac)\06 - Devil's Swing.wav

Pre-gap length 0:00:02.59

Peak level 100.0 %
Track quality 100.0 %
Test CRC 35A96135
Copy CRC 35A96135
Track not present in AccurateRip database
Copy OK

Track 7

Filename C:\Users\XeRo\Documents\Godsmack - The Oracle (flac)\07 - Good Day To Die.wav

Pre-gap length 0:00:01.61

Peak level 100.0 %
Track quality 100.0 %
Test CRC A3221E9C
Copy CRC A3221E9C
Track not present in AccurateRip database
Copy OK

Track 8

Filename C:\Users\XeRo\Documents\Godsmack - The Oracle (flac)\08 - Forever Shamed.wav

Peak level 100.0 %
Track quality 100.0 %
Test CRC 4364E253
Copy CRC 4364E253
Track not present in AccurateRip database
Copy OK

Track 9

Filename C:\Users\XeRo\Documents\Godsmack - The Oracle (flac)\09 - Shadow of a Soul.wav

Peak level 100.0 %
Track quality 100.0 %
Test CRC EA17CB1C
Copy CRC EA17CB1C
Track not present in AccurateRip database
Copy OK

Track 10

Filename C:\Users\XeRo\Documents\Godsmack - The Oracle (flac)\10 - The Oracle.wav

Pre-gap length 0:00:02.63

Peak level 100.0 %
Track quality 100.0 %
Test CRC 3C28CC9B
Copy CRC 3C28CC9B
Track not present in AccurateRip database
Copy OK

None of the tracks are present in the AccurateRip database

No errors occurred

End of status report
 
REM GENRE "Hard Rock"
REM DATE 2010
REM DISCID 6F0A6E0A
REM COMMENT "ExactAudioCopy v0.99pb5"
PERFORMER "Godsmack"
TITLE "The Oracle"
FILE "01 - Cryin' Like A Bitch.wav" WAVE
TRACK 01 AUDIO
TITLE "Cryin' Like A Bitch"
PERFORMER "Godsmack"
INDEX 01 00:00:00
TRACK 02 AUDIO
TITLE "Saints and Sinners"
PERFORMER "Godsmack"
INDEX 00 03:21:50
FILE "02 - Saints and Sinners.wav" WAVE
INDEX 01 00:00:00
FILE "03 - War and Peace.wav" WAVE
TRACK 03 AUDIO
TITLE "War and Peace"
PERFORMER "Godsmack"
INDEX 01 00:00:00
TRACK 04 AUDIO
TITLE "Love-Hate-Sex-Pain"
PERFORMER "Godsmack"
INDEX 00 03:08:43
FILE "04 - Love-Hate-Sex-Pain.wav" WAVE
INDEX 01 00:00:00
FILE "05 - What If .wav" WAVE
TRACK 05 AUDIO
TITLE "What If?"
PERFORMER "Godsmack"
INDEX 01 00:00:00
TRACK 06 AUDIO
TITLE "Devil's Swing"
PERFORMER "Godsmack"
INDEX 00 06:32:46
FILE "06 - Devil's Swing.wav" WAVE
INDEX 01 00:00:00
TRACK 07 AUDIO
TITLE "Good Day To Die"
PERFORMER "Godsmack"
INDEX 00 03:28:58
FILE "07 - Good Day To Die.wav" WAVE
INDEX 01 00:00:00
FILE "08 - Forever Shamed.wav" WAVE
TRACK 08 AUDIO
TITLE "Forever Shamed"
PERFORMER "Godsmack"
INDEX 01 00:00:00
FILE "09 - Shadow of a Soul.wav" WAVE
TRACK 09 AUDIO
TITLE "Shadow of a Soul"
PERFORMER "Godsmack"
INDEX 01 00:00:00
TRACK 10 AUDIO
TITLE "The Oracle"
PERFORMER "Godsmack"
INDEX 00 04:41:58
FILE "10 - The Oracle.wav" WAVE
INDEX 01 00:00:00
 
AUDIOCHECKER v2.0 beta (build 457) - by Dester - opdester@freemail.hu
~~~~~~~~~~~~~~~~~~~~~~~~~~~~~~~~~~
-=== DO NOT EDIT THIS FILE! ===-

Path: ...\2010.05.04 - The Oracle

01 -=- 01 - Cryin' Like A Bitch.flac -=- CDDA (100%)
02 -=- 02 - Saints and Sinners.flac -=- CDDA (100%)
03 -=- 03 - War and Peace.flac -=- CDDA (100%)
04 -=- 04 - Love-Hate-Sex-Pain.flac -=- CDDA (99%)
05 -=- 05 - What If .flac -=- CDDA (100%)
06 -=- 06 - Devil's Swing.flac -=- CDDA (100%)
07 -=- 07 - Good Day To Die.flac -=- CDDA (99%)
08 -=- 08 - Forever Shamed.flac -=- CDDA (100%)
09 -=- 09 - Shadow of a Soul.flac -=- CDDA (100%)
10 -=- 10 - The Oracle.flac -=- CDDA (100%)

Summary 99,80% CDDA

20842356

EP
01. Running Blind (3:59)
02. Re-Align (4:23)
04. Voices (3:44)
05. Keep Away (4:49)
06. Spiral (5:22)
07. Asleep (3:59)
 
EAC extraction logfile from 3. September 2006, 11:00 for CD
Godsmack / The Other Side

Used drive : HL-DT-STRW/DVD GCC-4521B Adapter: 0 ID: 3
Read mode : Secure with NO C2, accurate stream, disable cache
Read offset correction : 6
Overread into Lead-In and Lead-Out : No

Used output format : Internal WAV Routines
44.100 Hz; 16 Bit; Stereo

Other options :
Fill up missing offset samples with silence : Yes
Delete leading and trailing silent blocks : No
Installed external ASPI interface

Track 1
Filename E:\Zene\Audiophile\Godsmack\(2004)The Other Side\01 - Running Blind.wav

Pre-gap length 0:00:02.00

Peak level 98.8 %
Track quality 100.0 %
Test CRC FD189127
Copy CRC FD189127
Copy OK

Track 2
Filename E:\Zene\Audiophile\Godsmack\(2004)The Other Side\02 - Re-Align.wav

Pre-gap length 0:00:01.89

Peak level 98.8 %
Track quality 100.0 %
Test CRC D8D64997
Copy CRC D8D64997
Copy OK

Track 3
Filename E:\Zene\Audiophile\Godsmack\(2004)The Other Side\03 - Touchй.wav

Pre-gap length 0:00:01.56

Peak level 98.8 %
Track quality 100.0 %
Test CRC 0E293BA9
Copy CRC 0E293BA9
Copy OK

Track 4
Filename E:\Zene\Audiophile\Godsmack\(2004)The Other Side\04 - Voices.wav

Peak level 98.8 %
Track quality 100.0 %
Test CRC 394362D2
Copy CRC 394362D2
Copy OK

Track 5
Filename E:\Zene\Audiophile\Godsmack\(2004)The Other Side\05 - Keep Away.wav

Peak level 98.8 %
Track quality 100.0 %
Test CRC C154C2F3
Copy CRC C154C2F3
Copy OK

Track 6
Filename E:\Zene\Audiophile\Godsmack\(2004)The Other Side\06 - Spiral.wav

Pre-gap length 0:00:00.26

Peak level 98.8 %
Track quality 100.0 %
Test CRC DA46552D
Copy CRC DA46552D
Copy OK

Track 7
Filename E:\Zene\Audiophile\Godsmack\(2004)The Other Side\07 - Asleep.wav

Pre-gap length 0:00:00.36

Peak level 98.8 %
Track quality 99.9 %
Test CRC 339E705E
Copy CRC 339E705E
Copy OK

No errors occured

End of status report
 
REM GENRE Rock
REM DATE 2004
REM DISCID 4D070207
REM COMMENT "ExactAudioCopy v0.95b4"
PERFORMER "Godsmack"
TITLE "The Other Side"
FILE "01 - Running Blind.wav" WAVE
TRACK 01 AUDIO
TITLE "Running Blind"
PERFORMER "Godsmack"
INDEX 01 00:00:00
TRACK 02 AUDIO
TITLE "Re-Align"
PERFORMER "Godsmack"
INDEX 00 03:57:20
FILE "02 - Re-Align.wav" WAVE
INDEX 01 00:00:00
TRACK 03 AUDIO
TITLE "Touchй"
PERFORMER "Godsmack"
INDEX 00 04:21:68
FILE "03 - Touchй.wav" WAVE
INDEX 01 00:00:00
FILE "04 - Voices.wav" WAVE
TRACK 04 AUDIO
TITLE "Voices"
PERFORMER "Godsmack"
INDEX 01 00:00:00
FILE "05 - Keep Away.wav" WAVE
TRACK 05 AUDIO
TITLE "Keep Away"
PERFORMER "Godsmack"
INDEX 01 00:00:00
TRACK 06 AUDIO
TITLE "Spiral"
PERFORMER "Godsmack"
INDEX 00 04:48:43
FILE "06 - Spiral.wav" WAVE
INDEX 01 00:00:00
TRACK 07 AUDIO
TITLE "Asleep"
PERFORMER "Godsmack"
INDEX 00 05:21:20
FILE "07 - Asleep.wav" WAVE
INDEX 01 00:00:00
 
AUDIOCHECKER v2.0 beta (build 457) - by Dester - opdester@freemail.hu
~~~~~~~~~~~~~~~~~~~~~~~~~~~~~~~~~~
-=== DO NOT EDIT THIS FILE! ===-

Path: ...\2004.03.16 - The Other Side [EP]

1 -=- 01 - Running Blind.flac -=- CDDA (100%)
2 -=- 02 - Re-Align.flac -=- CDDA (100%)
3 -=- 03 - Touche.flac -=- CDDA (100%)
4 -=- 04 - Voices.flac -=- CDDA (100%)
5 -=- 05 - Keep Away.flac -=- CDDA (100%)
6 -=- 06 - Spiral.flac -=- CDDA (100%)
7 -=- 07 - Asleep.flac -=- CDDA (100%)

Summary 100,00% CDDA

256461044

Compilation Albums
01. Good Times, Bad Times (2:58)
02. Whatever (3:26)
03. Keep Away (4:50)
04. Voodoo (4:40)
05. Bad Religion (3:13)
06. Awake (5:05)
07. Greed (3:28)
08. I Stand Alone (4:04)
09. Straight Out Of Line (4:21)
10. Serenity (4:34)
11. Realign (4:21)
12. Running Blind (3:56)
13. Touche (3:37)
14. Speak (3:56)
15. Shine Down (4:53)
16. The Enemy (4:08)
 
Exact Audio Copy V0.99 prebeta 4 from 23. January 2008

EAC extraction logfile from 26. April 2009, 12:57

Godsmack / Good Times, Bad Times ... Ten Years Of Godsmack

Used drive : MATSHITADVD-RAM UJ-841S Adapter: 1 ID: 0

Read mode : Secure
Utilize accurate stream : Yes
Defeat audio cache : Yes
Make use of C2 pointers : No

Read offset correction : 102
Overread into Lead-In and Lead-Out : No
Fill up missing offset samples with silence : Yes
Delete leading and trailing silent blocks : No
Null samples used in CRC calculations : Yes
Used interface : Native Win32 interface for Win NT & 2000
Gap handling : Appended to previous track

Used output format : User Defined Encoder
Selected bitrate : 128 kBit/s
Quality : High
Add ID3 tag : No
Command line compressor : C:\Program Files\Exact Audio Copy\Flac\flac.exe
Additional command line options : -V -8 -T "artist=%a" -T "title=%t" -T "album=%g" -T "date=%y" -T "tracknumber=%n" -T "genre=%m" %s

TOC of the extracted CD

Track | Start | Length | Start sector | End sector
---------------------------------------------------------
1 | 0:00.00 | 2:57.70 | 0 | 13344
2 | 2:57.70 | 3:26.14 | 13345 | 28808
3 | 6:24.09 | 4:50.03 | 28809 | 50561
4 | 11:14.12 | 4:40.25 | 50562 | 71586
5 | 15:54.37 | 3:12.74 | 71587 | 86060
6 | 19:07.36 | 5:04.70 | 86061 | 108930
7 | 24:12.31 | 3:28.18 | 108931 | 124548
8 | 27:40.49 | 4:03.63 | 124549 | 142836
9 | 31:44.37 | 4:21.17 | 142837 | 162428
10 | 36:05.54 | 4:34.36 | 162429 | 183014
11 | 40:40.15 | 4:20.60 | 183015 | 202574
12 | 45:01.00 | 3:55.64 | 202575 | 220263
13 | 48:56.64 | 3:37.28 | 220264 | 236566
14 | 52:34.17 | 3:55.70 | 236567 | 254261
15 | 56:30.12 | 4:52.60 | 254262 | 276221
16 | 61:22.72 | 4:08.25 | 276222 | 294846

Track 1

Filename C:\EACrips\Godsmack - 2007 - Good Times, Bad Times ... Ten Years Of Godsmack\01 - Good Times, Bad Times.wav

Pre-gap length 0:00:02.00

Peak level 98.7 %
Track quality 100.0 %
Test CRC 8AE42EBB
Copy CRC 8AE42EBB
Accurately ripped (confidence 37) [268255BA]
Copy OK

Track 2

Filename C:\EACrips\Godsmack - 2007 - Good Times, Bad Times ... Ten Years Of Godsmack\02 - Whatever.wav

Peak level 98.8 %
Track quality 99.9 %
Test CRC 689989D9
Copy CRC 689989D9
Accurately ripped (confidence 35) [22E7765D]
Copy OK

Track 3

Filename C:\EACrips\Godsmack - 2007 - Good Times, Bad Times ... Ten Years Of Godsmack\03 - Keep Away.wav

Pre-gap length 0:00:00.90

Peak level 98.8 %
Track quality 100.0 %
Test CRC 653CB370
Copy CRC 653CB370
Accurately ripped (confidence 35) [A4232228]
Copy OK

Track 4

Filename C:\EACrips\Godsmack - 2007 - Good Times, Bad Times ... Ten Years Of Godsmack\04 - Voodoo.wav

Peak level 98.8 %
Track quality 100.0 %
Test CRC 0054AA85
Copy CRC 0054AA85
Accurately ripped (confidence 35) [D0FD6853]
Copy OK

Track 5

Filename C:\EACrips\Godsmack - 2007 - Good Times, Bad Times ... Ten Years Of Godsmack\05 - Bad Religion.wav

Pre-gap length 0:00:00.48

Peak level 98.8 %
Track quality 100.0 %
Test CRC F143CE5D
Copy CRC F143CE5D
Accurately ripped (confidence 35) [8C6C033B]
Copy OK

Track 6

Filename C:\EACrips\Godsmack - 2007 - Good Times, Bad Times ... Ten Years Of Godsmack\06 - Awake.wav

Peak level 98.7 %
Track quality 100.0 %
Test CRC D0272AB9
Copy CRC D0272AB9
Accurately ripped (confidence 35) [87CE6507]
Copy OK

Track 7

Filename C:\EACrips\Godsmack - 2007 - Good Times, Bad Times ... Ten Years Of Godsmack\07 - Greed.wav

Pre-gap length 0:00:00.40

Peak level 98.8 %
Track quality 100.0 %
Test CRC 93BE8905
Copy CRC 93BE8905
Accurately ripped (confidence 35) [FC58E6D0]
Copy OK

Track 8

Filename C:\EACrips\Godsmack - 2007 - Good Times, Bad Times ... Ten Years Of Godsmack\08 - I Stand Alone.wav

Peak level 100.0 %
Track quality 100.0 %
Test CRC 146CC62F
Copy CRC 146CC62F
Accurately ripped (confidence 35) [877DCB3F]
Copy OK

Track 9

Filename C:\EACrips\Godsmack - 2007 - Good Times, Bad Times ... Ten Years Of Godsmack\09 - Straight Out Of Line.wav

Peak level 100.0 %
Track quality 100.0 %
Test CRC AFAAD004
Copy CRC AFAAD004
Accurately ripped (confidence 35) [94AE5BF1]
Copy OK

Track 10

Filename C:\EACrips\Godsmack - 2007 - Good Times, Bad Times ... Ten Years Of Godsmack\10 - Serenity.wav

Pre-gap length 0:00:01.72

Peak level 94.4 %
Track quality 100.0 %
Test CRC D7660F5C
Copy CRC D7660F5C
Accurately ripped (confidence 35) [EC360E75]
Copy OK

Track 11

Filename C:\EACrips\Godsmack - 2007 - Good Times, Bad Times ... Ten Years Of Godsmack\11 - Realign.wav

Peak level 89.1 %
Track quality 100.0 %
Test CRC C40FAEA4
Copy CRC C40FAEA4
Accurately ripped (confidence 35) [EF0B779E]
Copy OK

Track 12

Filename C:\EACrips\Godsmack - 2007 - Good Times, Bad Times ... Ten Years Of Godsmack\12 - Running Blind.wav

Peak level 98.8 %
Track quality 100.0 %
Test CRC CEBE814F
Copy CRC CEBE814F
Accurately ripped (confidence 35) [26438D64]
Copy OK

Track 13

Filename C:\EACrips\Godsmack - 2007 - Good Times, Bad Times ... Ten Years Of Godsmack\13 - Touche.wav

Peak level 98.7 %
Track quality 100.0 %
Test CRC F66896BE
Copy CRC F66896BE
Accurately ripped (confidence 35) [D74DD4F3]
Copy OK

Track 14

Filename C:\EACrips\Godsmack - 2007 - Good Times, Bad Times ... Ten Years Of Godsmack\14 - Speak.wav

Peak level 98.8 %
Track quality 100.0 %
Test CRC B0DCA35F
Copy CRC B0DCA35F
Accurately ripped (confidence 34) [4A5D7977]
Copy OK

Track 15

Filename C:\EACrips\Godsmack - 2007 - Good Times, Bad Times ... Ten Years Of Godsmack\15 - Shine Down.wav

Peak level 98.8 %
Track quality 100.0 %
Test CRC F10BBB2E
Copy CRC F10BBB2E
Accurately ripped (confidence 34) [1434249E]
Copy OK

Track 16

Filename C:\EACrips\Godsmack - 2007 - Good Times, Bad Times ... Ten Years Of Godsmack\16 - The Enemy.wav

Peak level 98.8 %
Track quality 100.0 %
Test CRC BC3DCAEA
Copy CRC BC3DCAEA
Accurately ripped (confidence 35) [3C8CD1D2]
Copy OK

All tracks accurately ripped

No errors occurred

End of status report
 
REM GENRE "Hard Rock"
REM DATE 2007
REM DISCID FA0F5B10
REM COMMENT "ExactAudioCopy v0.99pb4"
CATALOG 0602517523951
PERFORMER "Godsmack"
TITLE "Good Times, Bad Times ... Ten Years Of Godsmack"
FILE "01 - Good Times, Bad Times.wav" WAVE
TRACK 01 AUDIO
TITLE "Good Times, Bad Times"
PERFORMER "Godsmack"
ISRC USUM70757459
INDEX 01 00:00:00
FILE "02 - Whatever.wav" WAVE
TRACK 02 AUDIO
TITLE "Whatever"
PERFORMER "Godsmack"
ISRC USUM70759241
INDEX 01 00:00:00
TRACK 03 AUDIO
TITLE "Keep Away"
PERFORMER "Godsmack"
ISRC USUM70759242
INDEX 00 03:25:21
FILE "03 - Keep Away.wav" WAVE
INDEX 01 00:00:00
FILE "04 - Voodoo.wav" WAVE
TRACK 04 AUDIO
TITLE "Voodoo"
PERFORMER "Godsmack"
ISRC USUM70759243
INDEX 01 00:00:00
TRACK 05 AUDIO
TITLE "Bad Religion"
PERFORMER "Godsmack"
ISRC USUM70759244
INDEX 00 04:39:64
FILE "05 - Bad Religion.wav" WAVE
INDEX 01 00:00:00
FILE "06 - Awake.wav" WAVE
TRACK 06 AUDIO
TITLE "Awake"
PERFORMER "Godsmack"
ISRC USUM70759245
INDEX 01 00:00:00
TRACK 07 AUDIO
TITLE "Greed"
PERFORMER "Godsmack"
ISRC USUM70759246
INDEX 00 05:04:40
FILE "07 - Greed.wav" WAVE
INDEX 01 00:00:00
FILE "08 - I Stand Alone.wav" WAVE
TRACK 08 AUDIO
TITLE "I Stand Alone"
PERFORMER "Godsmack"
ISRC USUM70759247
INDEX 01 00:00:00
FILE "09 - Straight Out Of Line.wav" WAVE
TRACK 09 AUDIO
TITLE "Straight Out Of Line"
PERFORMER "Godsmack"
ISRC USUM70759248
INDEX 01 00:00:00
TRACK 10 AUDIO
TITLE "Serenity"
PERFORMER "Godsmack"
ISRC USUM70759249
INDEX 00 04:19:38
FILE "10 - Serenity.wav" WAVE
INDEX 01 00:00:00
FILE "11 - Realign.wav" WAVE
TRACK 11 AUDIO
TITLE "Realign"
PERFORMER "Godsmack"
ISRC USUM70759250
INDEX 01 00:00:00
FILE "12 - Running Blind.wav" WAVE
TRACK 12 AUDIO
TITLE "Running Blind"
PERFORMER "Godsmack"
ISRC USUM70759251
INDEX 01 00:00:00
FILE "13 - Touche.wav" WAVE
TRACK 13 AUDIO
TITLE "Touche"
PERFORMER "Godsmack"
ISRC USUM70759252
INDEX 01 00:00:00
FILE "14 - Speak.wav" WAVE
TRACK 14 AUDIO
TITLE "Speak"
PERFORMER "Godsmack"
ISRC USUM70759253
INDEX 01 00:00:00
FILE "15 - Shine Down.wav" WAVE
TRACK 15 AUDIO
TITLE "Shine Down"
PERFORMER "Godsmack"
ISRC USUM70759254
INDEX 01 00:00:00
FILE "16 - The Enemy.wav" WAVE
TRACK 16 AUDIO
TITLE "The Enemy"
PERFORMER "Godsmack"
ISRC USUM70759255
INDEX 01 00:00:00
 
AUDIOCHECKER v2.0 beta (build 457) - by Dester - opdester@freemail.hu
~~~~~~~~~~~~~~~~~~~~~~~~~~~~~~~~~~
-=== DO NOT EDIT THIS FILE! ===-

Path: ...\2007.12.04 - Good Times, Bad Times... Ten Years of Godsmack [Compilation]

01 -=- 01 - Good Times, Bad Times.flac -=- CDDA (100%)
02 -=- 02 - Whatever.flac -=- CDDA (100%)
03 -=- 03 - Keep Away.flac -=- CDDA (100%)
04 -=- 04 - Voodoo.flac -=- CDDA (100%)
05 -=- 05 - Bad Religion.flac -=- CDDA (100%)
06 -=- 06 - Awake.flac -=- CDDA (100%)
07 -=- 07 - Greed.flac -=- CDDA (100%)
08 -=- 08 - I Stand Alone.flac -=- CDDA (100%)
09 -=- 09 - Straight Out Of Line.flac -=- CDDA (100%)
10 -=- 10 - Serenity.flac -=- CDDA (100%)
11 -=- 11 - Realign.flac -=- CDDA (100%)
12 -=- 12 - Running Blind.flac -=- CDDA (100%)
13 -=- 13 - Touche.flac -=- CDDA (100%)
14 -=- 14 - Speak.flac -=- CDDA (100%)
15 -=- 15 - Shine Down.flac -=- CDDA (100%)
16 -=- 16 - The Enemy.flac -=- CDDA (100%)

Summary 100,00% CDDA

118143124

Lives
CD 1

01 - Straight Outta Line - 5:37
02 - Realign - 4:43
03 - Awake - 4:57
04 - Moon Baby - 4:53
05 - Changes - 6:03
06 - The Enemy - 4:16
07 - Keep Away - 9:51
08 - Speak - 3:50
09 - Voodoo - 4:28
10 - Batalla De Los Tambores - 6:31
11 - Whatever - 5:50
12 - Serenity - 4:41
13 - I Stand Alone - 4:58

CD 2

01 - Rocky Mountain Way - 4:01
02 - Come Together - 3:47
03 - Time - 4:13
04 - Nothing Else Matters - 6:26
 
Exact Audio Copy V1.0 beta 3 from 29. August 2011

EAC extraction logfile from 25. May 2012, 14:18

Godsmack / Live & Inspired

Used drive : PLDS DVD-ROM DH-16D2S Adapter: 2 ID: 0

Read mode : Secure
Utilize accurate stream : Yes
Defeat audio cache : Yes
Make use of C2 pointers : No

Read offset correction : 6
Overread into Lead-In and Lead-Out : No
Fill up missing offset samples with silence : Yes
Delete leading and trailing silent blocks : No
Null samples used in CRC calculations : Yes
Used interface : Native Win32 interface for Win NT & 2000
Gap handling : Appended to previous track

Used output format : User Defined Encoder
Selected bitrate : 1024 kBit/s
Quality : High
Add ID3 tag : No
Command line compressor : C:\Program Files\Exact Audio Copy\FLAC 1.2.1\flac.exe
Additional command line options : -8 -V %source%

TOC of the extracted CD

Track | Start | Length | Start sector | End sector
---------------------------------------------------------
1 | 0:00.00 | 5:37.19 | 0 | 25293
2 | 5:37.19 | 4:42.58 | 25294 | 46501
3 | 10:20.02 | 4:57.31 | 46502 | 68807
4 | 15:17.33 | 4:52.67 | 68808 | 90774
5 | 20:10.25 | 6:02.65 | 90775 | 117989
6 | 26:13.15 | 4:15.70 | 117990 | 137184
7 | 30:29.10 | 9:50.61 | 137185 | 181495
8 | 40:19.71 | 3:50.09 | 181496 | 198754
9 | 44:10.05 | 4:27.64 | 198755 | 218843
10 | 48:37.69 | 6:31.21 | 218844 | 248189
11 | 55:09.15 | 5:50.19 | 248190 | 274458
12 | 60:59.34 | 4:41.11 | 274459 | 295544
13 | 65:40.45 | 4:57.67 | 295545 | 317886

Track 1

Filename E:\FiH\Godsmack-Live_And_Inspired-2CD-FLAC-2012-FiH\101-Godsmack-Straight_Outta_Line.wav

Pre-gap length 0:00:02.00

Peak level 100.0 %
Extraction speed 2.2 X
Track quality 100.0 %
Test CRC C9AD8AEF
Copy CRC C9AD8AEF
Track not present in AccurateRip database
Copy OK

Track 2

Filename E:\FiH\Godsmack-Live_And_Inspired-2CD-FLAC-2012-FiH\102-Godsmack-Realign.wav

Peak level 100.0 %
Extraction speed 2.4 X
Track quality 100.0 %
Test CRC 76D14054
Copy CRC 76D14054
Track not present in AccurateRip database
Copy OK

Track 3

Filename E:\FiH\Godsmack-Live_And_Inspired-2CD-FLAC-2012-FiH\103-Godsmack-Awake.wav

Peak level 100.0 %
Extraction speed 2.6 X
Track quality 100.0 %
Test CRC 5542FCC1
Copy CRC 5542FCC1
Track not present in AccurateRip database
Copy OK

Track 4

Filename E:\FiH\Godsmack-Live_And_Inspired-2CD-FLAC-2012-FiH\104-Godsmack-Moon_Baby.wav

Peak level 100.0 %
Extraction speed 2.8 X
Track quality 100.0 %
Test CRC 028AB5C0
Copy CRC 028AB5C0
Track not present in AccurateRip database
Copy OK

Track 5

Filename E:\FiH\Godsmack-Live_And_Inspired-2CD-FLAC-2012-FiH\105-Godsmack-Changes.wav

Peak level 100.0 %
Extraction speed 2.8 X
Track quality 99.9 %
Test CRC AC881CDB
Copy CRC AC881CDB
Track not present in AccurateRip database
Copy OK

Track 6

Filename E:\FiH\Godsmack-Live_And_Inspired-2CD-FLAC-2012-FiH\106-Godsmack-The_Enemy.wav

Peak level 100.0 %
Extraction speed 2.8 X
Track quality 99.9 %
Test CRC 84A00585
Copy CRC 84A00585
Track not present in AccurateRip database
Copy OK

Track 7

Filename E:\FiH\Godsmack-Live_And_Inspired-2CD-FLAC-2012-FiH\107-Godsmack-Keep_Away.wav

Peak level 100.0 %
Extraction speed 3.6 X
Track quality 100.0 %
Test CRC D19A10DB
Copy CRC D19A10DB
Track not present in AccurateRip database
Copy OK

Track 8

Filename E:\FiH\Godsmack-Live_And_Inspired-2CD-FLAC-2012-FiH\108-Godsmack-Speak.wav

Peak level 99.8 %
Extraction speed 3.5 X
Track quality 100.0 %
Test CRC E78C9D3D
Copy CRC E78C9D3D
Track not present in AccurateRip database
Copy OK

Track 9

Filename E:\FiH\Godsmack-Live_And_Inspired-2CD-FLAC-2012-FiH\109-Godsmack-Voodoo.wav

Peak level 100.0 %
Extraction speed 3.7 X
Track quality 100.0 %
Test CRC CD6E3AC1
Copy CRC CD6E3AC1
Track not present in AccurateRip database
Copy OK

Track 10

Filename E:\FiH\Godsmack-Live_And_Inspired-2CD-FLAC-2012-FiH\110-Godsmack-Batalla_De_Los_Tambores.wav

Peak level 100.0 %
Extraction speed 4.0 X
Track quality 100.0 %
Test CRC 7736FA29
Copy CRC 7736FA29
Track not present in AccurateRip database
Copy OK

Track 11

Filename E:\FiH\Godsmack-Live_And_Inspired-2CD-FLAC-2012-FiH\111-Godsmack-Whatever.wav

Peak level 100.0 %
Extraction speed 3.8 X
Track quality 99.9 %
Test CRC 007BF978
Copy CRC 007BF978
Track not present in AccurateRip database
Copy OK

Track 12

Filename E:\FiH\Godsmack-Live_And_Inspired-2CD-FLAC-2012-FiH\112-Godsmack-Serenity.wav

Peak level 99.3 %
Extraction speed 4.1 X
Track quality 100.0 %
Test CRC 06B3BED9
Copy CRC 06B3BED9
Track not present in AccurateRip database
Copy OK

Track 13

Filename E:\FiH\Godsmack-Live_And_Inspired-2CD-FLAC-2012-FiH\113-Godsmack-I_Stand_Alone.wav

Peak level 99.9 %
Extraction speed 4.3 X
Track quality 100.0 %
Test CRC DDCE524F
Copy CRC DDCE524F
Track not present in AccurateRip database
Copy OK

None of the tracks are present in the AccurateRip database

No errors occurred

End of status report

==== Log checksum E4949301163529D23CDFB34A9EBAAF22D6238F42F1D5A2DCE1BFA6DA3536D9A7 ====
 
REM GENRE "Hard Rock"
REM DATE 2012
REM DISCID AA108E0D
REM COMMENT "ExactAudioCopy v1.0b3"
CATALOG 5036369755027
PERFORMER "Godsmack"
TITLE "Live & Inspired (CD 1)"
FILE "01 - Straight Outta Line.flac" FLAC
TRACK 01 AUDIO
TITLE "Straight Outta Line"
PERFORMER "Godsmack"
ISRC USUM71203656
INDEX 01 00:00:00
FILE "02 - Realign.flac" FLAC
TRACK 02 AUDIO
TITLE "Realign"
PERFORMER "Godsmack"
ISRC USUM71203657
INDEX 01 00:00:00
FILE "03 - Awake.flac" FLAC
TRACK 03 AUDIO
TITLE "Awake"
PERFORMER "Godsmack"
ISRC USUM71203658
INDEX 01 00:00:00
FILE "04 - Moon Baby.flac" FLAC
TRACK 04 AUDIO
TITLE "Moon Baby"
PERFORMER "Godsmack"
ISRC USUM71203659
INDEX 01 00:00:00
FILE "05 - Changes.flac" FLAC
TRACK 05 AUDIO
TITLE "Changes"
PERFORMER "Godsmack"
ISRC USUM71203660
INDEX 01 00:00:00
FILE "06 - The Enemy.flac" FLAC
TRACK 06 AUDIO
TITLE "The Enemy"
PERFORMER "Godsmack"
ISRC USUM71203661
INDEX 01 00:00:00
FILE "07 - Keep Away.flac" FLAC
TRACK 07 AUDIO
TITLE "Keep Away"
PERFORMER "Godsmack"
ISRC USUM71203662
INDEX 01 00:00:00
FILE "08 - Speak.flac" FLAC
TRACK 08 AUDIO
TITLE "Speak"
PERFORMER "Godsmack"
ISRC USUM71203663
INDEX 01 00:00:00
FILE "09 - Voodoo.flac" FLAC
TRACK 09 AUDIO
TITLE "Voodoo"
PERFORMER "Godsmack"
ISRC USUM71203663
INDEX 01 00:00:00
FILE "10 - Batalla De Los Tambores.flac" FLAC
TRACK 10 AUDIO
TITLE "Batalla De Los Tambores"
PERFORMER "Godsmack"
ISRC USUM71203674
INDEX 01 00:00:00
FILE "11 - Whatever.flac" FLAC
TRACK 11 AUDIO
TITLE "Whatever"
PERFORMER "Godsmack"
ISRC USUM71203675
INDEX 01 00:00:00
FILE "12 - Serenity.flac" FLAC
TRACK 12 AUDIO
TITLE "Serenity"
PERFORMER "Godsmack"
ISRC USUM71203676
INDEX 01 00:00:00
FILE "13 - I Stand Alone.flac" FLAC
TRACK 13 AUDIO
TITLE "I Stand Alone"
PERFORMER "Godsmack"
ISRC USUM71203677
INDEX 01 00:00:00
 
AUDIOCHECKER v2.0 beta (build 457) - by Dester - opdester@freemail.hu
~~~~~~~~~~~~~~~~~~~~~~~~~~~~~~~~~~

Started at: воскресенье, 24. 06. 2012. - 15:04.14
13 files found

01 -===- E:\My torrents\Godsmack - Live & Inspired (2 CD) (2012)\2012 - Live & Inspired (CD 1)\09 - Voodoo.flac
Extracted successfully
Conclusion: this track is CDDA with probability 94%
Tempfile successfully deleted.

02 -===- E:\My torrents\Godsmack - Live & Inspired (2 CD) (2012)\2012 - Live & Inspired (CD 1)\10 - Batalla De Los Tambores.flac
Extracted successfully
Conclusion: this track is CDDA with probability 100%
Tempfile successfully deleted.

03 -===- E:\My torrents\Godsmack - Live & Inspired (2 CD) (2012)\2012 - Live & Inspired (CD 1)\11 - Whatever.flac
Extracted successfully
Conclusion: this track is CDDA with probability 100%
Tempfile successfully deleted.

04 -===- E:\My torrents\Godsmack - Live & Inspired (2 CD) (2012)\2012 - Live & Inspired (CD 1)\12 - Serenity.flac
Extracted successfully
Conclusion: this track is CDDA with probability 99%
Tempfile successfully deleted.

05 -===- E:\My torrents\Godsmack - Live & Inspired (2 CD) (2012)\2012 - Live & Inspired (CD 1)\13 - I Stand Alone.flac
Extracted successfully
Conclusion: this track is CDDA with probability 100%
Tempfile successfully deleted.

06 -===- E:\My torrents\Godsmack - Live & Inspired (2 CD) (2012)\2012 - Live & Inspired (CD 1)\01 - Straight Outta Line.flac
Extracted successfully
Conclusion: this track is CDDA with probability 100%
Tempfile successfully deleted.

07 -===- E:\My torrents\Godsmack - Live & Inspired (2 CD) (2012)\2012 - Live & Inspired (CD 1)\02 - Realign.flac
Extracted successfully
Conclusion: this track is CDDA with probability 100%
Tempfile successfully deleted.

08 -===- E:\My torrents\Godsmack - Live & Inspired (2 CD) (2012)\2012 - Live & Inspired (CD 1)\03 - Awake.flac
Extracted successfully
Conclusion: this track is CDDA with probability 99%
Tempfile successfully deleted.

09 -===- E:\My torrents\Godsmack - Live & Inspired (2 CD) (2012)\2012 - Live & Inspired (CD 1)\04 - Moon Baby.flac
Extracted successfully
Conclusion: this track is CDDA with probability 100%
Tempfile successfully deleted.

10 -===- E:\My torrents\Godsmack - Live & Inspired (2 CD) (2012)\2012 - Live & Inspired (CD 1)\05 - Changes.flac
Extracted successfully
Conclusion: this track is CDDA with probability 100%
Tempfile successfully deleted.

11 -===- E:\My torrents\Godsmack - Live & Inspired (2 CD) (2012)\2012 - Live & Inspired (CD 1)\06 - The Enemy.flac
Extracted successfully
Conclusion: this track is CDDA with probability 100%
Tempfile successfully deleted.

12 -===- E:\My torrents\Godsmack - Live & Inspired (2 CD) (2012)\2012 - Live & Inspired (CD 1)\07 - Keep Away.flac
Extracted successfully
Conclusion: this track is CDDA with probability 100%
Tempfile successfully deleted.

13 -===- E:\My torrents\Godsmack - Live & Inspired (2 CD) (2012)\2012 - Live & Inspired (CD 1)\08 - Speak.flac
Extracted successfully
Conclusion: this track is CDDA with probability 99%
Tempfile successfully deleted.

Finished at: воскресенье, 24. 06. 2012. - 15:08.28 (operation time: 0:04.13)
 
Exact Audio Copy V1.0 beta 3 from 29. August 2011

EAC extraction logfile from 25. May 2012, 14:40

Godsmack / Live & Inspired

Used drive : PLDS DVD-ROM DH-16D2S Adapter: 2 ID: 0

Read mode : Secure
Utilize accurate stream : Yes
Defeat audio cache : Yes
Make use of C2 pointers : No

Read offset correction : 6
Overread into Lead-In and Lead-Out : No
Fill up missing offset samples with silence : Yes
Delete leading and trailing silent blocks : No
Null samples used in CRC calculations : Yes
Used interface : Native Win32 interface for Win NT & 2000
Gap handling : Appended to previous track

Used output format : User Defined Encoder
Selected bitrate : 1024 kBit/s
Quality : High
Add ID3 tag : No
Command line compressor : C:\Program Files\Exact Audio Copy\FLAC 1.2.1\flac.exe
Additional command line options : -8 -V %source%

TOC of the extracted CD

Track | Start | Length | Start sector | End sector
---------------------------------------------------------
1 | 0:00.00 | 4:01.14 | 0 | 18088
2 | 4:01.14 | 3:46.60 | 18089 | 35098
3 | 7:47.74 | 4:12.47 | 35099 | 54045
4 | 12:00.46 | 6:26.25 | 54046 | 83020

Track 1

Filename E:\FiH\Godsmack-Live_And_Inspired-2CD-FLAC-2012-FiH\201-Godsmack-Rocky_Mountain_Way.wav

Pre-gap length 0:00:02.00

Peak level 100.0 %
Extraction speed 1.9 X
Track quality 100.0 %
Test CRC 3B5F8128
Copy CRC 3B5F8128
Track not present in AccurateRip database
Copy OK

Track 2

Filename E:\FiH\Godsmack-Live_And_Inspired-2CD-FLAC-2012-FiH\202-Godsmack-Come_Together.wav

Pre-gap length 0:00:00.57

Peak level 100.0 %
Extraction speed 2.1 X
Track quality 100.0 %
Test CRC 32D9E2F4
Copy CRC 32D9E2F4
Track not present in AccurateRip database
Copy OK

Track 3

Filename E:\FiH\Godsmack-Live_And_Inspired-2CD-FLAC-2012-FiH\203-Godsmack-Time.wav

Pre-gap length 0:00:00.50

Peak level 100.0 %
Extraction speed 2.1 X
Track quality 99.9 %
Test CRC 1BA13ADB
Copy CRC 1BA13ADB
Track not present in AccurateRip database
Copy OK

Track 4

Filename E:\FiH\Godsmack-Live_And_Inspired-2CD-FLAC-2012-FiH\204-Godsmack-Nothing_Else_Matters.wav

Peak level 99.8 %
Extraction speed 2.7 X
Track quality 100.0 %
Test CRC CC9DAD69
Copy CRC CC9DAD69
Track not present in AccurateRip database
Copy OK

None of the tracks are present in the AccurateRip database

No errors occurred

End of status report

==== Log checksum 41B50816D1EF2F795C6DC9FC0B683E7E81ABA8B81D715416DE068AB30C5636A0 ====
 
REM GENRE "Hard Rock"
REM DATE 2012
REM DISCID 29045204
REM COMMENT "ExactAudioCopy v1.0b3"
CATALOG 5036369755027
PERFORMER "Godsmack"
TITLE "Live & Inspired (CD 2)"
FILE "01 - Rocky Mountain Way.flac" FLAC
TRACK 01 AUDIO
TITLE "Rocky Mountain Way"
PERFORMER "Godsmack"
ISRC USUM71203817
INDEX 01 00:00:00
TRACK 02 AUDIO
TITLE "Come Together"
PERFORMER "Godsmack"
ISRC USUM71203826
INDEX 00 04:00:46
FILE "02 - Come Together.flac" FLAC
INDEX 01 00:00:00
TRACK 03 AUDIO
TITLE "Time"
PERFORMER "Godsmack"
ISRC USUM71203837
INDEX 00 03:46:22
FILE "03 - Time.flac" FLAC
INDEX 01 00:00:00
FILE "04 - Nothing Else Matters.flac" FLAC
TRACK 04 AUDIO
TITLE "Nothing Else Matters"
PERFORMER "Godsmack"
ISRC USUM71203838
INDEX 01 00:00:00
 
AUDIOCHECKER v2.0 beta (build 457) - by Dester - opdester@freemail.hu
~~~~~~~~~~~~~~~~~~~~~~~~~~~~~~~~~~

Started at: воскресенье, 24. 06. 2012. - 15:14.08
4 files found

1 -===- E:\My torrents\Godsmack - Live & Inspired (2 CD) (2012)\2012 - Live & Inspired (CD 2)\02 - Come Together.flac
Extracted successfully
Conclusion: this track is CDDA with probability 100%
Tempfile successfully deleted.

2 -===- E:\My torrents\Godsmack - Live & Inspired (2 CD) (2012)\2012 - Live & Inspired (CD 2)\03 - Time.flac
Extracted successfully
Conclusion: this track is CDDA with probability 100%
Tempfile successfully deleted.

3 -===- E:\My torrents\Godsmack - Live & Inspired (2 CD) (2012)\2012 - Live & Inspired (CD 2)\04 - Nothing Else Matters.flac
Extracted successfully
Conclusion: this track is CDDA with probability 100%
Tempfile successfully deleted.

4 -===- E:\My torrents\Godsmack - Live & Inspired (2 CD) (2012)\2012 - Live & Inspired (CD 2)\01 - Rocky Mountain Way.flac
Extracted successfully
Conclusion: this track is CDDA with probability 100%
Tempfile successfully deleted.

Finished at: воскресенье, 24. 06. 2012. - 15:15.15 (operation time: 0:01.06)
info [Профиль]  [ЛС] 

post 02-Сен-2012 19:16 (спустя 8 часов) [-]0[+]

Топик был перенесен из форума Оформление раздач в форум Mеtаl (losslеss)

saGambit
 

The Buzzhorn

Пол: Пол:Муж

Стаж: 6 лет 2 месяца

Сообщений: 901

Германия
Рейтинг

post 02-Сен-2012 22:21 (спустя 11 часов) [-]0[+]

[Цитировать] 

Nice!
info [Профиль]  [ЛС] 

Raxent

Пол: Пол:Муж

Стаж: 6 лет 11 месяцев

Сообщений: 219

Рейтинг

post 02-Сен-2012 22:37 (спустя 15 минут) [-]0[+]

[Цитировать] 

Завтра, мб замучу в мп3 эту раздачу
info [Профиль]  [ЛС] 

Raxent

Пол: Пол:Муж

Стаж: 6 лет 11 месяцев

Сообщений: 219

Рейтинг

post 18-Сен-2012 19:49 (спустя 15 дней) [-]0[+]

[Цитировать] 

info [Профиль]  [ЛС] 
Показать сообщения:    
Ответить на тему

Текущее время: 06-Дек 20:08

Часовой пояс: GMT + 4



Вы не можете начинать темы
Вы не можете отвечать на сообщения
Вы не можете редактировать свои сообщения
Вы не можете удалять свои сообщения
Вы не можете голосовать в опросах
Вы не можете прикреплять файлы к сообщениям
Вы не можете скачивать файлы