Ошибка

Диктатор / The Dictator (Ларри Чарльз / Larry Charles) [2012 г., Комедия, BDRemux] [Theatrical Cut]

Ответить на тему
 
Автор Сообщение

Exille

Пол: Пол:Муж

Стаж: 6 лет 10 месяцев

Сообщений: 209

Россия
Рейтинг

post 28-Авг-2012 11:45 5[+]

[Цитировать] 

Диктатор / The Dictator
От создателей "Бората"!

pic="http://s002.youpic.su/pictures/1346097600/28323a78c83ccebd730fdddd6df6cf6c.png"
Год выпуска: 2012
Страна: США
Жанр: Комедия
Продолжительность: 01:21:38
Перевод: Профессиональный (полное дублирование) | Лицензия
Русские субтитры: присутствуют
Режиссер: Ларри Чарльз / Larry Charles
В ролях: Саша Барон Коэн, Анна Фэрис, Бен Кингсли, Саид Бадрия, Мишель Берг, Роки Ситрон, Liam Campora, Аасиф Мандви, Ризван Манжи, Рик Чэмберс, Меган Фокс, Эдвард Нортон

Описание:
  Злой и жестокий ближневосточный диктатор Вадии генерал-адмирал Алладин вынужден прибыть в Нью-Йорк, где становится жертвой заговора. Лишённый родины, друзей и сказочных богатств Алладин теперь должен отомстить врагам, найти свою любовь и спасти Вадию от наступления демократии. Фильм — настоящая бомба, ругаются немного, очень смешно + про любовь, продвинутых девушек брать обязательно.

Видеоряд от LongTom. Звуковые дорожки и субтитры от . В MKV это все собирал я.
Качество: BDRemux
Формат: MKV
Видео кодек: AVC
Аудио кодек: AC-3, DTS-HD MA
Видео: AVC, 1920x1080, ~32600 kbps, 23,976 fps
Аудио:
  • Русский: 48 kHz, AC3, 3/2 (L,C,R,l,r) + LFE ch, ~448.00 kbps avg | Русский дубляж
  • Український: 48 kHz, AC3, 3/2 (L,C,R,l,r) + LFE ch, ~448.00 kbps avg | Украинский дубляж
  • English: 48 kHz/24-bit, DTS-HD MA 5.1, ~3792.00 kbps avg | Оригинальная озвучка
Субтитры: Русские, Украинские, English
Навигация по главам: присутствует

General
Unique ID : 233248972836546010527754982676646630297 (0xAF7A1E3DA8CAA45E990248B0D8349399)
Complete name : The.Dictator.BDRemux.mkv
Format : Matroska
File size : 20.3 GiB
Duration : 1h 23mn
Overall bit rate : 34.9 Mbps
Movie name : -=Remy=- (TAPOCHEK.NET)
Encoded date : UTC 2012-08-28 17:42:50
Writing application : mkvmerge v5.7.0 ('The Whirlwind') built on Jul 8 2012 20:08:51
Writing library : libebml v1.2.3 + libmatroska v1.3.0

Video
ID : 1
Format : AVC
Format/Info : Advanced Video Codec
Format profile : High@L4.1
Format settings, CABAC : Yes
Format settings, ReFrames : 2 frames
Codec ID : V_MPEG4/ISO/AVC
Duration : 1h 23mn
Bit rate mode : Variable
Bit rate : 31.8 Mbps
Width : 1 920 pixels
Height : 1 080 pixels
Display aspect ratio : 16:9
Frame rate : 23.976 fps
Color space : YUV
Chroma subsampling : 4:2:0
Bit depth : 8 bits
Scan type : Progressive
Bits/(Pixel*Frame) : 0.639
Stream size : 18.5 GiB (91%)

Audio #1
ID : 2
Format : AC-3
Format/Info : Audio Coding 3
Mode extension : CM (complete main)
Codec ID : A_AC3
Duration : 1h 23mn
Bit rate mode : Constant
Bit rate : 448 Kbps
Channel(s) : 6 channels
Channel positions : Front: L C R, Side: L R, LFE
Sampling rate : 48.0 KHz
Bit depth : 16 bits
Compression mode : Lossy
Stream size : 267 MiB (1%)
Title : Русский дубляж (48 kHz, AC3, 3/2 (L,C,R,l,r) + LFE ch, ~448.00 kbps avg)
Language : Russian

Audio #2
ID : 3
Format : AC-3
Format/Info : Audio Coding 3
Mode extension : CM (complete main)
Codec ID : A_AC3
Duration : 1h 23mn
Bit rate mode : Constant
Bit rate : 448 Kbps
Channel(s) : 6 channels
Channel positions : Front: L C R, Side: L R, LFE
Sampling rate : 48.0 KHz
Bit depth : 16 bits
Compression mode : Lossy
Stream size : 267 MiB (1%)
Title : Украинский дубляж (48 kHz, AC3, 3/2 (L,C,R,l,r) + LFE ch, ~448.00 kbps avg)
Language : Ukrainian

Audio #3
ID : 4
Format : DTS
Format/Info : Digital Theater Systems
Format profile : MA / Core
Codec ID : A_DTS
Duration : 1h 23mn
Bit rate mode : Variable
Bit rate : 1 576 Kbps / 1 510 Kbps
Channel(s) : 6 channels
Channel positions : Front: L C R, Side: L R, LFE
Sampling rate : 48.0 KHz
Bit depth : 24 bits
Compression mode : Lossless / Lossy
Title : Оригинальная озвучка (DTS-HD Master Audio / 5.1 / 48 kHz / 3811 kbps / 24-bit (DTS Core: 5.1 / 48 kHz / 1509 kbps / 24-bit))
Language : English

Text #1
ID : 5
Format : PGS
Codec ID : S_HDMV/PGS
Codec ID/Info : The same subtitle format used on BDs/HD-DVDs
Title : Русские субтитры
Language : Russian

Text #2
ID : 6
Format : PGS
Codec ID : S_HDMV/PGS
Codec ID/Info : The same subtitle format used on BDs/HD-DVDs
Title : Украинские субтитры
Language : Ukrainian

Text #3
ID : 7
Format : UTF-8
Codec ID : S_TEXT/UTF8
Codec ID/Info : UTF-8 Plain Text
Title : Английские субтитры
Language : English

Menu
00:00:00.000 : en:00:00:00.000
00:07:11.639 : en:00:07:11.639
00:11:14.215 : en:00:11:14.215
00:16:48.466 : en:00:16:48.466
00:21:18.902 : en:00:21:18.902
00:26:36.928 : en:00:26:36.928
00:32:15.058 : en:00:32:15.058
00:38:15.752 : en:00:38:15.752
00:42:37.388 : en:00:42:37.388
00:48:46.465 : en:00:48:46.465
00:55:37.792 : en:00:55:37.792
01:01:48.705 : en:01:01:48.705
01:06:46.460 : en:01:06:46.460
01:13:32.241 : en:01:13:32.241
          

Оформление by Реми
info [Профиль]  [ЛС] 

Exille

Пол: Пол:Муж

Стаж: 6 лет 10 месяцев

Сообщений: 209

Россия
Рейтинг

post 28-Авг-2012 22:18 (спустя 10 часов) [-]0[+]

[Цитировать] 

Раздача обновлена!!!
  • Добавлены русские и украинские субтитры.
  • Добавлена дорожка с украинским дубляжом (из BDMV-ремукса от HDClub)
  • Оригинальная дорожка заменена на "48 kHz/24-bit, DTS-HD MA 5.1, ~3792.00 kbps avg" (из BDMV-ремукса от HDClub)
info [Профиль]  [ЛС] 

stavrtyndra

Пол: Пол:Муж

Стаж: 5 лет 5 месяцев

Сообщений: 14

Россия
Рейтинг

post 28-Авг-2012 22:33 (спустя 15 минут) [-]0[+]

[Цитировать] 

Отлично конечно, но я даже докачать ту не успел.
info [Профиль]  [ЛС] 

Exille

Пол: Пол:Муж

Стаж: 6 лет 10 месяцев

Сообщений: 209

Россия
Рейтинг

post 28-Авг-2012 22:46 (спустя 12 минут) [-]1[+]

[Цитировать] 

простите конечно, anime_3 но я решил что лучше сразу выложить качественный ремукс, чем ждать пока старый скачают те кому нужна украинская дорожка (а такие несомненно есть) и субтитры, к тому же раздача была золотая и рейтинг вы не потеряли
info [Профиль]  [ЛС] 

Casualties

Стаж: 6 лет 2 месяца

Сообщений: 8

Рейтинг

post 29-Авг-2012 13:17 (спустя 14 часов) [-]-2[+]

[Цитировать] 

не какчайте это бред а не фильм
info [Профиль]  [ЛС] 

DemoN91

Стаж: 6 лет

Сообщений: 439

Рейтинг

post 03-Сен-2013 00:11 (спустя 1 год) [-]0[+]

[Цитировать] 

Casualties писал(а):

это бред
на вкус и цвет фломастеры разные. Фильм отличный, я большой ценитель творчества Саши Барона Коэна. Если ты не видишь глубже тех глупых и пошлых шуток, что лежат на поверхности мне тебя жаль)

ЗЫ спасибо за раздачу!

_________________
PS3: I command you to hack yourself!
info [Профиль]  [ЛС] 

maverick1

Пол: Пол:Жен

Стаж: 3 года 3 месяца

Сообщений: 1

Рейтинг

post 13-Сен-2013 12:26 (спустя 10 дней) [-]0[+]

[Цитировать] 

DemoN91 писал(а):

Casualties писал(а):

это бред
на вкус и цвет фломастеры разные. Фильм отличный, я большой ценитель творчества Саши Барона Коэна. Если ты не видишь глубже тех глупых и пошлых шуток, что лежат на поверхности мне тебя жаль)

ЗЫ спасибо за раздачу!
Поддерживаю, Саша один из лучших комиков нашего времени, качать обязательно.
info [Профиль]  [ЛС] 
Показать сообщения:    
Ответить на тему

Текущее время: 04-Дек 16:20

Часовой пояс: GMT + 4



Вы не можете начинать темы
Вы не можете отвечать на сообщения
Вы не можете редактировать свои сообщения
Вы не можете удалять свои сообщения
Вы не можете голосовать в опросах
Вы не можете прикреплять файлы к сообщениям
Вы не можете скачивать файлы