Ошибка

Пьяный мастер / Jui kuen / Drunken Master (Юэнь Ву-Пин / Yuen Woo-ping) [1978 г., боевик, комедия, HDTVRip]

Ответить на тему
 
Автор Сообщение

Exille

Пол: Пол:Муж

Стаж: 6 лет 10 месяцев

Сообщений: 209

Россия
Рейтинг

post 24-Авг-2012 14:03 0[+]

[Цитировать] 

Пьяный мастер / Jui kuen / Drunken Master

pic="http://s002.youpic.su/pictures/1345838400/078b6a8f7a02702d2e25144883162dac.jpg"
Год выпуска: 1978
Страна: Гонконг
Жанр: Боевик, комедия
Продолжительность: 01:46:35
Перевод: Профессиональный (многоголосый, закадровый)
Русские субтитры: присутствуют
Режиссер:
  • Юэнь Ву-Пин / Yuen Woo-ping
В ролях:
  • Джеки Чан (Wong Fei-Hung), Сиу Тиен Юэнь (Su Hua Chi / Sam Seed), Янг Ли Хванг (Thunderleg), Чен Тиен Лунг (Bully), Чинг Чианг, Джинг Мэн Фанг (Mr. Li), Хсю Хсиа (King of Bamboo), Йинг Ли, Чао Лин, Линда Лин (Fei-hung's aunt), Дин Шек (Professor Kai-Hsien), Fu Tsan Shih

  Молодой Вонг Фей-Хун, будущий народный герой Китая, защитник обездоленных и обиженных, в молодости был весьма строптив и дерзок. Настолько, что отец отослал неуправляемого сына к дяде, известному мастеру кунг-фу и большому эксперту в двух вещах: распитии крепких спиртных напитков и выбивании дури из самонадеянных юнцов. Неудивительно, что герой сбегает от дяди-садиста при первой же возможности.
  Увы, тут же побитый и униженный бандитом-профи, он возвращается назад к Пьяному Мастеру. Придется ему, скрипя зубами, терпеть иезуитские методы воспитания дяди, дабы потом, постигнув все тонкости боевых искусств, отомстить своему обидчику, который, к тому же, собирается убить его отца…


Качество: HDTVRip. Исходник: HDTV 720p [HDv0T/shef2010].
Формат: MKV
Видео кодек: XviD
Аудио кодек: AC3
Видео: 720x304 (2.37:1), 25 fps, XviD build 65 ~1561 kbps avg, 0.28 bit/pixel
Аудио:
  • Русский: AC3; 48 kHz, 448 Kbps; CBR; 2 ch |Авторский одноголосый закадровый, Гоблин aka Дмитрий Пучков|
  • Русский: 48 kHz, AC3 Dolby Digital, 2/0 (L,R) ch, ~192 kbps |ОРТ|
  • Юэ: 48 kHz, AC3 Dolby Digital, 2/0 (L,R) ch, ~192 kbps |Original|
Субтитры: Русские, Русские (Гоблин), English.

General
Unique ID : 185386865691586461601252684937464076452 (0x8B78362AF8045C1EB1B0E931838758A4)
Complete name : Drunken.Master.HDRip.mkv
Format : Matroska
File size : 1.78 GiB
Duration : 1h 46mn
Overall bit rate : 2 396 Kbps
Movie name : -=Remy=- (TAPOCHEK.NET)
Encoded date : UTC 2012-08-19 18:18:56
Writing application : mkvmerge v5.7.0 ('The Whirlwind') built on Jul 8 2012 20:08:51
Writing library : libebml v1.2.3 + libmatroska v1.3.0

Video
ID : 1
Format : MPEG-4 Visual
Format profile : Advanced Simple@L5
Format settings, BVOP : Yes
Format settings, QPel : No
Format settings, GMC : No warppoints
Format settings, Matrix : Custom
Codec ID : XVID
Codec ID/Hint : XviD
Duration : 1h 46mn
Bit rate : 1 516 Kbps
Width : 720 pixels
Height : 304 pixels
Display aspect ratio : 2.35:1
Frame rate : 25.000 fps
Color space : YUV
Chroma subsampling : 4:2:0
Bit depth : 8 bits
Scan type : Progressive
Compression mode : Lossy
Bits/(Pixel*Frame) : 0.277
Stream size : 1.13 GiB (63%)
Writing library : XviD 65
Language : English

Audio #1
ID : 2
Format : AC-3
Format/Info : Audio Coding 3
Mode extension : CM (complete main)
Muxing mode : Header stripping
Codec ID : A_AC3
Duration : 1h 46mn
Bit rate mode : Constant
Bit rate : 448 Kbps
Channel(s) : 2 channels
Channel positions : Front: L R
Sampling rate : 48.0 KHz
Bit depth : 16 bits
Compression mode : Lossy
Stream size : 342 MiB (19%)
Title : Авторский (одноголосый, закадровый) - Дмитрий "Goblin" Пучков (AC3; 48 kHz, 448 Kbps; 2 ch)
Language : Russian

Audio #2
ID : 3
Format : AC-3
Format/Info : Audio Coding 3
Mode extension : CM (complete main)
Muxing mode : Header stripping
Codec ID : A_AC3
Duration : 1h 46mn
Bit rate mode : Constant
Bit rate : 192 Kbps
Channel(s) : 2 channels
Channel positions : Front: L R
Sampling rate : 48.0 KHz
Bit depth : 16 bits
Compression mode : Lossy
Stream size : 146 MiB (8%)
Title : Профессиональный (двухголосый, закадровый) - ОРТ (48 kHz, AC3, 2/0 ch, 192 kbps)
Language : Russian

Audio #3
ID : 4
Format : AC-3
Format/Info : Audio Coding 3
Mode extension : CM (complete main)
Muxing mode : Header stripping
Codec ID : A_AC3
Duration : 1h 46mn
Bit rate mode : Constant
Bit rate : 192 Kbps
Channel(s) : 2 channels
Channel positions : Front: L R
Sampling rate : 48.0 KHz
Bit depth : 16 bits
Compression mode : Lossy
Stream size : 146 MiB (8%)
Title : Оригинальная озвучка (48 kHz, AC3, 2/0 ch, 192 kbps)
Language : Chinese

Text #1
ID : 5
Format : ASS
Codec ID : S_TEXT/ASS
Codec ID/Info : Advanced Sub Station Alpha
Compression mode : Lossless
Title : Русские субтитры
Language : Russian

Text #2
ID : 6
Format : ASS
Codec ID : S_TEXT/ASS
Codec ID/Info : Advanced Sub Station Alpha
Compression mode : Lossless
Title : Русские субтитры (Гоблин)
Language : Russian

Text #3
ID : 7
Format : ASS
Codec ID : S_TEXT/ASS
Codec ID/Info : Advanced Sub Station Alpha
Compression mode : Lossless
Title : Английские субтитры
Language : English

Оформление by Реми
info [Профиль]  [ЛС] 

Ян1234

Пол: Пол:Муж

Стаж: 7 лет 5 месяцев

Сообщений: 92

Россия
Рейтинг

post 24-Авг-2012 14:52 (спустя 49 минут) [-]6[+]

[Цитировать] 

Пьяного просмотра =)

_________________
[img]custom/ub/1823025635a4591ec4461b2488019b85/5e04de1c6ae55d8bb4857411f53998b8/bar.jpg[/img]
info [Профиль]  [ЛС] 

arlekino88

Пол: Пол:Муж

Стаж: 7 лет 7 месяцев

Сообщений: 122

Россия
Рейтинг

post 24-Авг-2012 14:55 (спустя 2 минуты) [-]0[+]

[Цитировать] 

в гоблине веселее
info [Профиль]  [ЛС] 

xVitaLx

Пол: Пол:Муж

Стаж: 6 лет 7 месяцев

Сообщений: 184

Предупреждений: 2

Россия
Рейтинг

post 24-Авг-2012 15:06 (спустя 10 минут) [-]2[+]

[Цитировать] 

Блин, как же меня радует Сиу Тиен Юэнь. Зачётный старикан)) Жаль, что у него с Джеки Чаном всего две совместные работы, отличнейший дуэт.
info [Профиль]  [ЛС] 

SkyIse

Пол: Пол:Муж

Стаж: 6 лет 8 месяцев

Сообщений: 278

Япония
Рейтинг

post 24-Авг-2012 15:11 (спустя 4 минуты) [-]0[+]

[Цитировать] 

xVitaLx, 3 как минимум. но вроде даже больше

_________________
info [Профиль]  [ЛС] 

Denson77

Пол: Пол:Муж

Стаж: 4 года 11 месяцев

Сообщений: 4

Рейтинг

post 24-Авг-2012 15:20 (спустя 9 минут) [-]0[+]

[Цитировать] 

Ага на Никулина нашего похож
info [Профиль]  [ЛС] 

stepa_dv

Пол: Пол:Муж

Стаж: 5 лет

Сообщений: 42

Россия
Рейтинг

post 24-Авг-2012 15:34 (спустя 14 минут) [-]0[+]

[Цитировать] 

Супер кино ,несколько раз пересматривал, где-то на кассете есть)
info [Профиль]  [ЛС] 

arts

Пол: Пол:Муж

Стаж: 5 лет 3 месяца

Сообщений: 3

Россия
Рейтинг

post 24-Авг-2012 17:16 (спустя 1 час 41 минута) [-]0[+]

[Цитировать] 

SkyIse писал(а):

xVitaLx, 3 как минимум. но вроде даже больше
Какие, если не секрет? Хочется посмотреть.

_________________
Как говорил мой дед: "Я твой дед"
info [Профиль]  [ЛС] 

SkyIse

Пол: Пол:Муж

Стаж: 6 лет 8 месяцев

Сообщений: 278

Япония
Рейтинг

post 24-Авг-2012 20:33 (спустя 3 часа) [-]0[+]

[Цитировать] 

arts,
мастер со сломанными пальцами, и змея в тени орла еще(как то так). может еще есть, но это надо искать на кинопоиске лучше.

_________________
info [Профиль]  [ЛС] 

Moreao

Пол: Пол:Муж

Стаж: 6 лет 2 месяца

Сообщений: 229

Украина
Рейтинг

post 24-Авг-2012 22:59 (спустя 2 часа 26 минут) [-]0[+]

[Цитировать] 

змея в тени орла и еще продолжение есть, или наоборот, точно помню было 2 части
info [Профиль]  [ЛС] 

EVIL SMOK

Пол: Пол:Муж

Стаж: 6 лет 9 месяцев

Сообщений: 490

Россия
Рейтинг

post 25-Авг-2012 11:13 (спустя 12 часов) [-]1[+]

[Цитировать] 

Один из лучших фильмов с Джеки.

_________________
info [Профиль]  [ЛС] 

Exille

Пол: Пол:Муж

Стаж: 6 лет 10 месяцев

Сообщений: 209

Россия
Рейтинг

post 25-Авг-2012 11:43 (спустя 29 минут) [-]0[+]

[Цитировать] 

Moreao писал(а):

змея в тени орла и еще продолжение есть, или наоборот, точно помню было 2 части
В "Змея в тени Орла 2" нет ни Джеки Чана, ни Сиу Тиен Юэня
info [Профиль]  [ЛС] 

SkyIse

Пол: Пол:Муж

Стаж: 6 лет 8 месяцев

Сообщений: 278

Япония
Рейтинг

post 25-Авг-2012 14:01 (спустя 2 часа 18 минут) [-]0[+]

[Цитировать] 

Реми, вроде Джеки там есть. или местами он там есть. впрчоем я не смотрел, лишь видел на кинопоиске, что он там снимался.

_________________
info [Профиль]  [ЛС] 

Exille

Пол: Пол:Муж

Стаж: 6 лет 10 месяцев

Сообщений: 209

Россия
Рейтинг

post 25-Авг-2012 14:09 (спустя 8 минут) [-]0[+]

[Цитировать] 

странно только что проверил на кинопоиске - Джеки нет в списке актеров
info [Профиль]  [ЛС] 

white2491

Пол: Пол:Жен

Стаж: 5 лет 4 месяца

Сообщений: 40

Россия
Рейтинг

post 06-Янв-2015 08:09 (спустя 2 года 4 месяца) [-]0[+]

[Цитировать] 

Скорости поддайте - 2 неделя пошла Подмигиваю
info [Профиль]  [ЛС] 
Показать сообщения:    
Ответить на тему

Текущее время: 09-Дек 04:09

Часовой пояс: GMT + 4



Вы не можете начинать темы
Вы не можете отвечать на сообщения
Вы не можете редактировать свои сообщения
Вы не можете удалять свои сообщения
Вы не можете голосовать в опросах
Вы не можете прикреплять файлы к сообщениям
Вы не можете скачивать файлы