Ошибка

Голодные игры / The Hunger Games (Гэри Росс / Gary Ross) [2012, фантастика, боевик, триллер, драма, BD-Remux 1080p]

Ответить на тему
 
Автор Сообщение

Arifis

Пол: Пол:Муж

Стаж: 7 лет 3 месяца

Сообщений: 195

Россия
Рейтинг

post 19-Авг-2012 06:33 2[+]

[Цитировать] 

Голодные игры / The Hunger Games
«Да пребудет с вами удача»

Страна: США
Жанр: Фантастика, боевик, триллер, драма
Год выпуска: 2012
Продолжительность: 02:22:23
Перевод: Профессиональный (дублированный) + Любительский (одноголосый) [zamez]
Cубтитры: русские, английские, английские (SDH)
Оригинальная аудиодорожка: английский
Режиссер: Гэри Росс (Gary Ross)
В ролях: Дженнифер Лоуренс, Лиам Хемсворт, Джош Хатчерсон, Элизабет Бэнкс, Вуди Харрельсон, Стенли Туччи, Ленни Кравиц, Уэс Бентли, Дональд Сазерленд, Уиллоу Шилдс
Описание: Будущее. Деспотичное государство ежегодно устраивает показательные игры на выживание, за которыми в прямом эфире следит весь мир. Жребий участвовать в Играх выпадает юной Китнисс и тайно влюбленному в нее Питу. Они знакомы с детства, но теперь должны стать врагами. Ведь по нерушимому закону Голодных игр победить может только один из 24 участников. Судьям не важно кто выиграет, главное — зрелище. И на этот раз зрелище будет незабываемым.


Тип релиза: BDRemux 1080p
Контейнер: MKV
Видео: MPEG-4 AVC Video / 35.5 Mbps / 1080p / 23.976 fps / 16:9 / High Profile 4.1
Исходник: The.Hunger.Games.2012.BluRay.1080p.AVC.DTS-HD.MA7.1-CHDBits
Аудио #1: English: DTS-HD Master Audio 7.1 / (48 kHz / 4564 kbps / 24-bit) (DTS Core: 5.1 / 48 kHz / 1509 kbps / 24-bit) - [Original]
Аудио #2: Russian: 48 kHz, DTS, 3/2 (L,C,R,l,r) + LFE ch, ~1536.00 kbps avg - [Rus Dub]
Аудио #3: Russian: 48 kHz, AC3, 3/2 (L,C,R,l,r) + LFE ch, ~448.00 kbps avg - [VO zamez]
Формат субтитров: softsub (SRT)
Чаптеры: Сохранены оригинальные чаптеры с Blu-Ray
Сравнение Rus vs Eng трансферов


Код:

Format                           : Matroska
File size                        : 40.1 GiB
Duration                         : 2h 24mn
Overall bit rate                 : 39.8 Mbps
Movie name                       : Arifis
Encoded date                     : UTC 2012-08-19 01:46:34
Writing application              : mkvmerge v5.2.1 ('A Far Off Place') built on Jan  2 2012 23:21:10
Writing library                  : libebml v1.2.3 + libmatroska v1.3.0

Video
ID                               : 1
Format                           : AVC
Format/Info                      : Advanced Video Codec
Format profile                   : High@L4.1
Format settings, CABAC           : Yes
Format settings, ReFrames        : 4 frames
Codec ID                         : V_MPEG4/ISO/AVC
Duration                         : 2h 24mn
Bit rate mode                    : Variable
Bit rate                         : 35.5 Mbps
Maximum bit rate                 : 37.0 Mbps
Width                            : 1 920 pixels
Height                           : 1 080 pixels
Display aspect ratio             : 16:9
Frame rate                       : 23.976 fps
Color space                      : YUV
Chroma subsampling               : 4:2:0
Bit depth                        : 8 bits
Scan type                        : Progressive
Bits/(Pixel*Frame)               : 0.715
Stream size                      : 35.8 GiB (89%)

Audio #1
ID                               : 2
Format                           : DTS
Format/Info                      : Digital Theater Systems
Codec ID                         : A_DTS
Duration                         : 2h 24mn
Bit rate mode                    : Constant
Bit rate                         : 1 510 Kbps
Channel(s)                       : 6 channels
Channel positions                : Front: L C R, Side: L R, LFE
Sampling rate                    : 48.0 KHz
Bit depth                        : 16 bits
Compression mode                 : Lossy
Stream size                      : 1.52 GiB (4%)
Title                            : DTS 5.1 @ 1536 kbps - Dub
Language                         : Russian

Audio #2
ID                               : 3
Format                           : AC-3
Format/Info                      : Audio Coding 3
Mode extension                   : CM (complete main)
Codec ID                         : A_AC3
Duration                         : 2h 24mn
Bit rate mode                    : Constant
Bit rate                         : 384 Kbps
Channel(s)                       : 6 channels
Channel positions                : Front: L C R, Side: L R, LFE
Sampling rate                    : 48.0 KHz
Bit depth                        : 16 bits
Compression mode                 : Lossy
Stream size                      : 396 MiB (1%)
Title                            : AC3 5.1 @ 384 kbps - zamez
Language                         : Russian

Audio #3
ID                               : 4
Format                           : DTS
Format/Info                      : Digital Theater Systems
Format profile                   : MA / Core
Codec ID                         : A_DTS
Duration                         : 2h 24mn
Bit rate mode                    : Variable
Bit rate                         : 1 606 Kbps / 1 510 Kbps
Channel(s)                       : 8 channels / 6 channels
Channel positions                : Front: L C R, Side: L R, Back: L R, LFE / Front: L C R, Side: L R, LFE
Sampling rate                    : 48.0 KHz
Bit depth                        : 24 bits
Compression mode                 : Lossless / Lossy
Title                            : DTS-HD MA 7.1 Original @ 4564 kbps
Language                         : English

Text #1
ID                               : 5
Format                           : UTF-8
Codec ID                         : S_TEXT/UTF8
Codec ID/Info                    : UTF-8 Plain Text
Title                            : Rus Full
Language                         : Russian

Text #2
ID                               : 6
Format                           : UTF-8
Codec ID                         : S_TEXT/UTF8
Codec ID/Info                    : UTF-8 Plain Text
Title                            : Eng Full
Language                         : English

Text #3
ID                               : 7
Format                           : UTF-8
Codec ID                         : S_TEXT/UTF8
Codec ID/Info                    : UTF-8 Plain Text
Title                            : Eng SDH
Language                         : English

Menu
00:00:00.000                     : :Chapter 01
00:10:05.813                     : :Chapter 03
00:18:00.078                     : :Chapter 05
00:25:05.879                     : :Chapter 07
00:31:12.662                     : :Chapter 09
00:43:28.564                     : :Chapter 11
00:50:38.702                     : :Chapter 13
00:56:58.915                     : :Chapter 15
01:06:57.763                     : :Chapter 17
01:15:58.970                     : :Chapter 19
01:22:06.046                     : :Chapter 21
01:29:00.418                     : :Chapter 23
01:38:00.749                     : :Chapter 25
01:43:19.192                     : :Chapter 27
01:57:56.611                     : :Chapter 29
02:09:26.550                     : :Chapter 31
02:22:33.127                     : :Chapter 32


info [Профиль]  [ЛС] 

Gosha_72

Пол: Пол:Муж

Стаж: 4 года 5 месяцев

Сообщений: 2

Россия
Рейтинг

post 19-Авг-2012 10:18 (спустя 3 часа) [-]0[+]

[Цитировать] 

Есть отличие от remuxa HDChina, или качество видео одинаковое ?
info [Профиль]  [ЛС] 

Arifis

Пол: Пол:Муж

Стаж: 7 лет 3 месяца

Сообщений: 195

Россия
Рейтинг

post 19-Авг-2012 17:39 (спустя 7 часов) [-]0[+]

[Цитировать] 

Gosha_72 писал(а):

Есть отличие от remuxa HDChina, или качество видео одинаковое ?
От какого именно? http://i41.fastpic.ru/big/2012/0819/20/dcc65da0581b...4b7e0b939d20.png
У них такой же видеоряд основного блюрея

_________________
Internet Speed 100 Mbps 100 Mbps - Uptime 24/7
info [Профиль]  [ЛС] 

booa76

Пол: Пол:Муж

Стаж: 6 лет 7 месяцев

Сообщений: 43

Россия
Рейтинг

post 19-Авг-2012 18:11 (спустя 31 минута) [-]0[+]

[Цитировать] 

через жесткий на LG пойдет?
info [Профиль]  [ЛС] 

Roman0612

Пол: Пол:Муж

Стаж: 6 лет 2 месяца

Сообщений: 44

Предупреждений: 1

Россия
Рейтинг

post 29-Ноя-2013 21:50 (спустя 1 год 3 месяца) [-]0[+]

[Цитировать] 

дайте пожалуйста скорости!
info [Профиль]  [ЛС] 

Niroua

Пол: Пол:Муж

Стаж: 4 года 6 месяцев

Сообщений: 13

Украина
Рейтинг

post 10-Ноя-2014 15:30 (спустя 11 месяцев 10 дней) [-]0[+]

[Цитировать] 

кто-то посидировать может?

_________________
2500k+GTX970+8gb ram+256gb SSD+ 2*2TB
info [Профиль]  [ЛС] 

tynocmb

Пол: Пол:Муж

Стаж: 2 года

Сообщений: 2

Россия
Рейтинг

post 13-Дек-2015 11:56 (спустя 1 год 1 месяц) [-]0[+]

[Цитировать] 

дайте скорости, пожалуйста
info [Профиль]  [ЛС] 
Показать сообщения:    
Ответить на тему

Текущее время: 11-Дек 04:25

Часовой пояс: GMT + 4



Вы не можете начинать темы
Вы не можете отвечать на сообщения
Вы не можете редактировать свои сообщения
Вы не можете удалять свои сообщения
Вы не можете голосовать в опросах
Вы не можете прикреплять файлы к сообщениям
Вы не можете скачивать файлы