Ошибка

(Stoner Rock/Heavy Metal) Kyuss - Discography (8 СDs) - 1991-2000, FLAC (tracks+.cue), lossless

Ответить на тему
 
Автор Сообщение

The Buzzhorn

Пол: Пол:Муж

Стаж: 6 лет 2 месяца

Сообщений: 901

Германия
Рейтинг

post 13-Июл-2012 00:52 0[+]

[Цитировать] 

pic="http://i43.fastpic.ru/big/2012/0713/15/1d6b8acd232848a758c3660eb6c46415.jpg"


Жанр: Stoner Rock/Heavy Metal || Происхождение исполнителя: Palm Desert, California, USA || Год издания носителей: 1991-2000
Страна-производитель носителей: United States || Тип релиза: tracks+.cue || Аудио кодек: FLAC || Битрейт аудио: lossless
Год первого издания: 1991 || Лейбл: Dali, Elektra, Bong Load, Man's Ruin || Продолжительность: 5:07:24

Цитата:

Kyuss (произносится как ˈkaɪ.əs) — известная стоунер-рок-группа (Stoner Rock) из Калифорнии, США. Многими признаётся родоначальниками стоунер-рока.
Группа была образована в 1989 и первоначально носила название Sons of Kyuss. Под этим же названием был выпущен дебютный EP Sons of Kyuss. Название «Sons of Kyuss» было взято из ролевой игры Dungeons & Dragons и позже укорочено до «Kyuss». Первый состав группы выглядел следующим образом: Джон Гарсия (вокал), Джош Хомме (гитара), Ник Оливери (бас) и Брэнт Бьорк (барабаны). С этим составом Kyuss дебютировала с альбомом Wretch в 1991 году, выпущенном на Dali Records, но продажи шли медленно, даже после их живых выступлений, пользующихся популярностью. Они давали концерты по всей южной Калифорнии, зачастую на вечеринках в пустыне, которые получили название «генераторных» из-за использования бензиновых генераторов, вырабатывающих электричество для оборудования. Джош Хомме стал известен тем, что играл на электрической гитаре, пропуская звук через басовые усилители для того, чтобы получить «тяжёлый» звук. Многие могли бы посчитать их просто очередной рок-металической группой, если бы не талант Джоша Хомме и его психоделичная манера игры. Продюсером следующего альбома стал Крис Госс. Альбом был назван Blues for the Red Sun в честь пятого эпизода сериала «Космос: персональное путешествие», озаглавленного «Блюз красной планеты» (англ. Blues for a Red Planet). Альбом получил большое количество положительных отзывов и стал поворотным в истории группы.



Трэклист:
01. (Beginning Of What's About To Happen) Hwy 74 4:43
02. Love Has Passed Me By 3:12
03. Son Of A Bitch 6:03
04. Black Widow 2:44
05. Katzenjammer 2:24
06. Deadly Kiss 5:05
07. The Law 7:53
08. Isolation 2:48
09. I'm Not 4:39
10. Big Bikes 5:01
11. Stage III 4:14

Код:

Exact Audio Copy V0.99 prebeta 4 from 23. January 2008

EAC extraction logfile from 1. September 2008, 10:20

KYUSS / WRETCH

Used drive : HL-DT-STDVDRRW GSA-H30L Adapter: 0 ID: 2

Read mode : Secure
Utilize accurate stream : Yes
Defeat audio cache : Yes
Make use of C2 pointers : No

Read offset correction : 102
Overread into Lead-In and Lead-Out : No
Fill up missing offset samples with silence : Yes
Delete leading and trailing silent blocks : No
Null samples used in CRC calculations : Yes
Used interface : Installed external ASPI interface
Gap handling : Appended to previous track

Used output format : User Defined Encoder
Selected bitrate : 192 kBit/s
Quality : High
Add ID3 tag : No
Command line compressor : C:\Program Files\Exact Audio Copy\flac.exe
Additional command line options : -8 -A tukey(0.25) -A gauss(0.1875) -b 4096 -V -T "artist=%a" -T "title=%t" -T "album=%g" -T "date=%y" -T "tracknumber=%n" -T "genre=%m" %s --sector-align

TOC of the extracted CD

Track | Start | Length | Start sector | End sector
---------------------------------------------------------
1 | 0:00.33 | 4:43.30 | 33 | 21287
2 | 4:43.63 | 3:12.20 | 21288 | 35707
3 | 7:56.08 | 6:03.22 | 35708 | 62954
4 | 13:59.30 | 2:44.05 | 62955 | 75259
5 | 16:43.35 | 2:23.45 | 75260 | 86029
6 | 19:07.05 | 5:04.48 | 86030 | 108877
7 | 24:11.53 | 7:52.57 | 108878 | 144334
8 | 32:04.35 | 2:48.05 | 144335 | 156939
9 | 34:52.40 | 4:39.05 | 156940 | 177869
10 | 39:31.45 | 5:01.13 | 177870 | 200457
11 | 44:32.58 | 4:13.55 | 200458 | 219487

Track 1

Filename O:\My Music\FLAC rips\Kyuss - Wretch (FLAC)\01 - KYUSS - (Beginning Of What's About To Happen) Hwy 74.wav

Pre-gap length 0:00:02.44

Peak level 100.0 %
Track quality 99.9 %
Test CRC 09AAECB7
Copy CRC 09AAECB7
Accurately ripped (confidence 4) [B0A0B7C0]
Copy OK

Track 2

Filename O:\My Music\FLAC rips\Kyuss - Wretch (FLAC)\02 - KYUSS - Love Has Passed Me By.wav

Pre-gap length 0:00:00.80

Peak level 95.6 %
Track quality 99.9 %
Test CRC D405397F
Copy CRC D405397F
Accurately ripped (confidence 4) [9A84EDAD]
Copy OK

Track 3

Filename O:\My Music\FLAC rips\Kyuss - Wretch (FLAC)\03 - KYUSS - Son Of A Bitch.wav

Pre-gap length 0:00:00.17

Peak level 100.0 %
Track quality 100.0 %
Test CRC 904583DB
Copy CRC 904583DB
Accurately ripped (confidence 4) [A65147C6]
Copy OK

Track 4

Filename O:\My Music\FLAC rips\Kyuss - Wretch (FLAC)\04 - KYUSS - Black Widow.wav

Pre-gap length 0:00:00.56

Peak level 94.1 %
Track quality 100.0 %
Test CRC E72C7756
Copy CRC E72C7756
Accurately ripped (confidence 4) [4195AD68]
Copy OK

Track 5

Filename O:\My Music\FLAC rips\Kyuss - Wretch (FLAC)\05 - KYUSS - Katzenjammer.wav

Peak level 100.0 %
Track quality 100.0 %
Test CRC 8255E9FB
Copy CRC 8255E9FB
Accurately ripped (confidence 4) [5AFC5A31]
Copy OK

Track 6

Filename O:\My Music\FLAC rips\Kyuss - Wretch (FLAC)\06 - KYUSS - Deadly Kiss.wav

Pre-gap length 0:00:01.40

Peak level 100.0 %
Track quality 100.0 %
Test CRC 21E660CD
Copy CRC 21E660CD
Accurately ripped (confidence 4) [588A88EC]
Copy OK

Track 7

Filename O:\My Music\FLAC rips\Kyuss - Wretch (FLAC)\07 - KYUSS - The Law.wav

Pre-gap length 0:00:00.20

Peak level 99.9 %
Track quality 100.0 %
Test CRC D7874F0C
Copy CRC D7874F0C
Accurately ripped (confidence 3) [0E5EBE23]
Copy OK

Track 8

Filename O:\My Music\FLAC rips\Kyuss - Wretch (FLAC)\08 - KYUSS - Isolation.wav

Peak level 100.0 %
Track quality 100.0 %
Test CRC C5EBB7DD
Copy CRC C5EBB7DD
Accurately ripped (confidence 2) [72851A8B]
Copy OK

Track 9

Filename O:\My Music\FLAC rips\Kyuss - Wretch (FLAC)\09 - KYUSS - I'm Not.wav

Peak level 100.0 %
Track quality 100.0 %
Test CRC 618CCBEF
Copy CRC 618CCBEF
Accurately ripped (confidence 2) [7B5C131E]
Copy OK

Track 10

Filename O:\My Music\FLAC rips\Kyuss - Wretch (FLAC)\10 - KYUSS - Big Bikes.wav

Peak level 100.0 %
Track quality 99.9 %
Test CRC D98D82D6
Copy CRC D98D82D6
Accurately ripped (confidence 2) [72FAABE5]
Copy OK

Track 11

Filename O:\My Music\FLAC rips\Kyuss - Wretch (FLAC)\11 - KYUSS - Stage III.wav

Peak level 99.9 %
Track quality 100.0 %
Test CRC 1284D122
Copy CRC 1284D122
Accurately ripped (confidence 2) [9446A5F7]
Copy OK

All tracks accurately ripped

No errors occurred

End of status report

Код:

REM GENRE "Stoner Rock"
REM DATE 1991
REM DISCID 960B6E0B
REM COMMENT "ExactAudioCopy v0.99pb4"
PERFORMER "KYUSS"
TITLE "WRETCH"
FILE "01 - KYUSS - (Beginning Of What's About To Happen) Hwy 74.wav" WAVE
TRACK 01 AUDIO
TITLE "(Beginning Of What's About To Happen) Hwy 74"
PERFORMER "KYUSS"
PREGAP 00:00:33
INDEX 01 00:00:00
TRACK 02 AUDIO
TITLE "Love Has Passed Me By"
PERFORMER "KYUSS"
INDEX 00 04:42:45
FILE "02 - KYUSS - Love Has Passed Me By.wav" WAVE
INDEX 01 00:00:00
TRACK 03 AUDIO
TITLE "Son Of A Bitch"
PERFORMER "KYUSS"
INDEX 00 03:12:07
FILE "03 - KYUSS - Son Of A Bitch.wav" WAVE
INDEX 01 00:00:00
TRACK 04 AUDIO
TITLE "Black Widow"
PERFORMER "KYUSS"
INDEX 00 06:02:55
FILE "04 - KYUSS - Black Widow.wav" WAVE
INDEX 01 00:00:00
INDEX 02 02:42:73
FILE "05 - KYUSS - Katzenjammer.wav" WAVE
TRACK 05 AUDIO
TITLE "Katzenjammer"
PERFORMER "KYUSS"
INDEX 01 00:00:00
TRACK 06 AUDIO
TITLE "Deadly Kiss"
PERFORMER "KYUSS"
INDEX 00 02:22:15
FILE "06 - KYUSS - Deadly Kiss.wav" WAVE
INDEX 01 00:00:00
TRACK 07 AUDIO
TITLE "The Law"
PERFORMER "KYUSS"
INDEX 00 05:04:33
FILE "07 - KYUSS - The Law.wav" WAVE
INDEX 01 00:00:00
FILE "08 - KYUSS - Isolation.wav" WAVE
TRACK 08 AUDIO
TITLE "Isolation"
PERFORMER "KYUSS"
INDEX 01 00:00:00
FILE "09 - KYUSS - I'm Not.wav" WAVE
TRACK 09 AUDIO
TITLE "I'm Not"
PERFORMER "KYUSS"
INDEX 01 00:00:00
FILE "10 - KYUSS - Big Bikes.wav" WAVE
TRACK 10 AUDIO
TITLE "Big Bikes"
PERFORMER "KYUSS"
INDEX 01 00:00:00
FILE "11 - KYUSS - Stage III.wav" WAVE
TRACK 11 AUDIO
TITLE "Stage III"
PERFORMER "KYUSS"
INDEX 01 00:00:00
Трэклист:
01. Thumb 4:42
02. Green Machine 3:38
03. Molten Universe 2:50
04. 50 Million Year Trip (Downside Up) 5:52
05. Thong Song 3:47
06. Apothecaries' Weight 5:21
07. Caterpillar March 1:56
08. Freedom Run 7:37
09. 800 1:34
10. Writhe 3:42
11. Capsized 0:56
12. Allen's Wrench 2:44
13. Mondo Generator 6:16
14. Yeah 0:04

Код:

EAC extraction logfile from 16. April 2007, 17:02 for CD
KYUSS / BLUES FOR THE RED SUN

Used drive : IDE-DVD DROM6216 Adapter: 4 ID: 1
Read mode : Secure with NO C2, accurate stream, disable cache
Read offset correction : 738
Overread into Lead-In and Lead-Out : No

Used output format : C:\Program Files\FLAC\flac.exe (User Defined Encoder)
128 kBit/s
Additional command line options : -V -8 -T "artist=%a" -T "title=%t" -T "album=%g" -T "date=%y" -T "tracknumber=%n" -T "genre=%m" %s

Other options :
Fill up missing offset samples with silence : Yes
Delete leading and trailing silent blocks : No
Native Win32 interface for Win NT & 2000

Track 1
Filename C:\Documents and Settings\HP_Owner\My Documents\EAC\KYUSS\BLUES FOR THE RED SUN\01 - Thumb.wav

Pre-gap length 0:00:02.42

Peak level 95.0 %
Track quality 99.9 %
Test CRC 09C80A05
Copy CRC 09C80A05
Copy OK

Track 2
Filename C:\Documents and Settings\HP_Owner\My Documents\EAC\KYUSS\BLUES FOR THE RED SUN\02 - Green Machine.wav

Peak level 95.0 %
Track quality 100.0 %
Test CRC 38C0851D
Copy CRC 38C0851D
Copy OK

Track 3
Filename C:\Documents and Settings\HP_Owner\My Documents\EAC\KYUSS\BLUES FOR THE RED SUN\03 - Molten Universe.wav

Peak level 95.0 %
Track quality 100.0 %
Test CRC 3FEF95C9
Copy CRC 3FEF95C9
Copy OK

Track 4
Filename C:\Documents and Settings\HP_Owner\My Documents\EAC\KYUSS\BLUES FOR THE RED SUN\04 - 50 Million Year Trip (Downside Up).wav

Peak level 95.0 %
Track quality 100.0 %
Test CRC C8EFE37F
Copy CRC C8EFE37F
Copy OK

Track 5
Filename C:\Documents and Settings\HP_Owner\My Documents\EAC\KYUSS\BLUES FOR THE RED SUN\05 - Thong Song.wav

Peak level 95.0 %
Track quality 99.9 %
Test CRC 1063E06A
Copy CRC 1063E06A
Copy OK

Track 6
Filename C:\Documents and Settings\HP_Owner\My Documents\EAC\KYUSS\BLUES FOR THE RED SUN\06 - Apothecaries' Weight.wav

Peak level 95.0 %
Track quality 100.0 %
Test CRC A24B4FE8
Copy CRC A24B4FE8
Copy OK

Track 7
Filename C:\Documents and Settings\HP_Owner\My Documents\EAC\KYUSS\BLUES FOR THE RED SUN\07 - Caterpillar March.wav

Pre-gap length 0:00:00.26

Peak level 95.8 %
Track quality 100.0 %
Test CRC C40F35B6
Copy CRC C40F35B6
Copy OK

Track 8
Filename C:\Documents and Settings\HP_Owner\My Documents\EAC\KYUSS\BLUES FOR THE RED SUN\08 - Freedom Run.wav

Peak level 97.7 %
Track quality 100.0 %
Test CRC C40910F8
Copy CRC C40910F8
Copy OK

Track 9
Filename C:\Documents and Settings\HP_Owner\My Documents\EAC\KYUSS\BLUES FOR THE RED SUN\09 - 800.wav

Peak level 92.3 %
Track quality 100.0 %
Test CRC FCB7C52C
Copy CRC FCB7C52C
Copy OK

Track 10
Filename C:\Documents and Settings\HP_Owner\My Documents\EAC\KYUSS\BLUES FOR THE RED SUN\10 - Writhe.wav

Peak level 89.0 %
Track quality 100.0 %
Test CRC 85AFBC43
Copy CRC 85AFBC43
Copy OK

Track 11
Filename C:\Documents and Settings\HP_Owner\My Documents\EAC\KYUSS\BLUES FOR THE RED SUN\11 - Capsized.wav

Pre-gap length 0:00:03.13

Peak level 73.9 %
Track quality 100.0 %
Test CRC 1582DFB4
Copy CRC 1582DFB4
Copy OK

Track 12
Filename C:\Documents and Settings\HP_Owner\My Documents\EAC\KYUSS\BLUES FOR THE RED SUN\12 - Allen's Wrench.wav

Pre-gap length 0:00:00.36

Peak level 88.9 %
Track quality 100.0 %
Test CRC DEF372AD
Copy CRC DEF372AD
Copy OK

Track 13
Filename C:\Documents and Settings\HP_Owner\My Documents\EAC\KYUSS\BLUES FOR THE RED SUN\13 - Mondo Generator.wav

Peak level 76.3 %
Track quality 99.9 %
Test CRC 654EB346
Copy CRC 654EB346
Copy OK

Track 14
Filename C:\Documents and Settings\HP_Owner\My Documents\EAC\KYUSS\BLUES FOR THE RED SUN\14 - Yeah.wav

Pre-gap length 0:00:01.13

Peak level 16.2 %
Track quality 100.0 %
Test CRC 7F671DB6
Copy CRC 7F671DB6
Copy OK

No errors occured

End of status report

Код:

REM GENRE "Stoner Rock"
REM DATE 1992
REM DISCID B30BF40E
REM COMMENT "ExactAudioCopy v0.95b4"
PERFORMER "KYUSS"
TITLE "BLUES FOR THE RED SUN"
FILE "KYUSS\BLUES FOR THE RED SUN\01 - Thumb.wav" WAVE
TRACK 01 AUDIO
TITLE "Thumb"
PERFORMER "KYUSS"
PREGAP 00:00:32
INDEX 01 00:00:00
FILE "KYUSS\BLUES FOR THE RED SUN\02 - Green Machine.wav" WAVE
TRACK 02 AUDIO
TITLE "Green Machine"
PERFORMER "KYUSS"
INDEX 01 00:00:00
FILE "KYUSS\BLUES FOR THE RED SUN\03 - Molten Universe.wav" WAVE
TRACK 03 AUDIO
TITLE "Molten Universe"
PERFORMER "KYUSS"
INDEX 01 00:00:00
FILE "KYUSS\BLUES FOR THE RED SUN\04 - 50 Million Year Trip (Downside Up).wav" WAVE
TRACK 04 AUDIO
TITLE "50 Million Year Trip (Downside Up)"
PERFORMER "KYUSS"
INDEX 01 00:00:00
FILE "KYUSS\BLUES FOR THE RED SUN\05 - Thong Song.wav" WAVE
TRACK 05 AUDIO
TITLE "Thong Song"
PERFORMER "KYUSS"
INDEX 01 00:00:00
FILE "KYUSS\BLUES FOR THE RED SUN\06 - Apothecaries' Weight.wav" WAVE
TRACK 06 AUDIO
TITLE "Apothecaries' Weight"
PERFORMER "KYUSS"
INDEX 01 00:00:00
TRACK 07 AUDIO
TITLE "Caterpillar March"
PERFORMER "KYUSS"
INDEX 00 05:21:00
FILE "KYUSS\BLUES FOR THE RED SUN\07 - Caterpillar March.wav" WAVE
INDEX 01 00:00:00
FILE "KYUSS\BLUES FOR THE RED SUN\08 - Freedom Run.wav" WAVE
TRACK 08 AUDIO
TITLE "Freedom Run"
PERFORMER "KYUSS"
INDEX 01 00:00:00
FILE "KYUSS\BLUES FOR THE RED SUN\09 - 800.wav" WAVE
TRACK 09 AUDIO
TITLE "800"
PERFORMER "KYUSS"
INDEX 01 00:00:00
FILE "KYUSS\BLUES FOR THE RED SUN\10 - Writhe.wav" WAVE
TRACK 10 AUDIO
TITLE "Writhe"
PERFORMER "KYUSS"
INDEX 01 00:00:00
TRACK 11 AUDIO
TITLE "Capsized"
PERFORMER "KYUSS"
INDEX 00 03:39:12
FILE "KYUSS\BLUES FOR THE RED SUN\11 - Capsized.wav" WAVE
INDEX 01 00:00:00
TRACK 12 AUDIO
TITLE "Allen's Wrench"
PERFORMER "KYUSS"
INDEX 00 00:55:23
FILE "KYUSS\BLUES FOR THE RED SUN\12 - Allen's Wrench.wav" WAVE
INDEX 01 00:00:00
FILE "KYUSS\BLUES FOR THE RED SUN\13 - Mondo Generator.wav" WAVE
TRACK 13 AUDIO
TITLE "Mondo Generator"
PERFORMER "KYUSS"
INDEX 01 00:00:00
TRACK 14 AUDIO
TITLE "Yeah"
PERFORMER "KYUSS"
INDEX 00 06:14:30
FILE "KYUSS\BLUES FOR THE RED SUN\14 - Yeah.wav" WAVE
INDEX 01 00:00:00
Трэклист:
01. Gardenia 6:54
02. Asteroid 4:49
03. Supa Scoopa and Mighty Scoop 6:03
04. 100о 2:29
05. Space Cadet 7:03
06. Demon Cleaner 5:19
07. Odyssey 4:20
08. Conan Troutman 2:12
09. N.O. 3:48
10. Whitewater 8:58

Код:

Exact Audio Copy V0.99 prebeta 3 from 28. July 2007

EAC extraction logfile from 25. October 2008, 4:53

Kyuss / Welcome to Sky Valley

Used drive : HL-DT-STCD-RW GCE-8481B Adapter: 1 ID: 0

Read mode : Secure
Utilize accurate stream : Yes
Defeat audio cache : Yes
Make use of C2 pointers : No

Read offset correction : 6
Overread into Lead-In and Lead-Out : No
Fill up missing offset samples with silence : Yes
Delete leading and trailing silent blocks : No
Null samples used in CRC calculations : Yes
Used interface : Installed external ASPI interface
Gap handling : Appended to previous track

Used output format : User Defined Encoder
Selected bitrate : 192 kBit/s
Quality : High
Add ID3 tag : No
Command line compressor : C:\Program Files\Exact Audio Copy\flac.exe
Additional command line options : -8 -A tukey(0.25) -A gauss(0.1875) -b 4096 -V -T "artist=%a" -T "title=%t" -T "album=%g" -T "date=%y" -T "tracknumber=%n" -T "genre=%m" %s --sector-align

TOC of the extracted CD

Track | Start | Length | Start sector | End sector
---------------------------------------------------------
1 | 0:00.00 | 6:53.73 | 0 | 31047
2 | 6:53.73 | 4:48.70 | 31048 | 52717
3 | 11:42.68 | 6:03.22 | 52718 | 79964
4 | 17:46.15 | 2:29.00 | 79965 | 91139
5 | 20:15.15 | 7:02.40 | 91140 | 122829
6 | 27:17.55 | 5:19.23 | 122830 | 146777
7 | 32:37.03 | 4:19.62 | 146778 | 166264
8 | 36:56.65 | 2:11.58 | 166265 | 176147
9 | 39:08.48 | 3:47.62 | 176148 | 193234
10 | 42:56.35 | 8:58.10 | 193235 | 233594

Track 1

Filename G:\Music\Kyuss\Kyuss - (1994) Welcome to Sky Valley (FLAC)\01. Gardenia.wav

Pre-gap length 0:00:02.00

Peak level 94.3 %
Track quality 100.0 %
Test CRC B2AB8C76
Copy CRC B2AB8C76
Accurately ripped (confidence 29) [11A8EFAF]
Copy OK

Track 2

Filename G:\Music\Kyuss\Kyuss - (1994) Welcome to Sky Valley (FLAC)\02. Asteroid.wav

Peak level 99.9 %
Track quality 100.0 %
Test CRC 9D786CF3
Copy CRC 9D786CF3
Accurately ripped (confidence 26) [E165D4E9]
Copy OK

Track 3

Filename G:\Music\Kyuss\Kyuss - (1994) Welcome to Sky Valley (FLAC)\03. Supa Scoopa and Mighty Scoop.wav

Peak level 99.7 %
Track quality 100.0 %
Test CRC 83D5227D
Copy CRC 83D5227D
Accurately ripped (confidence 28) [98F2F01B]
Copy OK

Track 4

Filename G:\Music\Kyuss\Kyuss - (1994) Welcome to Sky Valley (FLAC)\04. 100°.wav

Pre-gap length 0:00:07.09

Peak level 99.4 %
Track quality 100.0 %
Test CRC 124E86AA
Copy CRC 124E86AA
Accurately ripped (confidence 27) [3F7817BA]
Copy OK

Track 5

Filename G:\Music\Kyuss\Kyuss - (1994) Welcome to Sky Valley (FLAC)\05. Space Cadet.wav

Peak level 97.1 %
Track quality 100.0 %
Test CRC B35E6F9D
Copy CRC B35E6F9D
Accurately ripped (confidence 26) [5947AD48]
Copy OK

Track 6

Filename G:\Music\Kyuss\Kyuss - (1994) Welcome to Sky Valley (FLAC)\06. Demon Cleaner.wav

Peak level 96.4 %
Track quality 100.0 %
Test CRC B828D88F
Copy CRC B828D88F
Accurately ripped (confidence 28) [95C3F045]
Copy OK

Track 7

Filename G:\Music\Kyuss\Kyuss - (1994) Welcome to Sky Valley (FLAC)\07. Odyssey.wav

Pre-gap length 0:00:07.40

Peak level 99.6 %
Track quality 100.0 %
Test CRC F531AFD8
Copy CRC F531AFD8
Accurately ripped (confidence 27) [90D8B65A]
Copy OK

Track 8

Filename G:\Music\Kyuss\Kyuss - (1994) Welcome to Sky Valley (FLAC)\08. Conan Troutman.wav

Peak level 95.2 %
Track quality 100.0 %
Test CRC 5AF30224
Copy CRC 5AF30224
Accurately ripped (confidence 26) [8580C26B]
Copy OK

Track 9

Filename G:\Music\Kyuss\Kyuss - (1994) Welcome to Sky Valley (FLAC)\09. N.O..wav

Peak level 93.5 %
Track quality 100.0 %
Test CRC B6C6A1EB
Copy CRC B6C6A1EB
Accurately ripped (confidence 26) [6AFA32A6]
Copy OK

Track 10

Filename G:\Music\Kyuss\Kyuss - (1994) Welcome to Sky Valley (FLAC)\10. Whitewater.wav

Peak level 97.4 %
Track quality 100.0 %
Test CRC 4D018E8B
Copy CRC 4D018E8B
Accurately ripped (confidence 27) [905CA123]
Copy OK

All tracks accurately ripped

No errors occurred

End of status report

Код:

REM DATE 1994
REM DISCID 890C2A0A
REM COMMENT "ExactAudioCopy v0.99pb3"
PERFORMER "Kyuss"
TITLE "Welcome to Sky Valley"
FILE "01. Gardenia.wav" WAVE
TRACK 01 AUDIO
TITLE "Gardenia"
PERFORMER "Kyuss"
INDEX 01 00:00:00
FILE "02. Asteroid.wav" WAVE
TRACK 02 AUDIO
TITLE "Asteroid"
PERFORMER "Kyuss"
INDEX 01 00:00:00
FILE "03. Supa Scoopa and Mighty Scoop.wav" WAVE
TRACK 03 AUDIO
TITLE "Supa Scoopa and Mighty Scoop"
PERFORMER "Kyuss"
INDEX 01 00:00:00
TRACK 04 AUDIO
TITLE "100°"
PERFORMER "Kyuss"
INDEX 00 05:56:15
FILE "04. 100°.wav" WAVE
INDEX 01 00:00:00
FILE "05. Space Cadet.wav" WAVE
TRACK 05 AUDIO
TITLE "Space Cadet"
PERFORMER "Kyuss"
INDEX 01 00:00:00
FILE "06. Demon Cleaner.wav" WAVE
TRACK 06 AUDIO
TITLE "Demon Cleaner"
PERFORMER "Kyuss"
INDEX 01 00:00:00
TRACK 07 AUDIO
TITLE "Odyssey"
PERFORMER "Kyuss"
INDEX 00 05:11:68
FILE "07. Odyssey.wav" WAVE
INDEX 01 00:00:00
FILE "08. Conan Troutman.wav" WAVE
TRACK 08 AUDIO
TITLE "Conan Troutman"
PERFORMER "Kyuss"
INDEX 01 00:00:00
FILE "09. N.O..wav" WAVE
TRACK 09 AUDIO
TITLE "N.O."
PERFORMER "Kyuss"
INDEX 01 00:00:00
FILE "10. Whitewater.wav" WAVE
TRACK 10 AUDIO
TITLE "Whitewater"
PERFORMER "Kyuss"
INDEX 01 00:00:00
Трэклист:
01. Hurricane 2:42
02. One Inch Man 3:31
03. Thee Ol' Boozeroony 2:47
04. Gloria Lewis 4:02
05. Phototropic 5:13
06. El Rodeo 5:36
07. Jumbo Blimp Jumbo 4:40
08. Tangy Zizzle 2:39
09. Size Queen 3:47
10. Catamaran 3:00
11. Spaceship Landing 34:04

Код:

EAC extraction logfile from 20. May 2006, 15:41 for CD
Kyuss / ... And the Circus Leaves Town

Used drive : TSSTcorpCD/DVDW TS-H552L Adapter: 5 ID: 0
Read mode : Secure with NO C2, accurate stream, disable cache
Read offset correction : 6
Overread into Lead-In and Lead-Out : No

Used output format : C:\Program Files\FLAC\flac.exe (User Defined Encoder)
128 kBit/s
Additional command line options : -V -8 -T "artist=%a" -T "title=%t" -T "album=%g" -T "date=%y" -T "tracknumber=%n" -T "genre=%m" %s

Other options :
Fill up missing offset samples with silence : Yes
Delete leading and trailing silent blocks : No
Native Win32 interface for Win NT & 2000

Track 1
Filename C:\Documents and Settings\All Users\Documents\Kyuss - And The Circus Leaves Town\01 - Hurricane.wav

Pre-gap length 0:00:02.42

Peak level 100.0 %
Track quality 100.0 %
Test CRC A83FA2F4
Copy CRC A83FA2F4
Copy OK

Track 2
Filename C:\Documents and Settings\All Users\Documents\Kyuss - And The Circus Leaves Town\02 - One Inch Man.wav

Pre-gap length 0:00:00.14

Peak level 94.4 %
Track quality 100.0 %
Test CRC 031E6E61
Copy CRC 031E6E61
Copy OK

Track 3
Filename C:\Documents and Settings\All Users\Documents\Kyuss - And The Circus Leaves Town\03 - Thee Ol' Boozeroony.wav

Pre-gap length 0:00:00.41

Peak level 94.4 %
Track quality 99.9 %
Test CRC C5713003
Copy CRC C5713003
Copy OK

Track 4
Filename C:\Documents and Settings\All Users\Documents\Kyuss - And The Circus Leaves Town\04 - Gloria Lewis.wav

Pre-gap length 0:00:00.10

Peak level 100.0 %
Track quality 100.0 %
Test CRC E0B46F9D
Copy CRC E0B46F9D
Copy OK

Track 5
Filename C:\Documents and Settings\All Users\Documents\Kyuss - And The Circus Leaves Town\05 - Phototropic.wav

Peak level 94.4 %
Track quality 99.9 %
Test CRC F006358D
Copy CRC F006358D
Copy OK

Track 6
Filename C:\Documents and Settings\All Users\Documents\Kyuss - And The Circus Leaves Town\06 - El Rodeo.wav

Pre-gap length 0:00:00.40

Peak level 94.4 %
Track quality 100.0 %
Test CRC F9EAED70
Copy CRC F9EAED70
Copy OK

Track 7
Filename C:\Documents and Settings\All Users\Documents\Kyuss - And The Circus Leaves Town\07 - Jumbo Blimp Jumbo.wav

Pre-gap length 0:00:00.97

Peak level 94.4 %
Track quality 100.0 %
Test CRC 5FC3E947
Copy CRC 5FC3E947
Copy OK

Track 8
Filename C:\Documents and Settings\All Users\Documents\Kyuss - And The Circus Leaves Town\08 - Tangy Zizzle.wav

Pre-gap length 0:00:01.77

Peak level 94.4 %
Track quality 99.9 %
Test CRC FBB2F246
Copy CRC FBB2F246
Copy OK

Track 9
Filename C:\Documents and Settings\All Users\Documents\Kyuss - And The Circus Leaves Town\09 - Size Queen.wav

Pre-gap length 0:00:00.17

Peak level 100.0 %
Track quality 100.0 %
Test CRC FDB17BB0
Copy CRC FDB17BB0
Copy OK

Track 10
Filename C:\Documents and Settings\All Users\Documents\Kyuss - And The Circus Leaves Town\10 - Catamaran.wav

Pre-gap length 0:00:00.29

Peak level 94.4 %
Track quality 100.0 %
Test CRC 0406B116
Copy CRC 0406B116
Copy OK

Track 11
Filename C:\Documents and Settings\All Users\Documents\Kyuss - And The Circus Leaves Town\11 - Spaceship Landing.wav

Pre-gap length 0:00:01.02

Peak level 94.4 %
Track quality 100.0 %
Test CRC 0936798A
Copy CRC 0936798A
Copy OK

No errors occured

End of status report

Код:

REM GENRE Metal
REM DATE 1995
REM DISCID 9A10E00B
REM COMMENT "ExactAudioCopy v0.95b4"
PERFORMER "Kyuss"
TITLE "... And the Circus Leaves Town"
FILE "01 - Hurricane.wav" WAVE
TRACK 01 AUDIO
TITLE "Hurricane"
PERFORMER "Kyuss"
PREGAP 00:00:32
INDEX 01 00:00:00
TRACK 02 AUDIO
TITLE "One Inch Man"
PERFORMER "Kyuss"
INDEX 00 02:41:57
FILE "02 - One Inch Man.wav" WAVE
INDEX 01 00:00:00
TRACK 03 AUDIO
TITLE "Thee Ol' Boozeroony"
PERFORMER "Kyuss"
INDEX 00 03:30:24
FILE "03 - Thee Ol' Boozeroony.wav" WAVE
INDEX 01 00:00:00
TRACK 04 AUDIO
TITLE "Gloria Lewis"
PERFORMER "Kyuss"
INDEX 00 02:47:17
FILE "04 - Gloria Lewis.wav" WAVE
INDEX 01 00:00:00
FILE "05 - Phototropic.wav" WAVE
TRACK 05 AUDIO
TITLE "Phototropic"
PERFORMER "Kyuss"
INDEX 01 00:00:00
TRACK 06 AUDIO
TITLE "El Rodeo"
PERFORMER "Kyuss"
INDEX 00 05:13:02
FILE "06 - El Rodeo.wav" WAVE
INDEX 01 00:00:00
TRACK 07 AUDIO
TITLE "Jumbo Blimp Jumbo"
PERFORMER "Kyuss"
INDEX 00 05:34:47
FILE "07 - Jumbo Blimp Jumbo.wav" WAVE
INDEX 01 00:00:00
TRACK 08 AUDIO
TITLE "Tangy Zizzle"
PERFORMER "Kyuss"
INDEX 00 04:37:62
FILE "08 - Tangy Zizzle.wav" WAVE
INDEX 01 00:00:00
TRACK 09 AUDIO
TITLE "Size Queen"
PERFORMER "Kyuss"
INDEX 00 02:38:65
FILE "09 - Size Queen.wav" WAVE
INDEX 01 00:00:00
TRACK 10 AUDIO
TITLE "Catamaran"
PERFORMER "Kyuss"
INDEX 00 03:46:23
FILE "10 - Catamaran.wav" WAVE
INDEX 01 00:00:00
TRACK 11 AUDIO
TITLE "Spaceship Landing"
PERFORMER "Kyuss"
INDEX 00 02:58:60
FILE "11 - Spaceship Landing.wav" WAVE
INDEX 01 00:00:00
Трэклист:
01. One Inch Man 3:33
02. Flip The Phase 2:18
03. Mudfly 2:29
04. A Day Early And A Dollar Extra 2:17

Код:

Exact Audio Copy V0.99 prebeta 3 from 28. July 2007

EAC extraction logfile from 23. January 2008, 1:29

Kyuss / One Inch Man

Used drive : HL-DT-STDVDRAM GSA-4082B Adapter: 1 ID: 1

Read mode : Secure
Utilize accurate stream : Yes
Defeat audio cache : Yes
Make use of C2 pointers : No

Read offset correction : 667
Overread into Lead-In and Lead-Out : No
Fill up missing offset samples with silence : Yes
Delete leading and trailing silent blocks : No
Null samples used in CRC calculations : Yes
Used interface : Native Win32 interface for Win NT & 2000
Gap handling : Appended to previous track

Used output format : User Defined Encoder
Selected bitrate : 128 kBit/s
Quality : High
Add ID3 tag : No
Command line compressor : C:\Program Files\FLAC\flac.exe
Additional command line options : -V -8 -T "artist=%a" -T "title=%t" -T "album=%g" -T "date=%y" -T "tracknumber=%n" -T "genre=%m" %s

TOC of the extracted CD

Track | Start | Length | Start sector | End sector
---------------------------------------------------------
1 | 0:00.00 | 3:33.05 | 0 | 15979
2 | 3:33.05 | 2:18.17 | 15980 | 26346
3 | 5:51.22 | 2:28.48 | 26347 | 37494
4 | 8:19.70 | 2:17.27 | 37495 | 47796

Track 1

Filename E:\Kyuss\One Inch Man\01 - One Inch Man.wav

Pre-gap length 0:00:02.00

Peak level 94.4 %
Track quality 99.9 %
Test CRC 9B2DB85F
Copy CRC 9B2DB85F
Copy OK

Track 2

Filename E:\Kyuss\One Inch Man\02 - Flip The Phase.wav

Pre-gap length 0:00:02.73

Peak level 95.6 %
Track quality 100.0 %
Test CRC 73ADE146
Copy CRC 73ADE146
Copy OK

Track 3

Filename E:\Kyuss\One Inch Man\03 - Mudfly.wav

Pre-gap length 0:00:01.73

Peak level 95.5 %
Track quality 100.0 %
Test CRC F813B11B
Copy CRC F813B11B
Copy OK

Track 4

Filename E:\Kyuss\One Inch Man\04 - A Day Early And A Dollar Extra.wav

Pre-gap length 0:00:02.17

Peak level 95.2 %
Track quality 100.0 %
Test CRC FACD6D77
Copy CRC FACD6D77
Copy OK

No errors occurred

End of status report

Код:

REM DISCID 1B027D04
REM COMMENT "ExactAudioCopy v0.99pb3"
CATALOG 7559643980208
PERFORMER "Kyuss"
TITLE "One Inch Man"
FILE "Kyuss\One Inch Man\01 - One Inch Man.wav" WAVE
TRACK 01 AUDIO
TITLE "One Inch Man"
PERFORMER "Kyuss"
INDEX 01 00:00:00
TRACK 02 AUDIO
TITLE "Flip The Phase"
PERFORMER "Kyuss"
INDEX 00 03:30:25
FILE "Kyuss\One Inch Man\02 - Flip The Phase.wav" WAVE
INDEX 01 00:00:00
TRACK 03 AUDIO
TITLE "Mudfly"
PERFORMER "Kyuss"
INDEX 00 02:16:37
FILE "Kyuss\One Inch Man\03 - Mudfly.wav" WAVE
INDEX 01 00:00:00
TRACK 04 AUDIO
TITLE "A Day Early And A Dollar Extra"
PERFORMER "Kyuss"
INDEX 00 02:26:35
FILE "Kyuss\One Inch Man\04 - A Day Early And A Dollar Extra.wav" WAVE
INDEX 01 00:00:00
Трэклист:
01. Into the Void 8:01
02. Fatso Forgotso 8:34
03. Fatso Forgotso Phase II (flip the phase) 2:17
04. If Only Everything 3:32
05. Born to Hula 5:05
06. Spiders and Vinegaroons 6:24

Код:

EAC extraction logfile from 24. April 2007, 22:22 for CD
Various / Kyuss & Queens of the Stone Age Split CD

Used drive : PLEXTOR CD-ROM PX-40TW Adapter: 2 ID: 11
Read mode : Secure with NO C2, accurate stream, disable cache
Read offset correction : 676
Overread into Lead-In and Lead-Out : No

Used output format : C:\Program Files\FLAC\flac.exe (User Defined Encoder)
192 kBit/s
Additional command line options : -8 -V -T "ARTIST=%a" -T "TITLE=%t" -T "ALBUM=%g" -T "DATE=%y" -T "TRACKNUMBER=%n" -T "GENRE=%m" -T "COMMENT=EAC Flac 1.1.4 -8" %s

Other options :
Fill up missing offset samples with silence : Yes
Delete leading and trailing silent blocks : No
Installed external ASPI interface

Track 1
Filename C:\FLAC\Pedro\rips\01 - Into the Void.wav

Pre-gap length 0:00:02.00

Peak level 100.0 %
Track quality 100.0 %
Test CRC 323F81E2
Copy CRC 323F81E2
Copy OK

Track 2
Filename C:\FLAC\Pedro\rips\02 - Fatso Forgotso.wav

Peak level 100.0 %
Track quality 99.9 %
Test CRC F10E966D
Copy CRC F10E966D
Copy OK

Track 3
Filename C:\FLAC\Pedro\rips\03 - Fatso Forgotso Phase II (flip the phase).wav

Pre-gap length 0:00:00.14

Peak level 97.8 %
Track quality 100.0 %
Test CRC D6AE4932
Copy CRC D6AE4932
Copy OK

Track 4
Filename C:\FLAC\Pedro\rips\04 - If Only Everything.wav

Peak level 100.0 %
Track quality 100.0 %
Test CRC 1FC732D2
Copy CRC 1FC732D2
Copy OK

Track 5
Filename C:\FLAC\Pedro\rips\05 - Born to Hula.wav

Peak level 100.0 %
Track quality 100.0 %
Test CRC 7F8B986C
Copy CRC 7F8B986C
Copy OK

Track 6
Filename C:\FLAC\Pedro\rips\06 - Spiders and Vinegaroons.wav

Peak level 100.0 %
Track quality 100.0 %
Test CRC 3798CBA8
Copy CRC 3798CBA8
Copy OK

No errors occured

End of status report

Код:

REM GENRE Rock
REM DATE 1997
REM DISCID 4907F106
REM COMMENT "ExactAudioCopy v0.95b4"
PERFORMER "Various"
TITLE "Kyuss & Queens of the Stone Age Split CD"
FILE "01 - Into the Void.wav" WAVE
TRACK 01 AUDIO
TITLE "Into the Void"
PERFORMER "Kyuss"
INDEX 01 00:00:00
FILE "02 - Fatso Forgotso.wav" WAVE
TRACK 02 AUDIO
TITLE "Fatso Forgotso"
PERFORMER "Kyuss"
INDEX 01 00:00:00
TRACK 03 AUDIO
TITLE "Fatso Forgotso Phase II (flip the phase)"
PERFORMER "Kyuss"
INDEX 00 08:33:26
FILE "03 - Fatso Forgotso Phase II (flip the phase).wav" WAVE
INDEX 01 00:00:00
FILE "04 - If Only Everything.wav" WAVE
TRACK 04 AUDIO
TITLE "If Only Everything"
PERFORMER "Queens of the Stone Age"
INDEX 01 00:00:00
FILE "05 - Born to Hula.wav" WAVE
TRACK 05 AUDIO
TITLE "Born to Hula"
PERFORMER "Queens of the Stone Age"
INDEX 01 00:00:00
FILE "06 - Spiders and Vinegaroons.wav" WAVE
TRACK 06 AUDIO
TITLE "Spiders and Vinegaroons"
PERFORMER "Queens of the Stone Age"
INDEX 01 00:00:00
Трэклист:
01. Gardenia 6:56
02. Un Sandpiper 8:18
03. Conan Troutman 2:12

Код:

Exact Audio Copy V0.99 prebeta 3 from 28. July 2007

EAC extraction logfile from 26. October 2008, 18:12

Kyuss / Gardenia [Single]

Used drive : HL-DT-STCD-RW GCE-8481B Adapter: 1 ID: 0

Read mode : Secure
Utilize accurate stream : Yes
Defeat audio cache : Yes
Make use of C2 pointers : No

Read offset correction : 6
Overread into Lead-In and Lead-Out : No
Fill up missing offset samples with silence : Yes
Delete leading and trailing silent blocks : No
Null samples used in CRC calculations : Yes
Used interface : Installed external ASPI interface
Gap handling : Appended to previous track

Used output format : User Defined Encoder
Selected bitrate : 192 kBit/s
Quality : High
Add ID3 tag : No
Command line compressor : C:\Program Files\Exact Audio Copy\flac.exe
Additional command line options : -8 -A tukey(0.25) -A gauss(0.1875) -b 4096 -V -T "artist=%a" -T "title=%t" -T "album=%g" -T "date=%y" -T "tracknumber=%n" -T "genre=%m" %s --sector-align

TOC of the extracted CD

Track | Start | Length | Start sector | End sector
---------------------------------------------------------
1 | 0:00.00 | 6:55.58 | 0 | 31182
2 | 6:55.58 | 8:17.57 | 31183 | 68514
3 | 15:13.40 | 2:12.18 | 68515 | 78432

Track 1

Filename G:\Music\Kyuss\Kyuss - (1995) Gardenia [Single] (FLAC)\01. Gardenia.wav

Pre-gap length 0:00:02.00

Peak level 93.8 %
Track quality 100.0 %
Test CRC A9AD5995
Copy CRC A9AD5995
Track not present in AccurateRip database
Copy OK

Track 2

Filename G:\Music\Kyuss\Kyuss - (1995) Gardenia [Single] (FLAC)\02. Un Sandpiper.wav

Pre-gap length 0:00:02.64

Peak level 100.0 %
Track quality 99.9 %
Test CRC D7905D8F
Copy CRC D7905D8F
Track not present in AccurateRip database
Copy OK

Track 3

Filename G:\Music\Kyuss\Kyuss - (1995) Gardenia [Single] (FLAC)\03. Conan Troutman.wav

Pre-gap length 0:00:02.60

Peak level 95.5 %
Track quality 100.0 %
Test CRC 39009889
Copy CRC 39009889
Track not present in AccurateRip database
Copy OK

None of the tracks are present in the AccurateRip database

No errors occurred

End of status report

Код:

REM DATE 1995
REM DISCID 1D041503
REM COMMENT "ExactAudioCopy v0.99pb3"
PERFORMER "Kyuss"
TITLE "Gardenia [Single]"
FILE "01. Gardenia.wav" WAVE
TRACK 01 AUDIO
TITLE "Gardenia"
PERFORMER "Kyuss"
INDEX 01 00:00:00
TRACK 02 AUDIO
TITLE "Un Sandpiper"
PERFORMER "Kyuss"
INDEX 00 06:53:10
FILE "02. Un Sandpiper.wav" WAVE
INDEX 01 00:00:00
TRACK 03 AUDIO
TITLE "Conan Troutman"
PERFORMER "Kyuss"
INDEX 00 08:15:12
FILE "03. Conan Troutman.wav" WAVE
INDEX 01 00:00:00
Трэклист:
01. Un Sandpiper (8:13)
02. Shine (5:58)
03. 50 Million Year Trip (5:48)
04. Mudfly (2:26)
05. Demon Cleaner (5:05)
06. Day Early & A Dollar Extra (2:16)
07. I'm Not (4:38)
08. Hurricane (2:32)
09. Flip The Phase (2:18)
10. Fatso Forgotso (8:31)
11. El Rodeo (5:29)
12. Gardenia (Live) (6:46)
13. Thumb (Live) (4:40)
14. Conac Troutman (Live) (2:15)
15. Freedom Run (Live) (8:08)

Код:

EAC extraction logfile from 8. July 2008, 7:11 for CD
Kyuss / Muchas Gracias - The Best Of Kyuss

Used drive  : ASUS    DVD-E616P3H   Adapter: 0  ID: 1
Read mode   : Secure with NO C2, accurate stream, disable cache
Read offset correction : 738
Overread into Lead-In and Lead-Out : No

Used output format : Internal WAV Routines
                     44.100 Hz; 16 Bit; Stereo

Other options      :
    Fill up missing offset samples with silence : Yes
    Delete leading and trailing silent blocks : No
    Native Win32 interface for Win NT & 2000

Track  1
     Filename C:\01 - Un Sandpiper.wav

     Pre-gap length  0:00:02.00

     Peak level 81.7 %
     Track quality 100.0 %
     Test CRC 4C21DBF8
     Copy CRC 4C21DBF8
     Copy OK

Track  2
     Filename C:\02 - Shine.wav

     Peak level 100.0 %
     Track quality 100.0 %
     Test CRC 21CBD4E4
     Copy CRC 21CBD4E4
     Copy OK

Track  3
     Filename C:\03 - 50 Million Year Trip (Downside Up).wav

     Peak level 100.0 %
     Track quality 100.0 %
     Test CRC 63249616
     Copy CRC 63249616
     Copy OK

Track  4
     Filename C:\04 - Mudfly.wav

     Peak level 100.0 %
     Track quality 100.0 %
     Test CRC 24EDECE6
     Copy CRC 24EDECE6
     Copy OK

Track  5
     Filename C:\05 - Demon Cleaner.wav

     Peak level 99.8 %
     Track quality 100.0 %
     Test CRC B54A533B
     Copy CRC B54A533B
     Copy OK

Track  6
     Filename C:\06 - A Day Early And A Dollar Extra.wav

     Peak level 93.1 %
     Track quality 100.0 %
     Test CRC D7C3EAF8
     Copy CRC D7C3EAF8
     Copy OK

Track  7
     Filename C:\07 - I'm Not.wav

     Peak level 98.5 %
     Track quality 100.0 %
     Test CRC 71B553E2
     Copy CRC 71B553E2
     Copy OK

Track  8
     Filename C:\08 - Hurricane.wav

     Peak level 100.0 %
     Track quality 100.0 %
     Test CRC 9B4BE922
     Copy CRC 9B4BE922
     Copy OK

Track  9
     Filename C:\09 - Flip The Phase.wav

     Peak level 91.0 %
     Track quality 100.0 %
     Test CRC F495E779
     Copy CRC F495E779
     Copy OK

Track 10
     Filename C:\10 - Fatso Forgotso.wav

     Peak level 100.0 %
     Track quality 100.0 %
     Test CRC 8881771B
     Copy CRC 8881771B
     Copy OK

Track 11
     Filename C:\11 - El Rodeo.wav

     Peak level 100.0 %
     Track quality 100.0 %
     Test CRC CE46DEED
     Copy CRC CE46DEED
     Copy OK

Track 12
     Filename C:\12 - Gardenia (Live).wav

     Peak level 100.0 %
     Track quality 100.0 %
     Test CRC 3B0D4A2E
     Copy CRC 3B0D4A2E
     Copy OK

Track 13
     Filename C:\13 - Thumb (Live).wav

     Peak level 100.0 %
     Track quality 99.9 %
     Test CRC 63E71E19
     Copy CRC 63E71E19
     Copy OK

Track 14
     Filename C:\14 - Conan Troutman (Live).wav

     Peak level 100.0 %
     Track quality 100.0 %
     Test CRC 58590945
     Copy CRC 58590945
     Copy OK

Track 15
     Filename C:\15 - Freedom Run (Live).wav

     Peak level 100.0 %
     Track quality 100.0 %
     Test CRC 414D0DC1
     Copy CRC 414D0DC1
     Copy OK

No errors occured

End of status report

Код:

REM GENRE "Stoner Rock"
REM DATE 2000
REM DISCID C0119E0F
REM COMMENT "ExactAudioCopy v0.95b3"
PERFORMER "Kyuss"
TITLE "Muchas Gracias - The Best Of Kyuss"
FILE "01 - Un Sandpiper.wav" WAVE
  TRACK 01 AUDIO
    TITLE "Un Sandpiper"
    PERFORMER "Kyuss"
    INDEX 01 00:00:00
FILE "02 - Shine.wav" WAVE
  TRACK 02 AUDIO
    TITLE "Shine"
    PERFORMER "Kyuss"
    INDEX 01 00:00:00
FILE "03 - 50 Million Year Trip (Downside Up).wav" WAVE
  TRACK 03 AUDIO
    TITLE "50 Million Year Trip (Downside Up)"
    PERFORMER "Kyuss"
    INDEX 01 00:00:00
FILE "04 - Mudfly.wav" WAVE
  TRACK 04 AUDIO
    TITLE "Mudfly"
    PERFORMER "Kyuss"
    INDEX 01 00:00:00
FILE "05 - Demon Cleaner.wav" WAVE
  TRACK 05 AUDIO
    TITLE "Demon Cleaner"
    PERFORMER "Kyuss"
    INDEX 01 00:00:00
FILE "06 - A Day Early And A Dollar Extra.wav" WAVE
  TRACK 06 AUDIO
    TITLE "A Day Early And A Dollar Extra"
    PERFORMER "Kyuss"
    INDEX 01 00:00:00
FILE "07 - I'm Not.wav" WAVE
  TRACK 07 AUDIO
    TITLE "I'm Not"
    PERFORMER "Kyuss"
    INDEX 01 00:00:00
FILE "08 - Hurricane.wav" WAVE
  TRACK 08 AUDIO
    TITLE "Hurricane"
    PERFORMER "Kyuss"
    INDEX 01 00:00:00
FILE "09 - Flip The Phase.wav" WAVE
  TRACK 09 AUDIO
    TITLE "Flip The Phase"
    PERFORMER "Kyuss"
    INDEX 01 00:00:00
FILE "10 - Fatso Forgotso.wav" WAVE
  TRACK 10 AUDIO
    TITLE "Fatso Forgotso"
    PERFORMER "Kyuss"
    INDEX 01 00:00:00
FILE "11 - El Rodeo.wav" WAVE
  TRACK 11 AUDIO
    TITLE "El Rodeo"
    PERFORMER "Kyuss"
    INDEX 01 00:00:00
FILE "12 - Gardenia (Live).wav" WAVE
  TRACK 12 AUDIO
    TITLE "Gardenia (Live)"
    PERFORMER "Kyuss"
    INDEX 01 00:00:00
FILE "13 - Thumb (Live).wav" WAVE
  TRACK 13 AUDIO
    TITLE "Thumb (Live)"
    PERFORMER "Kyuss"
    INDEX 01 00:00:00
FILE "14 - Conan Troutman (Live).wav" WAVE
  TRACK 14 AUDIO
    TITLE "Conan Troutman (Live)"
    PERFORMER "Kyuss"
    INDEX 01 00:00:00
FILE "15 - Freedom Run (Live).wav" WAVE
  TRACK 15 AUDIO
    TITLE "Freedom Run (Live)"
    PERFORMER "Kyuss"
    INDEX 01 00:00:00


info [Профиль]  [ЛС] 

The Buzzhorn

Пол: Пол:Муж

Стаж: 6 лет 2 месяца

Сообщений: 901

Германия
Рейтинг

post 13-Июл-2012 22:12 (спустя 21 час) [-]0[+]

[Цитировать] 

                                                      
info [Профиль]  [ЛС] 

post 13-Июл-2012 22:12 (спустя 21 секунда) [-]0[+]

Топик был перенесен из форума Оформление раздач в форум Mеtаl (losslеss)

The Buzzhorn
 

hotfuzz6

Стаж: 6 лет 9 месяцев

Сообщений: 30

Рейтинг

post 14-Июл-2012 18:18 (спустя 20 часов) [-]0[+]

[Цитировать] 

ага, эти ребята
info [Профиль]  [ЛС] 
Показать сообщения:    
Ответить на тему

Текущее время: 11-Дек 08:14

Часовой пояс: GMT + 4



Вы не можете начинать темы
Вы не можете отвечать на сообщения
Вы не можете редактировать свои сообщения
Вы не можете удалять свои сообщения
Вы не можете голосовать в опросах
Вы не можете прикреплять файлы к сообщениям
Вы не можете скачивать файлы