Ошибка

Чистая кожа / Cleanskin (Хади Хаджэйг) [2012 г., триллер, драма, криминал, BDRip-AVC]

Ответить на тему
 
Автор Сообщение

L

Пол: Пол:Муж

Стаж: 6 лет 7 месяцев

Сообщений: 10781

Украина
Рейтинг

post 09-Июл-2012 00:09 2[+]

[Цитировать] 

Чистая кожа / Cleanskin


Название: Чистая кожа
Оригинальное название: Cleanskin
Год выхода: 2012
Жанр: триллер, драма, криминал
Выпущено: Великобритания
Продолжительность: 01:47:50
Озвучивание: Любительское (одноголосое) [Агент Смит]
Субтитры: нет
Главы: есть

Режиссер: Хади Хаджэйг
В ролях: Шон Бин, Абин Галейя, Шарлотта Рэмплинг, Питер Поликарпу, Таппенс Мидлтон, Том Бёрк, Сэм Дуглас, Мишель Райан, Джеймс Фокс, Тарик Джордан

О фильме:
Эван — тайный правительственный агент, перед которым стоит задача выследить и ликвидировать террориста-смертника и его террористическую ячейку.
(9.370) | |

Раздача от:
Автор рипа: L
Исходник: Cleanskin 2012 BluRay 1080p AVC DTS-HD MA5.1-greyshadow

Качество: BDRip-AVC
Контейнер: MKV
Видео: AVC / High@L4.1 / 1024x428 / 2 124 Kbps / 2.40:1
Аудио:
48 kHz, AC3, 3/2 (L,C,R,l,r) + LFE ch, ~384.00 kbps avg - любительский
48 kHz, AC3, 3/2 (L,C,R,l,r) + LFE ch, ~384.00 kbps avg - оригинал


Код:

Общее
Уникальный идентификатор         : 220134178220590642323025387745949077641 (0xA59C4CF19E6D88009BF0C6C6A95D5089)
Полное имя                       : D:\L\Chistaja.Kozha.2012.BDRip.x264.ac3.VO.RG.25Kadr[by.L].mkv
Формат                           : Matroska
Версия формата                   : Version 2
Размер файла                     : 2,18 Гбайт
Продолжительность                : 1 ч. 47 м.
Общий поток                      : 2893 Кбит/сек
Название фильма                  : Star Wars: Episode II - Attack of the Clones (2002)
Дата кодирования                 : UTC 2012-07-08 19:00:26
Программа кодирования            : mkvmerge v3.2.0 ('Beginnings') built on Feb 12 2010 16:46:17
Библиотека кодирования           : libebml v0.7.9 + libmatroska v0.8.1

Видео
Идентификатор                    : 1
Формат                           : AVC
Формат/Информация                : Advanced Video Codec
Профиль формата                  : High@L4.1
Параметр CABAC формата           : Да
Параметр ReFrames формата        : 11 кадров
Идентификатор кодека             : V_MPEG4/ISO/AVC
Продолжительность                : 1 ч. 47 м.
Битрейт                          : 2124 Кбит/сек
Ширина                           : 1024 пикселя
Высота                           : 428 пикселей
Соотношение сторон               : 2,40:1
Частота кадров                   : 23,976 кадра/сек
Цветовое пространство            : YUV
Субдискретизация насыщенности    : 4:2:0
Битовая глубина                  : 8 бит
Тип развёртки                    : Прогрессивная
Бит/(Пиксели*Кадры)              : 0.202
Размер потока                    : 1,56 Гбайт (71%)
Библиотека кодирования           : x264 core 125 r2200 999b753
Настройки программы              : cabac=1 / ref=11 / deblock=1:-2:-1 / analyse=0x3:0x113 / me=umh / subme=11 / psy=1 / psy_rd=0.95:0.05 / mixed_ref=1 / me_range=32 / chroma_me=1 / trellis=2 / 8x8dct=1 / cqm=0 / deadzone=21,11 / fast_pskip=0 / chroma_qp_offset=-3 / threads=6 / lookahead_threads=1 / sliced_threads=0 / nr=0 / decimate=1 / interlaced=0 / bluray_compat=0 / constrained_intra=0 / bframes=8 / b_pyramid=2 / b_adapt=1 / b_bias=0 / direct=1 / weightb=1 / open_gop=0 / weightp=2 / keyint=240 / keyint_min=22 / scenecut=40 / intra_refresh=0 / rc=2pass / mbtree=0 / bitrate=2124 / ratetol=1.0 / qcomp=0.70 / qpmin=10 / qpmax=61 / qpstep=4 / cplxblur=20.0 / qblur=0.5 / ip_ratio=1.40 / pb_ratio=1.30 / aq=2:0.70
Язык                             : English
Default                          : Нет
Forced                           : Нет

Аудио #1
Идентификатор                    : 2
Формат                           : AC-3
Формат/Информация                : Audio Coding 3
Расширение режима                : CM (complete main)
Идентификатор кодека             : A_AC3
Продолжительность                : 1 ч. 47 м.
Вид битрейта                     : Постоянный
Битрейт                          : 384 Кбит/сек
Каналы                           : 6 каналов
Расположение каналов             : Front: L C R, Side: L R, LFE
Частота                          : 48,0 КГц
Битовая глубина                  : 16 бит
Метод сжатия                     : С потерями
Размер потока                    : 296 Мбайт (13%)
Заголовок                        : VO, Агент Смит
Язык                             : Russian
Default                          : Да
Forced                           : Нет

Аудио #2
Идентификатор                    : 3
Формат                           : AC-3
Формат/Информация                : Audio Coding 3
Расширение режима                : CM (complete main)
Идентификатор кодека             : A_AC3
Продолжительность                : 1 ч. 47 м.
Вид битрейта                     : Постоянный
Битрейт                          : 384 Кбит/сек
Каналы                           : 6 каналов
Расположение каналов             : Front: L C R, Side: L R, LFE
Частота                          : 48,0 КГц
Битовая глубина                  : 16 бит
Метод сжатия                     : С потерями
Размер потока                    : 296 Мбайт (13%)
Заголовок                        : Оригинал
Язык                             : English
Default                          : Нет
Forced                           : Нет

Меню
00:00:00.000                     : en:00:00:00.000
00:10:58.616                     : en:00:10:58.616
00:18:38.617                     : en:00:18:38.617
00:28:52.898                     : en:00:28:52.898
00:37:56.608                     : en:00:37:56.608
00:45:34.231                     : en:00:45:34.231
00:54:02.698                     : en:00:54:02.698
01:04:36.790                     : en:01:04:36.790
01:13:34.702                     : en:01:13:34.702
01:24:15.842                     : en:01:24:15.842
01:32:32.213                     : en:01:32:32.213
01:38:57.098                     : en:01:38:57.098

info [Профиль]  [ЛС] 

Alins

Пол: Пол:Муж

Стаж: 5 лет 5 месяцев

Сообщений: 351

Рейтинг

post 20-Июл-2012 22:58 (спустя 11 дней) [-]2[+]

[Цитировать] 

цифры после рейтинга кинопоиск что означают?
info [Профиль]  [ЛС] 

Captain

Пол: Пол:Муж

Стаж: 6 лет 6 месяцев

Сообщений: 932

Россия
Рейтинг

post 20-Июл-2012 23:34 (спустя 36 минут) [-]0[+]

[Цитировать] 

Alins
поддерживаю вопрос т.к. на самом кинопоиске сейчас глянул рейтинг и он как то не впечатлил
6.412 из 418 проголосовавших

_________________
info [Профиль]  [ЛС] 

МишанинШан

Пол: Пол:Муж

Стаж: 7 лет 2 месяца

Сообщений: 42

Россия
Рейтинг

post 20-Июл-2012 23:59 (спустя 24 минуты) [-]3[+]

[Цитировать] 

Как на этот раз умер герой Бина? =)

_________________
Знание, есть основа любого начинания
info [Профиль]  [ЛС] 

Kabuto678

Пол: Пол:Муж

Стаж: 7 лет 8 месяцев

Сообщений: 35

Россия
Рейтинг

post 21-Июл-2012 03:15 (спустя 3 часа) [-]0[+]

[Цитировать] 

Бин и в этом фильме умрёт? Или режиссёр стал комбобрейкером? Улыбаюсь

_________________
Мать: ASUS P5Q E
Проц: Intel Core 2 Quad 9400 (частота 3.66)
ОЗУ: 4гб Corsair XMS2
Видео: NVidia Geforce 580GTX
XBOX 360 PSP-2000; Ник в BF3 Kabuto678; В Steam Kabuto46
info [Профиль]  [ЛС] 

Kn9zb90

Пол: Пол:Муж

Стаж: 7 лет 8 месяцев

Сообщений: 28

СССР
Рейтинг

post 21-Июл-2012 04:24 (спустя 1 час 8 минут) [-]1[+]

[Цитировать] 

Kabuto678
Если Бин не умирает значит это кому-нибудь нужно=)))
info [Профиль]  [ЛС] 

GlebS

Стаж: 6 лет 8 месяцев

Сообщений: 7

Рейтинг

post 21-Июл-2012 13:41 (спустя 9 часов) [-]0[+]

[Цитировать] 

Kabuto678
Kn9zb90
Бин, насколько помню, не умер в экранизации Сайлент Хилл)))
info [Профиль]  [ЛС] 

Kn9zb90

Пол: Пол:Муж

Стаж: 7 лет 8 месяцев

Сообщений: 28

СССР
Рейтинг

post 21-Июл-2012 13:46 (спустя 4 минуты) [-]0[+]

[Цитировать] 

GlebS
Ну на тот момент его не убивали мечами kolob_166
info [Профиль]  [ЛС] 

zatorax

Стаж: 7 лет 8 месяцев

Сообщений: 294

Россия
Рейтинг

post 21-Июл-2012 14:08 (спустя 22 минуты) [-]0[+]

[Цитировать] 

зато у него самое высокое количество смертей в фильмах) он умирает практически в каждом ^^
info [Профиль]  [ЛС] 

kapibul

Пол: Пол:Муж

Стаж: 6 лет 2 месяца

Сообщений: 2

Россия
Рейтинг

post 21-Июл-2012 14:18 (спустя 10 минут) [-]1[+]

[Цитировать] 

Бин не умрёт Улыбаюсь)). Кинцо не шедевр но и не напряжное. Посмотрел, не пожалел.
info [Профиль]  [ЛС] 

L

Пол: Пол:Муж

Стаж: 6 лет 7 месяцев

Сообщений: 10781

Украина
Рейтинг

post 21-Июл-2012 18:43 (спустя 4 часа) [-]1[+]

[Цитировать] 

Alins
Captain
На момент создания релиза рейтинг был именно таким.

_________________
info [Профиль]  [ЛС] 

МишанинШан

Пол: Пол:Муж

Стаж: 7 лет 2 месяца

Сообщений: 42

Россия
Рейтинг

post 24-Июл-2012 23:51 (спустя 3 дня) [-]0[+]

[Цитировать] 

L писал(а):

Alins
Captain
На момент создания релиза рейтинг был именно таким.
На момент создания релиза Бин не умирал kolob_166

_________________
Знание, есть основа любого начинания
info [Профиль]  [ЛС] 

night_slaughter

Пол: Пол:Муж

Стаж: 4 года 10 месяцев

Сообщений: 8

Рейтинг

post 16-Сен-2012 21:09 (спустя 1 месяц 22 дня) [-]0[+]

[Цитировать] 

Нельзя просто так взять, и не убить Бина в фильме... kolob_125
info [Профиль]  [ЛС] 

post 07-Фев-2013 22:36 (спустя 4 месяца 21 день) [-]0[+]

Топик был перенесен из форума Rips в форум Зарубежное кино | Rips

chingis
 

post 03-Авг-2014 23:03 (спустя 1 год 10 месяцев) [-]0[+]

Топик был перенесен из форума Зарубежное кино | Rips в форум Прочее | Архив (Зарубежное кино)

L
 
Показать сообщения:    
Ответить на тему

Текущее время: 05-Дек 08:29

Часовой пояс: GMT + 4



Вы не можете начинать темы
Вы не можете отвечать на сообщения
Вы не можете редактировать свои сообщения
Вы не можете удалять свои сообщения
Вы не можете голосовать в опросах
Вы не можете прикреплять файлы к сообщениям
Вы не можете скачивать файлы