Ошибка

Иван Васильевич меняет профессию (Леонид Гайдай) [1973 г., Фантастика, Комедия, Приключения, BDRip]

Ответить на тему
 
Автор Сообщение

Johann Weyer

Пол: Пол:Муж

Стаж: 6 лет 8 месяцев

Сообщений: 510

Германия
Рейтинг

post 01-Июл-2012 20:34 11[+]

[Цитировать] 

Иван Васильевич меняет профессию

Год выпуска: 1973
Страна: СССР
Жанр: Фантастика, Комедия, Приключения
Продолжительность: 01:31:39

Режиссер: Леонид Гайдай
В ролях: Александр Демьяненко, Юрий Яковлев, Леонид Куравлёв, Наталья Крачковская, Савелий Крамаров, Наталья Селезнёва, Владимир Этуш, Михаил Пуговкин, Сергей Филиппов, Наталья Кустинская
Описание:
Инженер-изобретатель Тимофеев сконструировал машину времени, которая соединила его квартиру с далеким шестнадцатым веком - точнее, с палатами государя Ивана Грозного. Туда-то и попадают тезка царя пенсионер-общественник Иван Васильевич Бунша и квартирный вор Жорж Милославский.

На их место в двадцатом веке «переселяется» великий государь. Поломка машины приводит ко множеству неожиданных и забавных событий...

Доп. информация: IMDB: 8.0/10 - КиноПоиск: 8.7/10
Релиз от: HQ-VIDEO
Качество: BDRip
Формат: AVI
Видео кодек: XviD
Аудио кодек: AC3
Видео: 720x520 at 23.976 fps, 1876 kbps, 1.385, 0.21 bit/pixel, XviD MPEG-4
Аудио:
1. Russian - 48 kHz, 6 ch, 384.00 kbps, AC3 (Front: L C R, Side: L R, LFE)

Код:

General
Complete name                            : D:\Bebtu\Movies\Ivan.Vasilevich.Menyaet.Professiyu.1973.RUS.BDRip.XviD.AC3.-HQ-ViDEO.avi
Format                                   : AVI
Format/Info                              : Audio Video Interleave
File size                                : 1.45 GiB
Duration                                 : 1h 31mn
Overall bit rate                         : 2 270 Kbps
Movie name                               : Иван Васильевич меняет профессию / Ivan Vasilevich menyaet professiyu (1973)
Director                                 : vladaudi (BDRip 1080)
Writing application                      : VirtualDubMod 1.5.10.3 | www.virtualdub-fr.org || (build 2550/release)
Copyright                                : HQ-ViDEO (www.hq-video.ru)
Comment                                  : 18.03.2011

Video
ID                                       : 0
Format                                   : MPEG-4 Visual
Format profile                           : Advanced Simple@L5
Format settings, BVOP                    : 1
Format settings, QPel                    : No
Format settings, GMC                     : No warppoints
Format settings, Matrix                  : Default (MPEG)
Codec ID                                 : XVID
Codec ID/Hint                            : XviD
Duration                                 : 1h 31mn
Bit rate                                 : 1 876 Kbps
Width                                    : 720 pixels
Height                                   : 520 pixels
Display aspect ratio                     : 4:3
Original display aspect ratio            : 1.385
Frame rate                               : 23.976 fps
Color space                              : YUV
Chroma subsampling                       : 4:2:0
Bit depth                                : 8 bits
Scan type                                : Progressive
Compression mode                         : Lossy
Bits/(Pixel*Frame)                       : 0.209
Stream size                              : 1.20 GiB (83%)
Writing library                          : XviD 1.2.1 (UTC 2008-12-04)

Audio
ID                                       : 1
Format                                   : AC-3
Format/Info                              : Audio Coding 3
Mode extension                           : CM (complete main)
Format settings, Endianness              : Big
Codec ID                                 : 2000
Duration                                 : 1h 31mn
Bit rate mode                            : Constant
Bit rate                                 : 384 Kbps
Channel(s)                               : 6 channels
Channel positions                        : Front: L C R, Side: L R, LFE
Sampling rate                            : 48.0 KHz
Bit depth                                : 16 bits
Compression mode                         : Lossy
Stream size                              : 252 MiB (17%)
Alignment                                : Split accross interleaves
Interleave, duration                     : 42 ms (1.00 video frame)
Interleave, preload duration             : 500 ms
Скриншоты:
http://s002.youpic.su/pictures/1341086400/276659b257b08d616a3c6b575a9a28b9.png http://s002.youpic.su/pictures/1341086400/81a908f85fa533d4ec03aa617dd9e602.png http://s002.youpic.su/pictures/1341086400/6500f0685d6ad1f0605f26f77a08038b.png http://s002.youpic.su/pictures/1341086400/6b76518ee4e31f965ac14a881d7413a4.png 
Оформление by Edward Elric
info [Профиль]  [ЛС] 

Johann Weyer

Пол: Пол:Муж

Стаж: 6 лет 8 месяцев

Сообщений: 510

Германия
Рейтинг

post 01-Июл-2012 22:00 (спустя 1 час 25 минут) [-]0[+]

[Цитировать] 




Updated:



info [Профиль]  [ЛС] 

JoeJim

Пол: Пол:Муж

Стаж: 5 лет 5 месяцев

Сообщений: 122

Белоруссия
Рейтинг

post 01-Июл-2012 23:51 (спустя 1 час 51 минута) [-]0[+]

[Цитировать] 

А можно попросить ссылку на исходник?
info [Профиль]  [ЛС] 

Rock Star

Пол: Пол:Муж

Стаж: 5 лет 4 месяца

Сообщений: 782

Рейтинг

post 01-Июл-2012 23:52 (спустя 1 минута) [-]2[+]

[Цитировать] 

JoeJim
"Связанные раздачи"
info [Профиль]  [ЛС] 

Винни Пух

Пол: Пол:Муж

Стаж: 4 года 6 месяцев

Сообщений: 106

Россия
Рейтинг

post 02-Июл-2012 00:18 (спустя 26 минут) [-]2[+]

[Цитировать] 

Отличные фильмы с Шуриком

_________________
info [Профиль]  [ЛС] 
Показать сообщения:    
Ответить на тему

Текущее время: 11-Дек 02:20

Часовой пояс: GMT + 4



Вы не можете начинать темы
Вы не можете отвечать на сообщения
Вы не можете редактировать свои сообщения
Вы не можете удалять свои сообщения
Вы не можете голосовать в опросах
Вы не можете прикреплять файлы к сообщениям
Вы не можете скачивать файлы