Ошибка

Путешествие 2: Таинственный остров / Journey 2: The Mysterious Island (Брэд Пейтон) [2012, фантастика, фэнтези, боевик, комедия, приключения, семейный BDRip-AVC] Dub [Лицензия]

Ответить на тему
 
Автор Сообщение

L

Пол: Пол:Муж

Стаж: 6 лет 7 месяцев

Сообщений: 10784

Украина
Рейтинг

post 21-Май-2012 23:28 1[+]

[Цитировать] 

Путешествие 2: Таинственный остров / Journey 2: The Mysterious Island
«Поверь в невозможное - открой невероятное!»

Название: Путешествие 2: Таинственный остров
Оригинальное название: Journey 2: The Mysterious Island
Год выхода: 2012
Жанр: фантастика, фэнтези, боевик, комедия, приключения, семейный
Выпущено: New Line Cinema, Contrafilm, Walden Media ( США) [Лицензия]
Продолжительность: 01:34:11.637
Перевод: Профессиональный (дублированный)

Режиссер: Брэд Пейтон
В ролях:
Дуэйн Джонсон, Майкл Кейн, Джош Хатчерсон, Ванесса Энн Хадженс, Луис Гузман, Кристин Дэвис, Анна Колвелл, Стивен Кодилл, Брэнском Ричмонд, Уолтер Бэнксон
О фильме: На этот раз Шон Андерсон получает закодированный сигнал с просьбой о помощи, причем с загадочного острова, из места, где никакого острова и быть не может. Там обитают странные формы жизни, скрываются горы золота, смертоносные вулканы и не одна ошеломляющая тайна. Отчиму Шона, не сумевшему остановить его, ничего не остается, как тоже присоединиться к поискам. Вместе с пилотом вертолета и его прекрасной и решительной дочерью им предстоит найти остров, спасти его одинокого обитателя и немедленно покинуть это место, прежде чем землетрясение скроет остров под водой и похоронит навеки его сокровища.
| |

Раздача от:
Автор рипа: L
Исходник: Journey 2 The Mysterious Island 2012 BluRay 1080p AVC DTS-HD MA5 1

Качество: BDRip-AVC
Контейнер: MKV
Видео: AVC / High@L4.1 / 960x540 / 1 824 Kbps / 16:9
Аудио:
48 kHz, AC3, 3/2 (L,C,R,l,r) + LFE ch, ~384.00 kbps avg - профессиональный (дублированный)
• Съёмки фильма проходили на острове Оаху и в Уилмингтоне.

Код:

Общее
Уникальный идентификатор         : 182633865884153921439526040900563604362 (0x896600CC3F05F1ACAFC0BC4E0A87938A)
Полное имя                       : D:\L\Puteshestvie.2.Tainstvennyj.ostrov.BDRip.x264.ac3.[by.L].mkv
Формат                           : Matroska
Версия формата                   : Version 2
Размер файла                     : 1,45 Гбайт
Продолжительность                : 1 ч. 34 м.
Общий поток                      : 2209 Кбит/сек
Дата кодирования                 : UTC 2012-05-21 18:59:38
Программа кодирования            : mkvmerge v3.2.0 ('Beginnings') built on Feb 12 2010 16:46:17
Библиотека кодирования           : libebml v0.7.9 + libmatroska v0.8.1

Видео
Идентификатор                    : 1
Формат                           : AVC
Формат/Информация                : Advanced Video Codec
Профиль формата                  : High@L4.1
Параметр CABAC формата           : Да
Параметр ReFrames формата        : 11 кадров
Идентификатор кодека             : V_MPEG4/ISO/AVC
Продолжительность                : 1 ч. 34 м.
Битрейт                          : 1824 Кбит/сек
Ширина                           : 960 пикселей
Высота                           : 540 пикселей
Соотношение сторон               : 16:9
Частота кадров                   : 23,976 кадра/сек
Цветовое пространство            : YUV
Субдискретизация насыщенности    : 4:2:0
Битовая глубина                  : 8 бит
Тип развёртки                    : Прогрессивная
Бит/(Пиксели*Кадры)              : 0.147
Размер потока                    : 1,17 Гбайт (81%)
Библиотека кодирования           : x264 core 120 r2164 da19765
Настройки программы              : cabac=1 / ref=11 / deblock=1:-2:-1 / analyse=0x3:0x113 / me=umh / subme=10 / psy=1 / psy_rd=0.95:0.05 / mixed_ref=1 / me_range=32 / chroma_me=1 / trellis=2 / 8x8dct=1 / cqm=0 / deadzone=21,11 / fast_pskip=0 / chroma_qp_offset=-3 / threads=6 / sliced_threads=0 / nr=0 / decimate=1 / interlaced=0 / bluray_compat=0 / constrained_intra=0 / bframes=8 / b_pyramid=2 / b_adapt=1 / b_bias=0 / direct=1 / weightb=1 / open_gop=0 / weightp=2 / keyint=240 / keyint_min=22 / scenecut=40 / intra_refresh=0 / rc=2pass / mbtree=0 / bitrate=1824 / ratetol=1.0 / qcomp=0.70 / qpmin=10 / qpmax=61 / qpstep=4 / cplxblur=20.0 / qblur=0.5 / ip_ratio=1.40 / pb_ratio=1.30 / aq=2:0.70
Язык                             : English
Default                          : Нет
Forced                           : Нет

Аудио
Идентификатор                    : 2
Формат                           : AC-3
Формат/Информация                : Audio Coding 3
Расширение режима                : CM (complete main)
Идентификатор кодека             : A_AC3
Продолжительность                : 1 ч. 34 м.
Вид битрейта                     : Постоянный
Битрейт                          : 384 Кбит/сек
Каналы                           : 6 каналов
Расположение каналов             : Front: L C R, Side: L R, LFE
Частота                          : 48,0 КГц
Битовая глубина                  : 16 бит
Метод сжатия                     : С потерями
Размер потока                    : 259 Мбайт (17%)
Заголовок                        : Дубляж
Язык                             : Russian
Default                          : Да
Forced                           : Нет
info [Профиль]  [ЛС] 

KipMSK

Стаж: 6 лет 2 месяца

Сообщений: 411

Россия
Рейтинг

post 22-Май-2012 18:02 (спустя 18 часов) [-]0[+]

[Цитировать] 

первая часть существует?
найти немогу негде
info [Профиль]  [ЛС] 

Scor13th

Пол: Пол:Муж

Стаж: 6 лет 8 месяцев

Сообщений: 20

Россия
Рейтинг

post 22-Май-2012 18:15 (спустя 13 минут) [-]0[+]

[Цитировать] 

KipMSK писал(а):

первая часть существует?
найти немогу негде
путешествие к центру земли,это первая часть
info [Профиль]  [ЛС] 

L

Пол: Пол:Муж

Стаж: 6 лет 7 месяцев

Сообщений: 10784

Украина
Рейтинг

post 22-Май-2012 23:55 (спустя 5 часов) [-]0[+]

[Цитировать] 

Звук заменен на лицензионный.
Перекачайте торрент

_________________
info [Профиль]  [ЛС] 

post 19-Июн-2012 11:31 (спустя 27 дней) [-]0[+]

Топик был перенесен из форума Rips в форум Зарубежное кино | Rips

Panky
 

Dragon2055

Пол: Пол:Муж

Стаж: 5 лет 5 месяцев

Сообщений: 171

Рейтинг

post 17-Июл-2014 13:17 (спустя 2 года 1 месяц) [-]0[+]

[Цитировать] 

Ужасный фильм. прошло время когда снимали интересные семейные фильмы. Сейчас снимают фильмы для детей 5 лет, котрые взрослым кажутся полнейшим бредом. Я сам не понимаю как я выдержал весь фильм.
info [Профиль]  [ЛС] 

post 03-Авг-2014 23:03 (спустя 17 дней) [-]0[+]

Топик был перенесен из форума Зарубежное кино | Rips в форум Прочее | Архив (Зарубежное кино)

L
 
Показать сообщения:    
Ответить на тему

Текущее время: 05-Дек 20:44

Часовой пояс: GMT + 4



Вы не можете начинать темы
Вы не можете отвечать на сообщения
Вы не можете редактировать свои сообщения
Вы не можете удалять свои сообщения
Вы не можете голосовать в опросах
Вы не можете прикреплять файлы к сообщениям
Вы не можете скачивать файлы