Ошибка

Пожалуйста изнасилуй меня! / Please Rape Me! [OVA] [1 из 2] [2012] [Oral sex, Anal, Rape] [DVDRip] [Субтитры (JAP)] [cen]

Ответить на тему
 
Автор Сообщение

Terrorist495

Пол: Пол:Муж

Стаж: 7 лет 3 месяца

Сообщений: 65

Россия
Рейтинг

post 10-Май-2012 11:36 1[+]

[Цитировать] 

Please Rape Me! / Пожалуйста изнасилуй меня!

Год производства: 2012 г.
Жанр: Oral sex, Anal, Rape
Серии: ep. 1 of N/A
Продолжительность: 30 мин
Цензура: Есть во всех файлах
Тип: OVA

Язык: Японский
Озвучка: Оригинальная

Язык: Русский
Субтитры: Внешние ASS/SSA [Svoychuvak]

Студия: Collaboration Works

Описание: Адаптация хентайной игры компании Clock Up.
История про паренька который хочет стать насильником.

Качество видео: DVDrip
Формат видео: MP4

Видео: MPEG4 Video 704x396 (16:9) 1300Kbps 29,970 кадров/сек
Аудио: AAC 48000Hz stereo 192Kbps

Релиз: Jey.Mo
Видео
Идентификатор : 1
Формат : AVC
Формат/Информация : Advanced Video Codec
Профиль формата : High@L3.0
Параметр CABAC формата : Да
Параметр ReFrames формата : 5 кадров
Идентификатор кодека : avc1
Идентификатор кодека/Информация : Advanced Video Coding
Продолжительность : 29 м.
Битрейт : 1300 Кбит/сек
Максимальный битрейт : 6331 Кбит/сек
Ширина : 704 пикселя
Высота : 396 пикселей
Соотношение сторон : 16:9
Режим частоты кадров : Постоянный
Частота кадров : 29,970 кадров/сек
Цветовое пространство : YUV
Субдискретизация насыщенности : 4:2:0
Битовая глубина : 8 бит
Тип развёртки : Прогрессивная
Бит/(Пиксели*Кадры) : 0.156
Размер потока : 277 Мбайт (87%)
Библиотека кодирования : x264 core 68 r1181 49bf767
Настройки программы : cabac=1 / ref=5 / deblock=1:-2:-2 / analyse=0:0x111 / me=umh / subme=5 / psy_rd=0.0:0.0 / mixed_ref=1 / me_range=32 / chroma_me=1 / trellis=1 / 8x8dct=1 / cqm=0 / deadzone=21,11 / chroma_qp_offset=0 / threads=1 / nr=0 / decimate=0 / mbaff=0 / bframes=3 / b_pyramid=0 / b_adapt=2 / b_bias=0 / direct=3 / wpredb=1 / keyint=300 / keyint_min=1 / scenecut=54 / rc=2pass / bitrate=1300 / ratetol=1.0 / qcomp=0.60 / qpmin=1 / qpmax=51 / qpstep=16 / cplxblur=20.0 / qblur=0.5 / ip_ratio=1.40 / pb_ratio=1.30 / aq=0
Дата кодирования : UTC 2012-04-27 04:50:09
Дата пометки : UTC 2012-04-27 06:25:42

Аудио
Идентификатор : 2
Формат : AAC
Формат/Информация : Advanced Audio Codec
Профиль формата : LC
Идентификатор кодека : 40
Продолжительность : 29 м.
Duration_LastFrame : -17 мс.
Вид битрейта : Переменный
Битрейт : 192 Кбит/сек
Максимальный битрейт : 239 Кбит/сек
Каналы : 2 канала
Расположение каналов : Front: L R
Частота : 48,0 КГц
Метод сжатия : С потерями
Размер потока : 40,4 Мбайт (13%)
Дата кодирования : UTC 2012-04-28 06:22:48
Дата пометки : UTC 2012-04-27 06:25:42
Приятного просмотра!
info [Профиль]  [ЛС] 

Terrorist495

Пол: Пол:Муж

Стаж: 7 лет 3 месяца

Сообщений: 65

Россия
Рейтинг

post 10-Май-2012 13:04 (спустя 1 час 27 минут) [-]0[+]

[Цитировать] 

Отпишитесь, как, понравилось?

_________________
info [Профиль]  [ЛС] 

asfat

Пол: Пол:Муж

Стаж: 6 лет 7 месяцев

Сообщений: 30

Рейтинг

post 31-Июл-2012 18:17 (спустя 2 месяца 21 день) [-]0[+]

[Цитировать] 

О, да! Все на уровне...
info [Профиль]  [ЛС] 

shogen

Пол: Пол:Муж

Стаж: 3 года 10 месяцев

Сообщений: 198

Россия
Рейтинг

post 21-Май-2013 01:33 (спустя 9 месяцев 20 дней) [-]0[+]

[Цитировать] 

Скриншоты битые!

_________________
info [Профиль]  [ЛС] 

jamwalisking

Стаж: 3 года 8 месяцев

Сообщений: 3

Предупреждений: 1

Индия
Рейтинг

post 02-Ноя-2013 15:51 (спустя 5 месяцев 12 дней) [-]0[+]

[Цитировать] 

screens not working?
info [Профиль]  [ЛС] 
Показать сообщения:    
Ответить на тему

Текущее время: 04-Дек 05:58

Часовой пояс: GMT + 4



Вы не можете начинать темы
Вы не можете отвечать на сообщения
Вы не можете редактировать свои сообщения
Вы не можете удалять свои сообщения
Вы не можете голосовать в опросах
Вы не можете прикреплять файлы к сообщениям
Вы не можете скачивать файлы