Ошибка
Загрузка...

Бедная богатая девочка / Young Adult (Джейсон Райтман / Jason Reitman) [2011 г., драма, комедия, BDRip-AVC] Dub

Ответить на тему
 
Автор Сообщение

L

Пол: Пол:Муж

Стаж: 7 лет 5 месяцев

Сообщений: 11815

Украина
Рейтинг

post 03-Май-2012 23:29 1[+]

[Цитировать] 

Бедная богатая девочка / Young Adult
«Все становятся старше. Но не все взрослеют.»

Год выпуска: 2011
Страна: США
Жанр: драма, комедия
Продолжительность: 01:31:00
Перевод: Профессиональный (полное дублирование)
Субтитры: Нет
Режиссер: Джейсон Райтман / Jason Reitman
В ролях: Шарлиз Терон (Mavis Gary), Пэттон Освальт (Matt Freehauf), Патрик Уилсон (Buddy Slade), Элизабет Ризер (Beth Slade), Коллетт Вульф (Sandra Freehauf), Джилл Айкенберри (Hedda Gary), Ричард Бекинс (David Gary), Мэри Бет Херт (Jan), Кейт Ноулин (Mary Ellen Trantowski), Вирджиния ДаРе Полин (Nipple Confusion Bassist), Ребекка Харт (Nipple Confusion Guitarist), Луиса Краузе (Front Desk Girl)
Описание фильма:
        Трагикомедия про писательницу, подрабатывающую литературным негром и выдающую тинейджерские романы, отправившуюся в родной город на поиски бывшего бойфренда, который успел обзавестись семьей и ребенком.

| 6.4
| 6.7

Раздача от:
Автор рипа: L
Исходник: Young Adult 2011 1080p Blu-ray AVC DTS-HD MA 5 1-HDC

Качество: BDRip-AVC
Контейнер: MKV
Видео: AVC / High@L4.1 / 1024x576 / 1 879 Kbps / 16:9
Аудио:
48 kHz, AC3, 3/2 (L,C,R,l,r) + LFE ch, ~384.00 kbps avg - профессиональный (дублированный)
Субтитры: нет
Общее
Уникальный идентификатор : 191711280219646036493698577638581124902 (0x903A3FE0E1E3F249AD58B220A3BCBF26)
Полное имя : D:\L\Bednaja.Bogataja.Devochka.2011.BDRip.x264.ac3[by.L].mkv
Формат : Matroska
Версия формата : Version 2
Размер файла : 1,44 Гбайт
Продолжительность : 1 ч. 33 м.
Общий поток : 2202 Кбит/сек
Дата кодирования : UTC 2012-05-03 19:01:41
Программа кодирования : mkvmerge v3.2.0 ('Beginnings') built on Feb 12 2010 16:46:17
Библиотека кодирования : libebml v0.7.9 + libmatroska v0.8.1

Видео
Идентификатор : 1
Формат : AVC
Формат/Информация : Advanced Video Codec
Профиль формата : High@L4.1
Параметр CABAC формата : Да
Параметр ReFrames формата : 10 кадров
Идентификатор кодека : V_MPEG4/ISO/AVC
Продолжительность : 1 ч. 33 м.
Битрейт : 1829 Кбит/сек
Ширина : 1024 пикселя
Высота : 576 пикселей
Соотношение сторон : 16:9
Частота кадров : 23,976 кадра/сек
Цветовое пространство : YUV
Субдискретизация насыщенности : 4:2:0
Битовая глубина : 8 бит
Тип развёртки : Прогрессивная
Бит/(Пиксели*Кадры) : 0.129
Размер потока : 1,16 Гбайт (81%)
Библиотека кодирования : x264 core 120 r2164 da19765
Настройки программы : cabac=1 / ref=10 / deblock=1:-3:-2 / analyse=0x3:0x113 / me=umh / subme=11 / psy=1 / psy_rd=0.95:0.05 / mixed_ref=1 / me_range=32 / chroma_me=1 / trellis=2 / 8x8dct=1 / cqm=0 / deadzone=21,11 / fast_pskip=0 / chroma_qp_offset=-3 / threads=6 / sliced_threads=0 / nr=0 / decimate=1 / interlaced=0 / bluray_compat=0 / constrained_intra=0 / bframes=8 / b_pyramid=2 / b_adapt=1 / b_bias=0 / direct=1 / weightb=1 / open_gop=0 / weightp=2 / keyint=240 / keyint_min=22 / scenecut=40 / intra_refresh=0 / rc=2pass / mbtree=0 / bitrate=1829 / ratetol=1.0 / qcomp=0.70 / qpmin=10 / qpmax=61 / qpstep=4 / cplxblur=20.0 / qblur=0.5 / ip_ratio=1.40 / pb_ratio=1.30 / aq=2:0.70
Язык : English
Default : Нет
Forced : Нет

Аудио
Идентификатор : 2
Формат : AC-3
Формат/Информация : Audio Coding 3
Расширение режима : CM (complete main)
Идентификатор кодека : A_AC3
Продолжительность : 1 ч. 33 м.
Вид битрейта : Постоянный
Битрейт : 384 Кбит/сек
Каналы : 6 каналов
Расположение каналов : Front: L C R, Side: L R, LFE
Частота : 48,0 КГц
Битовая глубина : 16 бит
Метод сжатия : С потерями
Размер потока : 257 Мбайт (17%)
Заголовок : Дубляж
Язык : Russian
Default : Да
Forced : Нет
info [Профиль]  [ЛС] 

post 19-Июн-2012 11:28 (спустя 1 месяц 15 дней) [-]0[+]

Топик был перенесен из форума Rips в форум Зарубежное кино | Rips

Panky
 

post 03-Авг-2014 23:01 (спустя 2 года 2 месяца) [-]0[+]

Топик был перенесен из форума Зарубежное кино | Rips в форум Прочее | Архив (Зарубежное кино)

L
 
Показать сообщения:    
Ответить на тему

Текущее время: 21-Сен 14:46

Часовой пояс: GMT + 4



Вы не можете начинать темы
Вы не можете отвечать на сообщения
Вы не можете редактировать свои сообщения
Вы не можете удалять свои сообщения
Вы не можете голосовать в опросах
Вы не можете прикреплять файлы к сообщениям
Вы не можете скачивать файлы