Ошибка

Грязные танцы / Dirty Dancing (Эмиль Ардолино / Emile Ardolino) [1987 г., Мелодрама, DVDRip]

Ответить на тему
 
Автор Сообщение

TTagoHok

Пол: Пол:Муж

Стаж: 6 лет 10 месяцев

Сообщений: 379

Украина
Рейтинг

post 30-Апр-2012 00:18 0[+]

[Цитировать] 

Грязные танцы / Dirty Dancing

Год выпуска : 1987
Страна : США
Жанр: Мелодрама
Продолжительность : 01.36:14
Перевод : Профессиональный (многоголосый,закадровый)

Режиссер : Эмиль Ардолино /Emile Ardolino

В ролях : Пэтрик Суэйзи , Дженнифер Грей , Синтия Роудс , Джерри Орбак , Джек Уэстон , Келли Бишоп

Описание : Лето 1963 года. 17-летняя Фрэнсис по прозвищу Бэйби, невинная избалованная девушка из обеспеченной семьи, проводит каникулы с родителями в курортном отеле. Она знакомится с Джонни, красивым профессиональным танцором, искушённым в вопросах жизни и любви. Словно околдованная сексуальными ритмами и ничем не сдерживаемыми движениями "грязных танцев" в стиле ритм-энд-блюз, Бэйби становится ученицей-партнёршей Джонни - и в танцах, и в любви…

Источник/Качество:DVDRip
Формат: AVI
Видео кодек:XviD
Аудио кодек:AC3
Видео: Xvid 720x400 25.00fps 1388kbps
Аудио №1: Dolby AC3 48000Hz 6ch 384kbps Russian
Аудио №2: Dolby AC3 48000Hz 6ch 384kbps English

Код:

General
Complete name : L:\Gryaznye.Tancy.DVRRip.internal.release.avi
Format : AVI
Format/Info : Audio Video Interleave
File size : 1.46 GiB
Duration : 1h 36mn
Overall bit rate : 2 170 Kbps
Writing application : VirtualDubMod 1.5.10.2 (build 2540/release)
Writing library : VirtualDubMod build 2540/release

Video
ID : 0
Format : MPEG-4 Visual
Format profile : Advanced Simple@L5
Format settings, BVOP : 2
Format settings, QPel : No
Format settings, GMC : No warppoints
Format settings, Matrix : Default (H.263)
Muxing mode : Packed bitstream
Codec ID : XVID
Codec ID/Hint : XviD
Duration : 1h 36mn
Bit rate : 1 388 Kbps
Width : 720 pixels
Height : 400 pixels
Display aspect ratio : 16:9
Frame rate : 25.000 fps
Color space : YUV
Chroma subsampling : 4:2:0
Bit depth : 8 bits
Scan type : Progressive
Compression mode : Lossy
Bits/(Pixel*Frame) : 0.193
Stream size : 955 MiB (64%)
Writing library : XviD 1.2.1 (UTC 2008-12-04)

Audio #1
ID : 1
Format : AC-3
Format/Info : Audio Coding 3
Mode extension : CM (complete main)
Codec ID : 2000
Duration : 1h 36mn
Bit rate mode : Constant
Bit rate : 384 Kbps
Channel(s) : 6 channels
Channel positions : Front: L C R, Side: L R, LFE
Sampling rate : 48.0 KHz
Bit depth : 16 bits
Compression mode : Lossy
Stream size : 264 MiB (18%)
Alignment : Split accross interleaves
Interleave, duration : 40 ms (1.00 video frame)
Interleave, preload duration : 500 ms

Audio #2
ID : 2
Format : AC-3
Format/Info : Audio Coding 3
Mode extension : CM (complete main)
Codec ID : 2000
Duration : 1h 36mn
Bit rate mode : Constant
Bit rate : 384 Kbps
Channel(s) : 6 channels
Channel positions : Front: L C R, Side: L R, LFE
Sampling rate : 48.0 KHz
Bit depth : 16 bits
Compression mode : Lossy
Stream size : 264 MiB (18%)
Alignment : Split accross interleaves
Interleave, duration : 40 ms (1.00 video frame)
Interleave, preload duration : 500 ms
info [Профиль]  [ЛС] 
Показать сообщения:    
Ответить на тему

Текущее время: 08-Дек 10:02

Часовой пояс: GMT + 4



Вы не можете начинать темы
Вы не можете отвечать на сообщения
Вы не можете редактировать свои сообщения
Вы не можете удалять свои сообщения
Вы не можете голосовать в опросах
Вы не можете прикреплять файлы к сообщениям
Вы не можете скачивать файлы