Ошибка

[National Geographic Wild] Леопарды дельты Окаванго / Leopards of Dead Tree Island (Майкл Розенберг) [2010, документальный, BDRip 720p]

Ответить на тему
 
Автор Сообщение

Captain

Пол: Пол:Муж

Стаж: 6 лет 6 месяцев

Сообщений: 932

Россия
Рейтинг

post 24-Апр-2012 18:39 0[+]

[Цитировать] 

pic="http://s002.youpic.su/pictures/1335211200/6fbc185cccd1b7b5153fe950bc764ed0.jpg"
Леопарды дельты Окаванго / Leopards of Dead Tree Island


Год выпуска: 2010
Страна:
Продолжительность: 00:44:59.640
Жанр: документальный
Перевод: профессиональный(одноголосый)


Режиссер: Майкл Розенберг


В ролях: Представители животного мира саванны


О фильме:
    Обычно леопарды избегают друг друга, но остров в дельте реки Окаванго в Ботсване стал общей территорией охоты сразу для трех из этих больших кошек.


Качество: BDRip 720р
Формат: MKV
Видео кодек: AVC
Аудио кодек: MPEG Audio и AC-3
Видео: AVC, 7 440 Kbps, 1280 x 720, 16:9, 25.000 fps
Аудио:
AC-3, 2 channels, 2/0, 192 Kbps, 48.0 KHz
MPEG Audio, 2 channels,, 224 Kbps, 48.0 KHz

Код:

Общее
Уникальный идентификатор                 : 247986280849083368123451345190371078655 (0xBA906B9FE353EFB6B03E25033D3231FF)
Полное имя                               : ...\Video\Leopards.of.Dead.Tree.Island.2010.720p.mkv
Формат                                   : Matroska
Версия формата                           : Version 2
Размер файла                             : 2,52 Гбайт
Продолжительность                        : 44 м.
Общий поток                              : 8016 Кбит/сек
Название фильма                          : ENCODED  BY  DON  2012
Дата кодирования                         : UTC 2012-04-20 14:03:47
Программа кодирования                    : mkvmerge v3.3.0 ('Language') сборка от May 14 2010 17:11:50
Библиотека кодирования                   : libebml v0.8.0 + libmatroska v0.9.0

Видео
Идентификатор                            : 1
Формат                                   : AVC
Формат/Информация                        : Advanced Video Codec
Профиль формата                          : High@L4.1
Параметр CABAC формата                   : Да
Параметр ReFrames формата                : 7 кадров
Идентификатор кодека                     : V_MPEG4/ISO/AVC
Продолжительность                        : 44 м.
Битрейт                                  : 7440 Кбит/сек
Ширина                                   : 1280 пикселей
Высота                                   : 720 пикселей
Соотношение сторон                       : 16:9
Частота кадров                           : 25,000 кадров/сек
Цветовое пространство                    : YUV
Субдискретизация насыщенности            : 4:2:0
Битовая глубина                          : 8 бит
Тип развёртки                            : Прогрессивная
Бит/(Пиксели*Кадры)                      : 0.323
Размер потока                            : 2,34 Гбайт (93%)
Библиотека кодирования                   : x264 core 120 r2164 da19765
Настройки программы                      : cabac=1 / ref=7 / deblock=1:-3:-3 / analyse=0x3:0x113 / me=tesa / subme=10 / psy=1 / psy_rd=1.00:0.00 / mixed_ref=1 / me_range=24 / chroma_me=1 / trellis=2 / 8x8dct=1 / cqm=0 / deadzone=21,11 / fast_pskip=0 / chroma_qp_offset=-2 / threads=6 / sliced_threads=0 / nr=0 / decimate=0 / interlaced=0 / bluray_compat=0 / constrained_intra=0 / bframes=6 / b_pyramid=2 / b_adapt=2 / b_bias=0 / direct=3 / weightb=1 / open_gop=0 / weightp=2 / keyint=250 / keyint_min=25 / scenecut=40 / intra_refresh=0 / rc_lookahead=50 / rc=crf / mbtree=1 / crf=18.5 / qcomp=0.80 / qpmin=10 / qpmax=51 / qpstep=4 / vbv_maxrate=50000 / vbv_bufsize=62500 / crf_max=0.0 / nal_hrd=none / ip_ratio=1.40 / aq=1:0.80
Default                                  : Нет
Forced                                   : Нет

Аудио #1
Идентификатор                            : 2
Формат                                   : MPEG Audio
Версия формата                           : Version 1
Профиль формата                          : Layer 2
Идентификатор кодека                     : A_MPEG/L2
Идентификатор кодека/Подсказка           : MP2
Продолжительность                        : 44 м.
Вид битрейта                             : Постоянный
Битрейт                                  : 224 Кбит/сек
Каналы                                   : 2 канала
Частота                                  : 48,0 КГц
Метод сжатия                             : С потерями
Размер потока                            : 72,1 Мбайт (3%)
Заголовок                                : Оригинал
Язык                                     : English
Default                                  : Нет
Forced                                   : Нет

Аудио #2
Идентификатор                            : 3
Формат                                   : AC-3
Формат/Информация                        : Audio Coding 3
Расширение режима                        : CM (complete main)
Параметр Endianness формата              : Big
Идентификатор кодека                     : A_AC3
Продолжительность                        : 44 м.
Вид битрейта                             : Постоянный
Битрейт                                  : 192 Кбит/сек
Каналы                                   : 2 канала
Расположение каналов                     : Front: L R
Частота                                  : 48,0 КГц
Битовая глубина                          : 16 бит
Метод сжатия                             : С потерями
Размер потока                            : 61,8 Мбайт (2%)
Заголовок                                : Игорь Тарадайкин
Язык                                     : Russian
Default                                  : Да
Forced                                   : Нет
info [Профиль]  [ЛС] 
Показать сообщения:    
Ответить на тему

Текущее время: 03-Дек 08:39

Часовой пояс: GMT + 4



Вы не можете начинать темы
Вы не можете отвечать на сообщения
Вы не можете редактировать свои сообщения
Вы не можете удалять свои сообщения
Вы не можете голосовать в опросах
Вы не можете прикреплять файлы к сообщениям
Вы не можете скачивать файлы