Ошибка

Агент Вексилл / Vexille: 2077 Nihon sakoku [Movie] [2007] [фантастика, киберпанк, меха] [BDRip] [1080p] [Профессиональный(JAP+SUB)]

Ответить на тему
 
Автор Сообщение

mallaigne

Пол: Пол:Муж

Стаж: 5 лет 1 месяц

Сообщений: 93

Предупреждений: 1

Россия
Рейтинг

post 04-Апр-2012 17:33 1[+]

[Цитировать] 

Агент Вексилл / Vexille: 2077 Nihon sakoku
«The dark secret of future Tokyo!»


Год выпуска: 2007
Страна: Япония
Жанр: фантастика, киберпанк, меха
Продолжительность: 01:49:43
Оригинальная озвучка: Коллин Клинкенберд, Меиса Куроки, Шосуке Танихара, Трэвис Уиллингэм, Christine M. Auten, Ясуко Мацуюки
Субтитры:
  • русские субтитры от diman[26]
(редакция: Saturos)
  • русские субтитры от не известно
Русская озвучка:
  • многоголосая (Силена Интернэшнал)
Режиссер:
  • Фумихико Сори / Fumihiko Sori
Студия: Avex Entertainment
Описание:
Действие фильма происходит в 2077 году. За 10 лет до этого Япония вышла из ООН и отгородилась от мира магнитным полем. Поводом для этого послужила резолюция ООН, которая запретила дальнейшее развитие робототехники и биотехнологий, угрожающих существованию человечества.

И вот правительство США посылает в Японию спецподразделение SWORD под командованием женщины по имени Vexille. Задание — узнать, что за эти 10 лет случилось в Стране Восходящего Солнца, где запретные науки развивались абсолютно бесконтрольно. Однако оказывается, что тайны одна за одной скрывают другую и все это ведет к драматическому финалу…
Информационные ссылки: AniDB || World Art || MAL
Доп. информация: Собственный рип
-=Раздача ведется в промежуток с 7:00 по 19:00 по Московскому времени=-
Качество: BDRip
Тип видео: без хардсаба
Формат: mkv
Видео: H264 / 6514 kbps / 1920х1080 (16:9) / 23,976 fps / High Profile 4.1 / Bit/(Pixel*Frame) 0.131
Аудио RUS 1: AC3, 48000Hz, 448 Kbps, 6ch, 24-bit (в составе контейнера)
Аудио JPN: DTS, 48000Hz, 1510 Kbps, 6ch, 24-bit (в составе контейнера)
Субтитры: Русские softsub (ASS), Русские softsub (SRT) (в составе контейнера)

Скачать сэмпл "Агент Вексилл / Vexille: 2077 Nihon sakoku"
I:\Anime\Vexille - 2077 Nihon Sakoku [Агент Вексилл] (2007) 1920x1080 BDRip by -=mallaigne=- RusJpnSub.mkv
General
Unique ID : 185941236612315019963401726965460947665 (0x8BE2FAC3B5E231D7A1F0084EDF0AD2D1)
Complete name : I:\Anime\Vexille - 2077 Nihon Sakoku [Агент Вексилл] (2007) 1920x1080 BDRip by -=mallaigne=- RusJpnSub.mkv
Format : Matroska
Format version : Version 2
File size : 6.49 GiB
Duration : 1h 49mn
Overall bit rate : 8 460 Kbps
Movie name : ripped by -=mallaigne=-
Encoded date : UTC 2012-04-04 12:46:34
Writing application : mkvmerge v5.4.0 ('Piper') built on Mar 10 2012 13:34:39
Writing library : libebml v1.2.3 + libmatroska v1.3.0
Video #1
ID : 1
Format : AVC
Format/Info : Advanced Video Codec
Format profile : High@L4.1
Format settings, CABAC : Yes
Format settings, ReFrames : 4 frames
Codec ID : V_MPEG4/ISO/AVC
Duration : 1h 49mn
Bit rate : 6 514 Kbps
Width : 1 920 pixels
Height : 1 080 pixels
Display aspect ratio : 16:9
Frame rate : 23.976 fps
Color space : YUV
Chroma subsampling : 4:2:0
Bit depth : 8 bits
Scan type : Progressive
Bits/(Pixel*Frame) : 0.131
Stream size : 4.86 GiB (75%)
Writing library : x264 core 122 r2184 5c85e0a
Encoding settings : cabac=1 / ref=4 / deblock=1:-2:-2 / analyse=0x3:0x113 / me=umh / subme=11 / psy=1 / psy_rd=0.80:0.00 / mixed_ref=1 / me_range=64 / chroma_me=1 / trellis=2 / 8x8dct=1 / cqm=0 / deadzone=21,11 / fast_pskip=0 / chroma_qp_offset=-2 / threads=12 / sliced_threads=0 / nr=0 / decimate=0 / interlaced=0 / bluray_compat=0 / constrained_intra=0 / bframes=10 / b_pyramid=2 / b_adapt=2 / b_bias=0 / direct=3 / weightb=1 / open_gop=0 / weightp=2 / keyint=240 / keyint_min=23 / scenecut=40 / intra_refresh=0 / rc_lookahead=40 / rc=2pass / mbtree=1 / bitrate=6514 / ratetol=1.0 / qcomp=0.60 / qpmin=0 / qpmax=69 / qpstep=4 / cplxblur=20.0 / qblur=0.5 / ip_ratio=1.40 / aq=1:0.60
Language : English
Default : Yes
Forced : No
Color primaries : BT.709-5, BT.1361, IEC 61966-2-4, SMPTE RP177
Transfer characteristics : BT.709-5, BT.1361
Matrix coefficients : BT.709-5, BT.1361, IEC 61966-2-4 709, SMPTE RP177
Audio #2
ID : 2
Format : AC-3
Format/Info : Audio Coding 3
Mode extension : CM (complete main)
Codec ID : A_AC3
Duration : 1h 49mn
Bit rate mode : Constant
Bit rate : 448 Kbps
Channel(s) : 6 channels
Channel positions : Front: L C R, Side: L R, LFE
Sampling rate : 48.0 KHz
Bit depth : 16 bits
Compression mode : Lossy
Stream size : 352 MiB (5%)
Title : MVO AC3 6ch 448kbps
Language : Russian
Default : Yes
Forced : No
Audio #3
ID : 3
Format : DTS
Format/Info : Digital Theater Systems
Codec ID : A_DTS
Duration : 1h 49mn
Bit rate mode : Constant
Bit rate : 1 510 Kbps
Channel(s) : 6 channels
Channel positions : Front: L C R, Side: L R, LFE
Sampling rate : 48.0 KHz
Bit depth : 24 bits
Compression mode : Lossy
Stream size : 1.16 GiB (18%)
Title : Original DTS 6ch 1510kbps
Language : Japanese
Default : No
Forced : No
Text #4
ID : 4
Format : ASS
Codec ID : S_TEXT/ASS
Codec ID/Info : Advanced Sub Station Alpha
Compression mode : Lossless
Language : Russian
Default : Yes
Forced : No
Text #5
ID : 5
Format : UTF-8
Codec ID : S_TEXT/UTF8
Codec ID/Info : UTF-8 Plain Text
Language : Russian
Default : No
Forced : No
x264 [info]: frame I:1093 Avg QP:11.39 size:191324 PSNR Mean Y:55.98 U:60.35 V:60.58 Avg:56.86 Global:55.87
x264 [info]: frame P:52414 Avg QP:15.62 size: 58180 PSNR Mean Y:52.72 U:57.70 V:57.94 Avg:53.64 Global:52.80
x264 [info]: frame B:104336 Avg QP:19.91 size: 20070 PSNR Mean Y:51.79 U:57.32 V:57.51 Avg:52.75 Global:51.60
x264 [info]: consecutive B-frames: 8.6% 5.2% 41.7% 15.9% 7.4% 18.0% 0.8% 0.7% 0.4% 0.5% 0.8%
x264 [info]: mb I I16..4: 12.3% 80.3% 7.4%
x264 [info]: mb P I16..4: 5.5% 27.3% 1.5% P16..4: 26.4% 14.4% 3.4% 0.0% 0.0% skip:21.6%
x264 [info]: mb B I16..4: 1.2% 4.8% 0.1% B16..8: 26.9% 8.8% 1.1% direct: 3.6% skip:53.4% L0:41.9% L1:46.2% BI:
11.9%
x264 [info]: 8x8 transform intra:79.2% inter:69.6%
x264 [info]: direct mvs spatial:92.0% temporal:8.0%
x264 [info]: coded y,uvDC,uvAC intra: 58.2% 66.9% 41.5% inter: 13.1% 14.5% 5.4%
x264 [info]: i16 v,h,dc,p: 33% 20% 7% 40%
x264 [info]: i8 v,h,dc,ddl,ddr,vr,hd,vl,hu: 13% 15% 21% 6% 8% 8% 9% 8% 11%
x264 [info]: i4 v,h,dc,ddl,ddr,vr,hd,vl,hu: 19% 17% 27% 5% 9% 7% 7% 4% 5%
x264 [info]: i8c dc,h,v,p: 30% 40% 20% 11%
x264 [info]: Weighted P-Frames: Y:3.2% UV:1.4%
x264 [info]: ref P L0: 59.7% 5.7% 20.1% 10.2% 4.2% 0.1%
x264 [info]: ref B L0: 83.6% 13.5% 3.0%
x264 [info]: ref B L1: 89.2% 10.8%
x264 [info]: SSIM Mean Y:0.9945508 (22.637db)
x264 [info]: PSNR Mean Y:52.126 U:57.464 V:57.672 Avg:53.075 Global:51.984 kb/s:6504.43

encoded 157843 frames, 5.04 fps, 6504.43 kb/s
info [Профиль]  [ЛС] 
Показать сообщения:    
Ответить на тему

Текущее время: 06-Дек 23:58

Часовой пояс: GMT + 4



Вы не можете начинать темы
Вы не можете отвечать на сообщения
Вы не можете редактировать свои сообщения
Вы не можете удалять свои сообщения
Вы не можете голосовать в опросах
Вы не можете прикреплять файлы к сообщениям
Вы не можете скачивать файлы