Ошибка

Мамы (Евгений Абызов, Сарик Андреасян, Алан Бадоев) [2012, мелодрама, комедия, BDRip-AVC]

Ответить на тему
 
Автор Сообщение

L

Пол: Пол:Муж

Стаж: 6 лет 8 месяцев

Сообщений: 10829

Украина
Рейтинг

post 01-Апр-2012 21:21 1[+]

[Цитировать] 


Мамы
«Доброе кино»

Год выхода: 2012
Выпущено: Россия / Enjoy Movies
Продолжительность: 01:41:14
Озвучивание: Оригинальное
Жанр: мелодрама, комедия
Режиссер: Евгений Абызов, Сарик Андреасян, Алан Бадоев
В ролях: Сергей Безруков, Дмитрий Дюжев, Михаил Пореченков, Егор Бероев, Гоша Куценко, Петр Федоров, Федор Добронравов, Иван Добронравов, Игорь Верник, Александр Олешко
О фильме:
Каждый год в день 8-го марта телефонные сети России передают миллионы звонков и смс-сообщений. Трудолюбивые аналитики подсчитали, что абсолютное большинство телефонных звонков адресовано самым главным женщинам в жизни каждого человека — мамам.
Мы выросли, и заготовленные заранее аппликации и букеты цветов, купленные до маминого пробуждения, — давно забытые детские привычки. Отныне мы поздравляем мам по-взрослому: дожидаемся, когда они проснутся, и набираем телефонный номер.
Но что, если случится коллапс, и из-за пиковой перегруженности телефонная сеть рухнет? Итак, связи нет. Что делать? Кто-то будет ждать, пока её восстановят — поздравит вечером или даже на следующий день. А другие, как и герои нашего киноальманаха, поменяют свои планы, чтобы поздравить своих мам именно сегодня… лично… как в детстве!
Восемь разных поздравлений и жизненных ситуаций. Восемь разных МАМ.
| 7.3
| 6.3

Раздача от:
Автор рипа: L
Исходник: Blu-Ray 1080i

Качество: BDRip-AVC
Контейнер: MKV
Видео: x.264 / 1034x440 / 2 272 Kbps / 2.35:1 / High@L4.1
Аудио:
    48 kHz, AC3, 3/2 (L,C,R,l,r) + LFE ch, ~448.00 kbps avg - оригинал
Субтитры: нет
Общее
Уникальный идентификатор : 228313027037147164084383914088931120165 (0xABC37D52EA975C439B3C7BF9B551D425)
Полное имя : D:\L\MAMbI.BDRip.X.264.AC3.RG.25.Kadr[by.L].mkv
Формат : Matroska
Версия формата : Version 2
Размер файла : 2,05 Гбайт
Продолжительность : 1 ч. 45 м.
Общий поток : 2775 Кбит/сек
Дата кодирования : UTC 2012-04-01 11:07:16
Программа кодирования : mkvmerge v3.2.0 ('Beginnings') built on Feb 12 2010 16:46:17
Библиотека кодирования : libebml v0.7.9 + libmatroska v0.8.1

Видео
Идентификатор : 1
Формат : AVC
Формат/Информация : Advanced Video Codec
Профиль формата : High@L4.1
Параметр CABAC формата : Да
Параметр ReFrames формата : 10 кадров
Идентификатор кодека : V_MPEG4/ISO/AVC
Продолжительность : 1 ч. 45 м.
Битрейт : 2272 Кбит/сек
Номинальный битрейт : 2445 Кбит/сек
Ширина : 1034 пикселя
Высота : 440 пикселей
Соотношение сторон : 2,35:1
Частота кадров : 23,976 кадра/сек
Частота кадров в оригинале : 25,000 кадров/сек
Цветовое пространство : YUV
Субдискретизация насыщенности : 4:2:0
Битовая глубина : 8 бит
Тип развёртки : Прогрессивная
Бит/(Пиксели*Кадры) : 0.208
Размер потока : 1,68 Гбайт (82%)
Библиотека кодирования : x264 core 120 r2164 da19765
Настройки программы : cabac=1 / ref=10 / deblock=1:-2:-1 / analyse=0x3:0x113 / me=umh / subme=11 / psy=1 / psy_rd=0.95:0.05 / mixed_ref=1 / me_range=32 / chroma_me=1 / trellis=2 / 8x8dct=1 / cqm=0 / deadzone=21,11 / fast_pskip=0 / chroma_qp_offset=-3 / threads=6 / sliced_threads=0 / nr=0 / decimate=1 / interlaced=0 / bluray_compat=0 / constrained_intra=0 / bframes=8 / b_pyramid=2 / b_adapt=1 / b_bias=0 / direct=1 / weightb=1 / open_gop=0 / weightp=2 / keyint=250 / keyint_min=23 / scenecut=40 / intra_refresh=0 / rc=2pass / mbtree=0 / bitrate=2445 / ratetol=1.0 / qcomp=0.70 / qpmin=10 / qpmax=61 / qpstep=4 / cplxblur=20.0 / qblur=0.5 / ip_ratio=1.40 / pb_ratio=1.30 / aq=2:0.70
Default : Да
Forced : Нет

Аудио
Идентификатор : 2
Формат : AC-3
Формат/Информация : Audio Coding 3
Расширение режима : CM (complete main)
Идентификатор кодека : A_AC3
Продолжительность : 1 ч. 45 м.
Вид битрейта : Постоянный
Битрейт : 448 Кбит/сек
Каналы : 6 каналов
Расположение каналов : Front: L C R, Side: L R, LFE
Частота : 48,0 КГц
Битовая глубина : 16 бит
Метод сжатия : С потерями
Размер потока : 338 Мбайт (16%)
Язык : Russian
Default : Да
Forced : Нет
info [Профиль]  [ЛС] 

post 23-Апр-2012 16:40 (спустя 21 день) [-]0[+]

Топик был перенесен из форума Rips в форум Российское кино (Rips)

chingis
 

post 03-Авг-2014 23:01 (спустя 2 года 4 месяца) [-]0[+]

Топик был перенесен из форума Российское кино (Rips) в форум Архив (Отечественное кино)

L
 
Показать сообщения:    
Ответить на тему

Текущее время: 09-Дек 02:14

Часовой пояс: GMT + 4



Вы не можете начинать темы
Вы не можете отвечать на сообщения
Вы не можете редактировать свои сообщения
Вы не можете удалять свои сообщения
Вы не можете голосовать в опросах
Вы не можете прикреплять файлы к сообщениям
Вы не можете скачивать файлы