Ошибка

До окончания фрилича осталось:


Рапунцель: Счастлива навсегда / Tangled Ever After (Нэйтан Грено, Байрон Ховард) [2012 г., Мультфильм, Короткометражка, HDRip]

Ответить на тему
 
Автор Сообщение

mir978

Пол: Пол:Муж

Стаж: 4 года 9 месяцев

Сообщений: 213

Украина
Рейтинг

post 29-Мар-2012 12:00 2[+]

[Цитировать] 

Рапунцель: Счастлива навсегда / Tangled Ever After

Год выпуска: 2012
Страна: США
Жанр: Мультфильм, Короткометражка
Продолжительность: 00:07:27
Перевод: Профессиональный (многоголосый закадровый)
Субтитры: нет
Режиссеры:
  • Нэйтан Грено, Байрон Ховард
Роли озвучивали:
  • Закари Левай, Мэнди Мур, Марк Аллан Стюарт и др.

Описание: В волшебном королевстве грандиозный праздник: Рапунцель идет под венец! Все затаив дыхание ждут торжественной минуты. Но свадебная церемония грозит обернуться катастрофой: конь Максимус и хамелеон Паскаль теряют подвенечные кольца. У них остается всего несколько минут, чтобы найти пропажу.
Качество: HDRip
Формат: AVI
Видео кодек: XviD
Аудио кодек: AC3
Видео: XviD, 720x416, 30 fps, ~2120 kbps avg
Аудио: AC3, 48 kHz, 2/0 (L,R) ch, 192.00 kbps



General
Complete name : D:\Фильмы\Рапунцель Счастлива навсегда.avi
Format : AVI
Format/Info : Audio Video Interleave
File size : 107 MiB
Duration : 6mn 27s
Overall bit rate : 2 320 Kbps

Video
ID : 0
Format : MPEG-4 Visual
Format profile : Advanced Simple@L5
Format settings, BVOP : 1
Format settings, QPel : No
Format settings, GMC : No warppoints
Format settings, Matrix : Default (H.263)
Muxing mode : Packed bitstream
Codec ID : XVID
Codec ID/Hint : XviD
Duration : 6mn 27s
Bit rate : 2 120 Kbps
Width : 720 pixels
Height : 416 pixels
Display aspect ratio : 16:9
Frame rate : 30.000 fps
Color space : YUV
Chroma subsampling : 4:2:0
Bit depth : 8 bits
Scan type : Progressive
Compression mode : Lossy
Bits/(Pixel*Frame) : 0.236
Stream size : 97.9 MiB (91%)
Writing library : XviD 1.2.1 (UTC 2008-12-04)

Audio
ID : 1
Format : AC-3
Format/Info : Audio Coding 3
Mode extension : CM (complete main)
Codec ID : 2000
Duration : 6mn 26s
Bit rate mode : Constant
Bit rate : 192 Kbps
Channel(s) : 3 channels
Channel positions : Front: L R, LFE
Sampling rate : 48.0 KHz
Bit depth : 16 bits
Compression mode : Lossy
Stream size : 8.85 MiB (8%)
Alignment : Aligned on interleaves
Interleave, duration : 64 ms (1.92 video frames)
Interleave, preload duration : 192 ms
Title : T2_Audio - Russian
info [Профиль]  [ЛС] 

Mitya1994

Пол: Пол:Муж

Стаж: 4 года 9 месяцев

Сообщений: 41

Россия
Рейтинг

post 29-Мар-2012 13:55 (спустя 1 час 55 минут) [-]0[+]

[Цитировать] 

спасибо скачаю для дочки пускай посмотрит!!!
info [Профиль]  [ЛС] 

AGeneral

Пол: Пол:Муж

Стаж: 6 лет 8 месяцев

Сообщений: 2

Рейтинг

post 29-Мар-2012 14:09 (спустя 13 минут) [-]0[+]

[Цитировать] 

Я ржал, классно сделали, анимация великолепна!
Есть один недочет - принц берет сразу два кольца у коня, а потом молодожены обмениваются кольцами, хотя Рапнцель кольцо ни у коня, ни у принца не брала Улыбаюсь
info [Профиль]  [ЛС] 

FykyRykyTy

Пол: Пол:Муж

Стаж: 7 лет 5 месяцев

Сообщений: 489

Украина
Рейтинг

post 29-Мар-2012 17:03 (спустя 2 часа 54 минуты) [-]0[+]

[Цитировать] 

Супер, основной мульт очень понравился.

_________________
Asus Rampage V Extreme (Intel X99) i7-5820K CPU @ 3.30GHz / Corsair DDR4-3000MHz 16GB Vengeance LPX / Gigabyte PCI-Ex GeForce GTX Titan X 12GB / Deepcool Captain 360
info [Профиль]  [ЛС] 

ЮзверЪ

Пол: Пол:Муж

Стаж: 4 года 8 месяцев

Сообщений: 9

Предупреждений: 1

СССР
Рейтинг

post 29-Мар-2012 18:13 (спустя 1 час 9 минут) [-]0[+]

[Цитировать] 

Да основа была крута! Только вот теперь будут пиарить как Шрека ))))
info [Профиль]  [ЛС] 

post 23-Апр-2012 16:40 (спустя 24 дня) [-]0[+]

Топик был перенесен из форума Rips в форум Отечественные короткометражные мультфильмы

chingis
 

post 27-Май-2012 13:43 (спустя 1 месяц 28 дней) [-]0[+]

Топик был перенесен из форума Отечественные короткометражные мультфильмы в форум Зарубежные короткометражные мультфильмы

Alex Ander
 
Показать сообщения:    
Ответить на тему

Текущее время: 10-Дек 11:05

Часовой пояс: GMT + 4



Вы не можете начинать темы
Вы не можете отвечать на сообщения
Вы не можете редактировать свои сообщения
Вы не можете удалять свои сообщения
Вы не можете голосовать в опросах
Вы не можете прикреплять файлы к сообщениям
Вы не можете скачивать файлы