Ошибка

До окончания фрилича осталось:


Демон отец: Происхождение / Oni Chichi: Re-born / Father Demons - Re-born: Travellers' Emotions [1 из 1][2011][ big tits, oral, straight][DVDRip][Субтитры (JAP)]

Ответить на тему
 
Автор Сообщение

Captain Evidence

Пол: Пол:Муж

Стаж: 5 лет 5 месяцев

Сообщений: 141

Предупреждений: 2

Великобритания
Рейтинг

post 25-Мар-2012 17:09 0[+]

[Цитировать] 


Демон отец: Происхождение | Oni Chichi: Re-born | Father Demons - Re-born: Travellers' Emotions

Страна:
Тип: 1 эп., 30 мин. 20 сек.
Выпуск: 2011
Энкод: Captain Evidence
Релиз от:
Тип: DVDRip (без хардсаба)
Видео: 768x432 (1.78:1), 23,976 fps, x264, High@L4.1 ~827 kbps avg, 0.104 bit/pixel
Аудио:
    • [int]: 48 kHz, AC3 Dolby Digital, 2/0 (L,R) ch, ~192 kbps
Субтитры:
    • [int]: ASS - Ecchi-kun

Описание: В этот раз наша главная героиня Айри вместе с её похотливым отцом отправилась на горячие источники. Во время поездки естественно не обошлось без курьёзов, но спустя некоторый промежуток времени наши герои всё же достигли места назначения. Чистое и голубое небо, завораживающей красоты осенняя листва и конечно же сами горячие источники. Казалось бы полная идиллия, но Айри всё таки что-то тревожит. Она до сих пор не может разобраться в своих чувствах к отцу, быть может он что-то недоговаривает или просто не любит её как свою дочь без применения различных таблеток и любовных ароматизаторов, дабы склонить её к сексу...

Формат : Matroska
Версия формата : Version 2
Размер файла : 226 Мбайт
Продолжительность : 30 м.
Общий поток : 1041 Кбит/сек
Дата кодирования : UTC 2012-03-25 17:00:13
Программа кодирования : mkvmerge v4.9.1 ('Ich will') сборка от Jul 11 2011 23:53:15
Библиотека кодирования : libebml v1.2.1 + libmatroska v1.1.1

Видео
Идентификатор : 1
Формат : AVC
Формат/Информация : Advanced Video Codec
Профиль формата : High@L4.1
Параметр CABAC формата : Да
Параметр ReFrames формата : 11 кадров
Идентификатор кодека : V_MPEG4/ISO/AVC
Продолжительность : 30 м.
Битрейт : 828 Кбит/сек
Ширина : 768 пикселей
Высота : 432 пикселя
Соотношение сторон : 16:9
Частота кадров : 23,976 кадра/сек
Цветовое пространство : YUV
Субдискретизация насыщенности : 4:2:0
Битовая глубина : 8 бит
Тип развёртки : Прогрессивная
Бит/(Пиксели*Кадры) : 0.104
Размер потока : 180 Мбайт (80%)
Заголовок : Rip by Captain Evidence [Hentai Team] - tapochek.net
Библиотека кодирования : x264 core 116 r2074 2641b9e
Настройки программы : cabac=1 / ref=11 / deblock=1:0:0 / analyse=0x3:0x113 / me=umh / subme=9 / psy=1 / psy_rd=0.85:0.00 / mixed_ref=1 / me_range=32 / chroma_me=1 / trellis=2 / 8x8dct=1 / cqm=0 / deadzone=21,11 / fast_pskip=0 / chroma_qp_offset=-4 / threads=3 / sliced_threads=0 / nr=0 / decimate=0 / interlaced=0 / bluray_compat=0 / constrained_intra=0 / bframes=11 / b_pyramid=2 / b_adapt=2 / b_bias=0 / direct=1 / weightb=1 / open_gop=0 / weightp=2 / keyint=240 / keyint_min=23 / scenecut=40 / intra_refresh=0 / rc_lookahead=60 / rc=crf / mbtree=0 / crf=16.8 / qcomp=0.60 / qpmin=10 / qpmax=69 / qpstep=4 / vbv_maxrate=62500 / vbv_bufsize=50000 / crf_max=0.0 / nal_hrd=none / ip_ratio=1.40 / pb_ratio=1.30 / aq=1:1.00
Язык : Japanese
Default : Да
Forced : Нет

Аудио
Идентификатор : 2
Формат : AC-3
Формат/Информация : Audio Coding 3
Расширение режима : CM (complete main)
Идентификатор кодека : A_AC3
Продолжительность : 30 м.
Вид битрейта : Постоянный
Битрейт : 192 Кбит/сек
Каналы : 2 канала
Расположение каналов : Front: L R
Частота : 48,0 КГц
Битовая глубина : 16 бит
Метод сжатия : С потерями
Размер потока : 41,7 Мбайт (18%)
Заголовок : Original
Язык : Japanese
Default : Да
Forced : Нет

Текст
Идентификатор : 3
Формат : ASS
Идентификатор кодека : S_TEXT/ASS
Идентификатор кодека/Информация : Advanced Sub Station Alpha
Метод сжатия : Без потерь
Заголовок : Ecchi-kun
Язык : Russian
Default : Да
Forced : Нет

info [Профиль]  [ЛС] 

post 29-Мар-2012 21:34 (спустя 4 дня) [-]0[+]

Топик был перенесен из форума Отстойник в форум Censored

Гильгамеш
 
Показать сообщения:    
Ответить на тему

Текущее время: 10-Дек 09:06

Часовой пояс: GMT + 4



Вы не можете начинать темы
Вы не можете отвечать на сообщения
Вы не можете редактировать свои сообщения
Вы не можете удалять свои сообщения
Вы не можете голосовать в опросах
Вы не можете прикреплять файлы к сообщениям
Вы не можете скачивать файлы