Ошибка

До окончания фрилича осталось:


Призрак в доспехах 2: Невинность / Ghost in the Shell 2: Innocence [Movie] [2004] [фантастика, боевик, киберпанк] [BDRip] [1080p] [Авторский(JAP+SUB)]

Ответить на тему
 
Автор Сообщение

mallaigne

Пол: Пол:Муж

Стаж: 5 лет 1 месяц

Сообщений: 93

Предупреждений: 1

Россия
Рейтинг

post 18-Мар-2012 17:11 0[+]

[Цитировать] 

Призрак в доспехах 2: Невинность / Ghost in the Shell 2: Innocence


Год выпуска: 2004
Страна: Япония
Жанр: фантастика, боевик, киберпанк
Продолжительность: 01:39:05
Русская озвучка: Авторский (двухголосый закадровый) - Гланц и Королева
Режиссер:
  • Мамору Осии / Mamoru Oshii
Оригинальная озвучка:
  • Акио Ютсука, Ацуко Танака, Коиши Ямадера, Тамио Оки, Ютака Накано, Наото Такэнака, Gou Aoba, Eisuke Asakura, Роберт Аксельрод, Ричард Кансино
Описание:
Близкое будущее, 2032 год. Техника достигла невиданного прогресса. Это мир, который люди разделяют с киборгами и роботами. Бато — детектив отдела полиции по борьбе с терроризмом. Он — живой киборг, оснащенный искусственными руками, ногами и прочими частями тела. Остался лишь его прежний мозг да память о ней, о Мотоко Кусанаги.

Вместе с напарником Тогусой Бато привлечен к расследованию серии убийств роботами своих владельцев, причем все роботы относятся к экспериментальной модели секс-андроидов фирмы Locus Solus. Компания предпочла бы замять дело, отозвав роботов с рынка и договорившись с родственниками погибших. Но Бато и Тогуса — не из тех, с кем можно заключить полюбовную сделку.
Информационные ссылки: AniDB || World Art || MAL
Доп. информация: Собственный рип
-=Раздача ведется в промежуток с 7:00 по 19:00 по Московскому времени=-
Качество: BDRip
Тип видео: без хардсаба
Формат: mkv
Видео: H264 / 9000 kbps / 1920х1036 (1.85:1) / 23,976 fps / High Profile 4.1 / Bit/(Pixel*Frame) 0.189
Аудио 1: Русский двухголосый закадровый / AC3 / 5.1 / 48 kHz / 640 kbps (в составе контейнера)
Аудио 2: Японский / DTS / 5.1 / 48 kHz / 1510 kbps (в составе контейнера)
Субтитры: Русские softsub (SRT) (в составе контейнера)
Сохранены оригинальные чаптеры

Скачать сэмпл "Призрак в доспехах 2: Невинность / Ghost in the Shell 2: Innocence"
I:\Anime\Ghost in the shell 2 - Innocence [Призрак в доспехах - Невинность] (2004) 1920x1036 BDRip by -=mallaigne=- RusJpnSubChpt.mkv
General
Unique ID : 200579881048679690259483504632290940804 (0x96E647A887EC4B10AC0A7CF0EB611784)
Complete name : I:\Anime\Ghost in the shell 2 - Innocence [Призрак в доспехах - Невинность] (2004) 1920x1036 BDRip by -=mallaigne=- RusJpnSubChpt.mkv
Format : Matroska
Format version : Version 2
File size : 7.80 GiB
Duration : 1h 39mn
Overall bit rate : 11.3 Mbps
Movie name : ripped by -=mallaigne=-
Encoded date : UTC 2012-02-09 11:58:48
Writing application : mkvmerge v5.2.1 ('A Far Off Place') built on Jan 2 2012 23:21:10
Writing library : libebml v1.2.3 + libmatroska v1.3.0
Attachment : Yes / Yes / Yes / Yes / Yes / Yes / Yes / Yes
Video #1
ID : 1
Format : AVC
Format/Info : Advanced Video Codec
Format profile : High@L4.1
Format settings, CABAC : Yes
Format settings, ReFrames : 4 frames
Codec ID : V_MPEG4/ISO/AVC
Duration : 1h 39mn
Bit rate : 9 009 Kbps
Width : 1 920 pixels
Height : 1 036 pixels
Display aspect ratio : 1.853
Frame rate : 23.976 fps
Color space : YUV
Chroma subsampling : 4:2:0
Bit depth : 8 bits
Scan type : Progressive
Bits/(Pixel*Frame) : 0.189
Stream size : 6.08 GiB (78%)
Writing library : x264 core 120 r2164 da19765
Encoding settings : cabac=1 / ref=4 / deblock=1:-2:-2 / analyse=0x3:0x113 / me=umh / subme=11 / psy=1 / psy_rd=0.60:0.00 / mixed_ref=1 / me_range=24 / chroma_me=1 / trellis=2 / 8x8dct=1 / cqm=0 / deadzone=21,11 / fast_pskip=0 / chroma_qp_offset=-2 / threads=12 / sliced_threads=0 / nr=0 / decimate=0 / interlaced=0 / bluray_compat=0 / constrained_intra=0 / bframes=7 / b_pyramid=2 / b_adapt=2 / b_bias=0 / direct=3 / weightb=1 / open_gop=0 / weightp=2 / keyint=240 / keyint_min=23 / scenecut=40 / intra_refresh=0 / rc=2pass / mbtree=0 / bitrate=9009 / ratetol=1.0 / qcomp=0.60 / qpmin=0 / qpmax=69 / qpstep=4 / cplxblur=20.0 / qblur=0.5 / ip_ratio=1.40 / pb_ratio=1.30 / aq=1:0.60
Language : Japanese
Default : Yes
Forced : No
Audio #2
ID : 2
Format : DTS
Format/Info : Digital Theater Systems
Codec ID : A_DTS
Duration : 1h 39mn
Bit rate mode : Constant
Bit rate : 755 Kbps
Channel(s) : 6 channels
Channel positions : Front: L C R, Side: L R, LFE
Sampling rate : 48.0 KHz
Bit depth : 24 bits
Compression mode : Lossy
Stream size : 535 MiB (7%)
Title : DVO DTS 6ch 768kbps (Гланц+)
Language : Russian
Default : Yes
Forced : No
Audio #3
ID : 3
Format : DTS
Format/Info : Digital Theater Systems
Format profile : ES
Codec ID : A_DTS
Duration : 1h 39mn
Bit rate mode : Constant
Bit rate : 1 510 Kbps
Channel(s) : 7 channels / 6 channels
Channel positions : Front: L C R, Side: L R, Back: C, LFE / Front: L C R, Side: L R, LFE
Sampling rate : 48.0 KHz
Bit depth : 24 bits
Compression mode : Lossy
Stream size : 1.05 GiB (13%)
Title : Original DTS 6ch 1510kbps
Language : Japanese
Default : No
Forced : No
Text #4
ID : 4
Format : UTF-8
Codec ID : S_TEXT/UTF8
Codec ID/Info : UTF-8 Plain Text
Language : Russian
Default : Yes
Forced : No
Menu
00:00:00.000 : en:Chapter 1
00:04:35.000 : en:Chapter 2
00:08:16.333 : en:Chapter 3
00:13:06.667 : en:Chapter 4
00:21:04.667 : en:Chapter 5
00:26:20.833 : en:Chapter 6
00:34:04.433 : en:Chapter 7
00:40:03.267 : en:Chapter 8
00:46:00.833 : en:Chapter 9
00:49:43.833 : en:Chapter 10
00:54:47.933 : en:Chapter 11
01:03:18.367 : en:Chapter 12
01:07:31.767 : en:Chapter 13
01:11:36.333 : en:Chapter 14
01:15:12.167 : en:Chapter 15
01:17:26.467 : en:Chapter 16
01:23:44.100 : en:Chapter 17
01:28:04.167 : en:Chapter 18
01:32:34.467 : en:Chapter 19
01:33:43.367 : en:Chapter 20
x264 [info]: frame I:899 Avg QP:14.93 size:206390 PSNR Mean Y:49.96 U:53.05 V:52.86 Avg:50.49 Global:49.81
x264 [info]: frame P:35791 Avg QP:17.34 size: 88312 PSNR Mean Y:48.58 U:53.61 V:53.38 Avg:49.19 Global:47.84
x264 [info]: frame B:105870 Avg QP:19.17 size: 31588 PSNR Mean Y:46.95 U:50.89 V:50.59 Avg:47.51 Global:46.78
x264 [info]: consecutive B-frames: 2.9% 3.1% 8.1% 47.7% 13.4% 19.8% 3.9% 1.0%
x264 [info]: mb I I16..4: 6.5% 82.9% 10.6%
x264 [info]: mb P I16..4: 2.2% 23.0% 1.2% P16..4: 27.5% 28.9% 7.5% 0.0% 0.0% skip: 9.8%
x264 [info]: mb B I16..4: 0.4% 2.2% 0.1% B16..8: 28.9% 19.4% 2.8% direct: 9.7% skip:36.5% L0:43.3% L1:43.6% BI:13.1%
x264 [info]: 8x8 transform intra:85.5% inter:64.8%
x264 [info]: direct mvs spatial:95.6% temporal:4.4%
x264 [info]: coded y,uvDC,uvAC intra: 84.9% 92.2% 76.6% inter: 29.2% 41.7% 17.9%
x264 [info]: i16 v,h,dc,p: 16% 10% 8% 66%
x264 [info]: i8 v,h,dc,ddl,ddr,vr,hd,vl,hu: 9% 8% 10% 10% 13% 12% 12% 13% 15%
x264 [info]: i4 v,h,dc,ddl,ddr,vr,hd,vl,hu: 16% 11% 8% 8% 13% 13% 11% 9% 10%
x264 [info]: i8c dc,h,v,p: 54% 17% 14% 15%
x264 [info]: Weighted P-Frames: Y:8.6% UV:6.6%
x264 [info]: ref P L0: 50.4% 7.4% 29.3% 11.4% 1.3% 0.2%
x264 [info]: ref B L0: 82.9% 13.5% 3.6%
x264 [info]: ref B L1: 93.3% 6.7%
x264 [info]: SSIM Mean Y:0.9843994 (18.069db)
x264 [info]: PSNR Mean Y:47.381 U:51.587 V:51.306 Avg:47.954 Global:47.041 kb/s:9001.87

encoded 142560 frames, 4.39 fps, 9001.87 kb/s
info [Профиль]  [ЛС] 

FTyrail

Пол: Пол:Муж

Стаж: 7 лет 5 месяцев

Сообщений: 270

Предупреждений: 1

Россия
Рейтинг

post 19-Мар-2012 20:56 (спустя 1 день 3 часа) [-]1[+]

[Цитировать] 

эх умели когдато аниме делать...
info [Профиль]  [ЛС] 
Показать сообщения:    
Ответить на тему

Текущее время: 09-Дек 23:31

Часовой пояс: GMT + 4



Вы не можете начинать темы
Вы не можете отвечать на сообщения
Вы не можете редактировать свои сообщения
Вы не можете удалять свои сообщения
Вы не можете голосовать в опросах
Вы не можете прикреплять файлы к сообщениям
Вы не можете скачивать файлы