Ошибка

Суикоден: Век Демона / Yokai Seki Suikoden [OVA] [1 из 1] [Хардсаб] [RUS(int)] [1993, боевые искусства, приключения, фэнтези, DVDRip]

Ответить на тему
 
Автор Сообщение

ShinkaDan

Стаж: 3 года 11 месяцев

Сообщений: 42

Россия
Рейтинг

post 15-Сен-2018 12:05 1[+]

[Цитировать] 



Суикоден: Век Демона
Yokai Seki Suikoden


Страна: Япония
Выходит: 25.09.1993
Жанр: боевые искусства, приключения, фэнтези
Тип: OVA (1 эп.), 45 мин.
Режиссёр: Нэгиси Хироси
Возрастное ограничение: 18+
Студия:
Озвучка многоголосая: Azazel & Victor_N & Molodoy & Chigusa & Lazaretta
Субтитры: отсутствуют

Описание:
Наступило недалекое постапокалиптическое будущее и Токио лежит в руинах. Город контролируется бандами и преступными синдикатами, властвующими над улицами, где выживает только сильнейший. В городе царит анархия. Некто Суга Такатеру отправляется в путь, дабы отыскать свою сестру и тем самым выполнить повеление отца. Ему ещё только предстоит найти верных друзей и соратников, и герой, конечно же, ещё не знает, что ждёт его впереди. Сможет ли он отыскать свою сестру? Какая тайна скрыта за этим событием? Всё это вы узнаете в этой замечательной овашке!

Качество: DVDRip
Тип релиза: Без хардсаба
Формат видео: MP4
Видео: MPEG-4 AVC (High 10@L3.2), 10bits, 688x472 (3:2), ~1439 Kbps, 23.976 fps
Русский : AAC, 48000Hz, ~256 Kbps, 2ch
General
Complete name : L:\...\[ShinkaDan & Anidub] Yokai Seki Suikoden [OVA]\[AniDub_&_ShinkaDan]_Yokai_Seki_Suikoden_OVA_[DVDrip_688x472_x264_AAC]_[Azazel_&_Victor_N_&_Molodoy_&_Chigusa_&_Lazaretta].mp4
Format : MPEG-4
Format profile : Base Media
Codec ID : isom
File size : 555 MiB
Duration : 45mn 41s
Overall bit rate mode : Variable
Overall bit rate : 1 698 Kbps
Encoded date : UTC 2018-08-24 18:29:41
Tagged date : UTC 2018-08-24 18:29:41
Copyright : ShinkaDan

Video
ID : 1
Format : AVC
Format/Info : Advanced Video Codec
Format profile : High 10@L3.2
Format settings, CABAC : Yes
Format settings, ReFrames : 15 frames
Codec ID : avc1
Codec ID/Info : Advanced Video Coding
Duration : 45mn 41s
Bit rate : 1 439 Kbps
Maximum bit rate : 3 922 Kbps
Width : 688 pixels
Height : 472 pixels
Display aspect ratio : 3:2
Frame rate mode : Constant
Frame rate : 23.976 fps
Color space : YUV
Chroma subsampling : 4:2:0
Bit depth : 10 bits
Scan type : Progressive
Bits/(Pixel*Frame) : 0.185
Stream size : 470 MiB (85%)
Title : DVDrip
Writing library : x264 core 133 r2334kMod a3ac64b
Encoding settings : cabac=1 / ref=15 / deblock=1:0:0 / analyse=0x3:0x133 / me=umh / subme=10 / psy=1 / fade_compensate=0.00 / psy_rd=1.00:0.00 / mixed_ref=1 / me_range=24 / chroma_me=1 / trellis=2 / 8x8dct=1 / cqm=0 / deadzone=21,11 / fast_pskip=0 / chroma_qp_offset=-2 / threads=12 / lookahead_threads=2 / sliced_threads=0 / nr=0 / decimate=0 / interlaced=0 / bluray_compat=0 / constrained_intra=0 / bframes=8 / b_pyramid=2 / b_adapt=2 / b_bias=0 / direct=1 / weightb=1 / open_gop=0 / weightp=2 / keyint=250 / keyint_min=1 / scenecut=80 / intra_refresh=0 / rc_lookahead=60 / rc=crf / mbtree=1 / crf=16.0000 / qcomp=0.60 / qpmin=0 / qpmax=81 / qpstep=4 / ip_ratio=1.40 / aq=1:1.00
Language : Japanese
Encoded date : UTC 2018-08-24 18:28:12
Tagged date : UTC 2018-08-24 18:29:47
Matrix coefficients : BT.601

Audio
ID : 2
Format : AAC
Format/Info : Advanced Audio Codec
Format profile : LC
Codec ID : 40
Duration : 45mn 41s
Bit rate mode : Variable
Bit rate : 256 Kbps
Maximum bit rate : 262 Kbps
Channel count : 2 channels
Channel positions : Front: L R
Sampling rate : 48.0 KHz
Compression mode : Lossy
Delay relative to video : 83ms
Stream size : 83.7 MiB (15%)
Title : Azazel & Victor N & Molodoy & Chigusa & Lazaretta
Language : Russian
Encoded date : UTC 2018-08-17 06:42:43
Tagged date : UTC 2018-08-24 18:29:47
info [Профиль]  [ЛС] 
Показать сообщения:    
Ответить на тему

Текущее время: 17-Ноя 07:36

Часовой пояс: GMT + 4



Вы не можете начинать темы
Вы не можете отвечать на сообщения
Вы не можете редактировать свои сообщения
Вы не можете удалять свои сообщения
Вы не можете голосовать в опросах
Вы не можете прикреплять файлы к сообщениям
Вы не можете скачивать файлы