Ошибка
Загрузка...

Знаменитый детектив Конан: Кромешный ужас (Фильм 20) / Meitantei Conan: Junkoku no Nightmare [Movie] [1 из 1] [Без хардсаба] [JAP, SUB] [2016, детектив, романтика, сёнэн, BDRip] [720p]

Ответить на тему
 
Автор Сообщение

ShinkaDan

Стаж: 3 года 9 месяцев

Сообщений: 34

Россия
Рейтинг

post 01-Июл-2018 09:14 0[+]

[Цитировать] 

Знаменитый детектив Конан: Кромешный ужас (Фильм 20)
Meitantei Conan: Junkoku no Nightmare



Страна: Япония
Жанр: Приключения, детектив, романтика, сёнэн
Продолжительность: полнометражный фильм, 115 мин.
Премьера: 16.04.2016

Озвучивание: Отсутствует
Перевод: ShinkaDan
- Перевод с японского: AnjiJa
- Редакция, тайминг, оформление: Natan
- Помощь в переводе, редакторские правки: Tess, Tami, Weissehexe и Usonsha

Режиссер: Сидзуно Кобун
Автор оригинала: Аояма Госё
Описание: Агент "Организации" "Кюрасао" похищает из Национального полицейского агентства Японии список агентов под прикрытием, завербованных как различными ведомствами самой Японии, так и других стран. "Кюрасао" удаётся раскрыть кодовые имена некоторых из них, и ликвидаторы "Организации" во главе с "Джином" начинают действовать, а в самой Японии тень подозрения падает на "Кир" и "Бурбона". Неужели это конец? Неужели агенты спецслужб не смогут договориться, чтобы противостоять "Организации"? На что готовы пойти преступники, чтобы замести любые следы? Как и всегда дедукция знаменитого детектива способна одержать победу, правда в этот раз с привкусом потери и поражения!

Автор рипа: [Ohys-Raws]
Качество: BDRip (720p)
Тип релиза: Без хардсаба
Формат видео: mp4
Видео: x264 (8 бит), 1280x720 (16:9), 23,976 кадра/сек, ~ 3 747 Кбит/сек
Аудио:
AAC, 2 канала, 48000Hz, ~524 Кбит/сек; JAP (в составе контейнера)
Субтитры: русские (внешний софтсаб)
Дополнительная информация:
Следите за нашими переводами в нашем твиттере или в теме по знаменитому детективу на каге.
 

[General
Complete name : L:\...\[ShinkaDan] Detective Conan Movie 20 - The Darkest Nightmare [720p]\[Ohys-Raws] Detective Conan 20th Movie - The Darkest Nightmare (BD 1280x720 x264 AAC).mp4
Format : MPEG-4
Format profile : Base Media
Codec ID : isom
File size : 2.92 GiB
Duration : 1h 51mn
Overall bit rate mode : Variable
Overall bit rate : 3 747 Kbps
Encoded date : UTC 2016-10-29 09:50:56
Tagged date : UTC 2016-10-29 09:50:56

Video
ID : 1
Format : AVC
Format/Info : Advanced Video Codec
Format profile : Main@L4.1
Format settings, CABAC : Yes
Format settings, ReFrames : 4 frames
Codec ID : avc1
Codec ID/Info : Advanced Video Coding
Duration : 1h 51mn
Bit rate : 3 231 Kbps
Maximum bit rate : 23.1 Mbps
Width : 1 280 pixels
Height : 720 pixels
Display aspect ratio : 16:9
Frame rate mode : Constant
Frame rate : 23.976 fps
Color space : YUV
Chroma subsampling : 4:2:0
Bit depth : 8 bits
Scan type : Progressive
Bits/(Pixel*Frame) : 0.146
Stream size : 2.52 GiB (86%)
Writing library : x264 core 148 r2721 72d53ab
Encoding settings : cabac=1 / ref=3 / deblock=1:0:0 / analyse=0x1:0x131 / me=umh / subme=9 / psy=1 / psy_rd=1.00:0.00 / mixed_ref=1 / me_range=32 / chroma_me=1 / trellis=1 / 8x8dct=0 / cqm=0 / deadzone=21,11 / fast_pskip=1 / chroma_qp_offset=-2 / threads=12 / lookahead_threads=1 / sliced_threads=0 / nr=0 / decimate=1 / interlaced=0 / bluray_compat=0 / constrained_intra=0 / bframes=3 / b_pyramid=2 / b_adapt=1 / b_bias=0 / direct=1 / weightb=1 / open_gop=0 / weightp=2 / keyint=240 / keyint_min=1 / scenecut=40 / intra_refresh=0 / rc_lookahead=40 / rc=crf / mbtree=1 / crf=17.0 / qcomp=0.60 / qpmin=0 / qpmax=69 / qpstep=4 / ip_ratio=1.40 / aq=1:1.00
Encoded date : UTC 2016-10-29 09:50:56
Tagged date : UTC 2016-10-29 09:54:47

Audio
ID : 2
Format : AAC
Format/Info : Advanced Audio Codec
Format profile : LC
Codec ID : 40
Duration : 1h 51mn
Bit rate mode : Variable
Bit rate : 512 Kbps
Maximum bit rate : 524 Kbps
Channel count : 2 channels
Original Channel count : 6 channels
Channel positions : Front: L C R, Side: L R, LFE
Sampling rate : 48.0 KHz
Compression mode : Lossy
Stream size : 408 MiB (14%)
Language : Japanese
Tagged date : UTC 2016-10-29 09:54:47
info [Профиль]  [ЛС] 
Показать сообщения:    
Ответить на тему

Текущее время: 21-Сен 22:42

Часовой пояс: GMT + 4



Вы не можете начинать темы
Вы не можете отвечать на сообщения
Вы не можете редактировать свои сообщения
Вы не можете удалять свои сообщения
Вы не можете голосовать в опросах
Вы не можете прикреплять файлы к сообщениям
Вы не можете скачивать файлы