Ошибка

(Rap, Hip-Hop) Guf - Сам и... (2012) - 2012, FLAC (tracks+.cue), lossless

Ответить на тему
 
Автор Сообщение

TTagoHok

Пол: Пол:Муж

Стаж: 8 лет 9 месяцев

Сообщений: 383

Украина
Рейтинг

post 12-Ноя-2012 18:27 1[+]

[Цитировать] 

Guf — Сам и...


Производство: Россия
Жанр: Hip Hop, Байки из склепа
Год выпуска альбома: 2012
Аудиокодек: FLAC
Тип рипа: tracks+.cue
Битрейт аудио: Lossless
Продолжительность:01:19:35
Наличие сканов в раздаче: отсутствуют



01 Вход (scratch by DJ Cave)
02 Хобби
03 Спокоен (ft. ОУ74)
04 На пол
05 Сегодня-завтра
06 Наш почерк (ft. Смоки Мо)
07 Распорядок дня
08 Бессоница (ft. Murovei)
09 Баллада
10 Мои демоны (ft. Princip, 5 Плюх, Аpxi, scratch by Chinmachine)
11 Гуф умер (ft. Баста)
12 Ремесло (ft. ОУ74, scratch by DJ Cave)
13 Фанзона
14 Скит с Сэмом
15 Новенький
16 ПНП (ft. TGK)
17 Начало конца (scratch by Chinmachine)
18 О лени (ft. ОУ74)
19 Письмо домой
20 Скажи (ft. TAHDEM Foundation)
21 Дно
22 Наугад (scratch by DJ Shved)
23 Выход (scratch by DJ Cave)

Код:

Exact Audio Copy V1.0 beta 3 from 29. August 2011
Отчёт EAC об извлечении, выполненном 9. ноября 2012, 16:40
Guf / Sam-I
Дисковод: Optiarc CD-RW CRX880A   Adapter: 1  ID: 0
Режим чтения                 : Достоверность
Использование точного потока : Да
Отключение кэша аудио        : Да
Использование указателей C2  : Нет
Коррекция смещения при чтении                     : 6
Способность читать области Lead-in и Lead-out     : Нет
Заполнение пропущенных сэмплов тишиной            : Да
Удаление блоков с тишиной в начале и конце        : Нет
При вычислениях CRC использовались нулевые сэмплы : Да
Интерфейс                                         : Встроенный Win32-интерфейс для Win NT/2000
Обработка зазоров                                 : Добавлено к следующему треку
Выходной формат          : Пользовательский кодировщик
Выбранный битрейт        : 128 kBit/s
Качество                 : Высокий
Добавление ID3-тега      : Нет
Утилита сжатия           : C:\Program Files\FLAC\flac.exe
Дополнительные параметры : -V -8 -T "Date=%year%" -T "Genre=%genre%" %source%
TOC извлечённого CD
     Трек |   Старт  | Длительность | Начальный сектор | Конечный сектор
    ---------------------------------------------------------------------
       1  |  0:00.00 |    1:52.23   |           0      |       8422
       2  |  1:52.23 |    3:27.29   |        8423      |      23976
       3  |  5:19.52 |    4:21.62   |       23977      |      43613
       4  |  9:41.39 |    2:38.73   |       43614      |      55536
       5  | 12:20.37 |    4:53.48   |       55537      |      77559
       6  | 17:14.10 |    3:30.20   |       77560      |      93329
       7  | 20:44.30 |    3:52.12   |       93330      |     110741
       8  | 24:36.42 |    3:53.09   |      110742      |     128225
       9  | 28:29.51 |    3:27.51   |      128226      |     143801
      10  | 31:57.27 |    3:22.58   |      143802      |     159009
      11  | 35:20.10 |    3:03.06   |      159010      |     172740
      12  | 38:23.16 |    2:53.02   |      172741      |     185717
      13  | 41:16.18 |    3:30.60   |      185718      |     201527
      14  | 44:47.03 |    0:35.66   |      201528      |     204218
      15  | 45:22.69 |    3:18.35   |      204219      |     219103
      16  | 48:41.29 |    4:20.42   |      219104      |     238645
      17  | 53:01.71 |    4:08.35   |      238646      |     257280
      18  | 57:10.31 |    4:21.22   |      257281      |     276877
      19  | 61:31.53 |    4:37.38   |      276878      |     297690
      20  | 66:09.16 |    3:33.46   |      297691      |     313711
      21  | 69:42.62 |    3:09.68   |      313712      |     327954
      22  | 72:52.55 |    3:17.20   |      327955      |     342749
      23  | 76:10.00 |    3:19.54   |      342750      |     357728
Трек  1
     Имя файла C:\Users\Николай\Downloads\Guf - Сам И\01  Вход.wav
     Длина предзазора  0:00:02.00
     Пиковый уровень 100.0 %
     Скорость извлечения 1.1 X
     Качество трека 100.0 %
     CRC теста 46197072
     CRC копии 46197072
     Копирование... OK
Трек  2
     Имя файла C:\Users\Николай\Downloads\Guf - Сам И\02 Хобби.wav
     Пиковый уровень 100.0 %
     Скорость извлечения 1.3 X
     Качество трека 100.0 %
     CRC теста 699AF0FC
     CRC копии 699AF0FC
     Копирование... OK
Трек  3
     Имя файла C:\Users\Николай\Downloads\Guf - Сам И\03 Спокоен (feat. ОУ74).wav
     Пиковый уровень 100.0 %
     Скорость извлечения 1.5 X
     Качество трека 100.0 %
     CRC теста 150C1A09
     CRC копии 150C1A09
     Копирование... OK
Трек  4
     Имя файла C:\Users\Николай\Downloads\Guf - Сам И\04 На пол.wav
     Пиковый уровень 100.0 %
     Скорость извлечения 1.5 X
     Качество трека 100.0 %
     CRC теста 57ED1244
     CRC копии 57ED1244
     Копирование... OK
Трек  5
     Имя файла C:\Users\Николай\Downloads\Guf - Сам И\05  Сегодня-завтра.wav
     Пиковый уровень 100.0 %
     Скорость извлечения 1.7 X
     Качество трека 100.0 %
     CRC теста 5CC3E9DF
     CRC копии 5CC3E9DF
     Копирование... OK
Трек  6
     Имя файла C:\Users\Николай\Downloads\Guf - Сам И\06  Наш почерк (feat. Смоки Мо).wav
     Пиковый уровень 100.0 %
     Скорость извлечения 1.7 X
     Качество трека 100.0 %
     CRC теста FFB077DA
     CRC копии FFB077DA
     Копирование... OK
Трек  7
     Имя файла C:\Users\Николай\Downloads\Guf - Сам И\07 Распорядок дня.wav
     Пиковый уровень 100.0 %
     Скорость извлечения 1.8 X
     Качество трека 100.0 %
     CRC теста FF941113
     CRC копии FF941113
     Копирование... OK
Трек  8
     Имя файла C:\Users\Николай\Downloads\Guf - Сам И\08 Бессоница (feat. Murovei).wav
     Пиковый уровень 99.3 %
     Скорость извлечения 1.9 X
     Качество трека 100.0 %
     CRC теста 2008F9A3
     CRC копии 2008F9A3
     Копирование... OK
Трек  9
     Имя файла C:\Users\Николай\Downloads\Guf - Сам И\09 Баллада.wav
     Пиковый уровень 100.0 %
     Скорость извлечения 2.0 X
     Качество трека 100.0 %
     CRC теста 183671E5
     CRC копии 183671E5
     Копирование... OK
Трек 10
     Имя файла C:\Users\Николай\Downloads\Guf - Сам И\10 Мои демоны (feat. Princip, 5 Плюх, Аpxi, scratch by Chinmachine).wav
     Пиковый уровень 100.0 %
     Скорость извлечения 2.0 X
     Качество трека 100.0 %
     CRC теста 877E3D46
     CRC копии 877E3D46
     Копирование... OK
Трек 11
     Имя файла C:\Users\Николай\Downloads\Guf - Сам И\11 Гуф умер (feat. Баста).wav
     Пиковый уровень 100.0 %
     Скорость извлечения 2.0 X
     Качество трека 100.0 %
     CRC теста 294A1D53
     CRC копии 294A1D53
     Копирование... OK
Трек 12
     Имя файла C:\Users\Николай\Downloads\Guf - Сам И\12 Ремесло (feat. ОУ74, scratch by DJ Cave).wav
     Пиковый уровень 100.0 %
     Скорость извлечения 2.1 X
     Качество трека 100.0 %
     CRC теста BAC256F5
     CRC копии BAC256F5
     Копирование... OK
Трек 13
     Имя файла C:\Users\Николай\Downloads\Guf - Сам И\13 Фанзона.wav
     Пиковый уровень 100.0 %
     Скорость извлечения 1.9 X
     Качество трека 99.9 %
     CRC теста B4D6AB29
     CRC копии B4D6AB29
     Копирование... OK
Трек 14
     Имя файла C:\Users\Николай\Downloads\Guf - Сам И\14 Скит с Сэмом.wav
     Пиковый уровень 100.0 %
     Скорость извлечения 1.2 X
     Качество трека 100.0 %
     CRC теста 7F8FE28F
     CRC копии 7F8FE28F
     Копирование... OK
Трек 15
     Имя файла C:\Users\Николай\Downloads\Guf - Сам И\15 Новенький.wav
     Пиковый уровень 100.0 %
     Скорость извлечения 2.3 X
     Качество трека 100.0 %
     CRC теста DACBABCE
     CRC копии DACBABCE
     Копирование... OK
Трек 16
     Имя файла C:\Users\Николай\Downloads\Guf - Сам И\16 ПНП (feat. TGK).wav
     Пиковый уровень 100.0 %
     Скорость извлечения 2.4 X
     Качество трека 100.0 %
     CRC теста 997221C4
     CRC копии 997221C4
     Копирование... OK
Трек 17
     Имя файла C:\Users\Николай\Downloads\Guf - Сам И\17 Начало конца (scratch by Chinmachine).wav
     Пиковый уровень 100.0 %
     Скорость извлечения 2.5 X
     Качество трека 100.0 %
     CRC теста DB6BC8FF
     CRC копии DB6BC8FF
     Копирование... OK
Трек 18
     Имя файла C:\Users\Николай\Downloads\Guf - Сам И\18 О лени (feat. ОУ74).wav
     Пиковый уровень 100.0 %
     Скорость извлечения 2.3 X
     Качество трека 99.9 %
     CRC теста 9C174978
     CRC копии 9C174978
     Копирование... OK
Трек 19
     Имя файла C:\Users\Николай\Downloads\Guf - Сам И\19 Письмо домой.wav
     Пиковый уровень 100.0 %
     Скорость извлечения 2.6 X
     Качество трека 100.0 %
     CRC теста 2EFE0616
     CRC копии 2EFE0616
     Копирование... OK
Трек 20
     Имя файла C:\Users\Николай\Downloads\Guf - Сам И\20 Скажи (feat. TAHDEM Foundation).wav
     Пиковый уровень 100.0 %
     Скорость извлечения 2.6 X
     Качество трека 100.0 %
     CRC теста 125F27CD
     CRC копии 125F27CD
     Копирование... OK
Трек 21
     Имя файла C:\Users\Николай\Downloads\Guf - Сам И\21  Дно.wav
     Пиковый уровень 99.5 %
     Скорость извлечения 2.3 X
     Качество трека 99.9 %
     CRC теста 7CE3CFFB
     CRC копии 7CE3CFFB
     Копирование... OK
Трек 22
     Имя файла C:\Users\Николай\Downloads\Guf - Сам И\22 Наугад (scratch by DJ Shved).wav
     Пиковый уровень 100.0 %
     Скорость извлечения 2.7 X
     Качество трека 100.0 %
     CRC теста 1F28E2A8
     CRC копии 1F28E2A8
     Копирование... OK
Трек 23
     Имя файла C:\Users\Николай\Downloads\Guf - Сам И\23 Выход (scratch by DJ Cave).wav
     Пиковый уровень 99.8 %
     Скорость извлечения 2.7 X
     Качество трека 100.0 %
     CRC теста 7D3A8D81
     CRC копии 7D3A8D81
     Копирование... OK
Ошибок не произошло
Конец отчёта
---- CUETools DB Plugin V2.1.3
[CTDB TOCID: t9p9A3XXXbaFlUUEROg4Zw1_klw-] found, Submit result: t9p9A3XXXbaFlUUEROg4Zw1_klw- has been confirmed
[fd043947] (1/1) Accurately ripped

Код:

REM GENRE Rap
REM DATE 2012
REM DISCID 4C12A117
REM COMMENT "ExactAudioCopy v1.0b3"
PERFORMER "Guf"
TITLE "Sam-I"
FILE "01 Вход.wav" WAVE
  TRACK 01 AUDIO
    TITLE " Вход"
    PERFORMER "Guf"
    FLAGS DCP
    INDEX 01 00:00:00
FILE "02 Хобби.wav" WAVE
  TRACK 02 AUDIO
    TITLE "Хобби"
    PERFORMER "Guf"
    FLAGS DCP
    INDEX 01 00:00:00
FILE "03 Спокоен (feat. ОУ74).wav" WAVE
  TRACK 03 AUDIO
    TITLE "Спокоен (feat. ОУ74)"
    PERFORMER "Guf"
    FLAGS DCP
    INDEX 01 00:00:00
FILE "04 На пол.wav" WAVE
  TRACK 04 AUDIO
    TITLE "На пол"
    PERFORMER "Guf"
    FLAGS DCP
    INDEX 01 00:00:00
FILE "05 Сегодня-завтра.wav" WAVE
  TRACK 05 AUDIO
    TITLE " Сегодня-завтра"
    PERFORMER "Guf"
    FLAGS DCP
    INDEX 01 00:00:00
FILE "06 Наш почерк (feat. Смоки Мо).wav" WAVE
  TRACK 06 AUDIO
    TITLE " Наш почерк (feat. Смоки Мо)"
    PERFORMER "Guf"
    FLAGS DCP
    INDEX 01 00:00:00
FILE "07 Распорядок дня.wav" WAVE
  TRACK 07 AUDIO
    TITLE "Распорядок дня"
    PERFORMER "Guf"
    FLAGS DCP
    INDEX 01 00:00:00
FILE "08 Бессоница (feat. Murovei).wav" WAVE
  TRACK 08 AUDIO
    TITLE "Бессоница (feat. Murovei)"
    PERFORMER "Guf"
    FLAGS DCP
    INDEX 01 00:00:00
FILE "09 Баллада.wav" WAVE
  TRACK 09 AUDIO
    TITLE "Баллада"
    PERFORMER "Guf"
    FLAGS DCP
    INDEX 01 00:00:00
FILE "10 Мои демоны (feat. Princip, 5 Плюх, Аpxi, scratch by Chinmachine).wav" WAVE
  TRACK 10 AUDIO
    TITLE "Мои демоны (feat. Princip, 5 Плюх, Аpxi, scratch by Chinmachine)"
    PERFORMER "Guf"
    FLAGS DCP
    INDEX 01 00:00:00
FILE "11 Гуф умер (feat. Баста).wav" WAVE
  TRACK 11 AUDIO
    TITLE "Гуф умер (feat. Баста)"
    PERFORMER "Guf"
    FLAGS DCP
    INDEX 01 00:00:00
FILE "12 Ремесло (feat. ОУ74, scratch by DJ Cave).wav" WAVE
  TRACK 12 AUDIO
    TITLE "Ремесло (feat. ОУ74, scratch by DJ Cave)"
    PERFORMER "Guf"
    FLAGS DCP
    INDEX 01 00:00:00
FILE "13 Фанзона.wav" WAVE
  TRACK 13 AUDIO
    TITLE "Фанзона"
    PERFORMER "Guf"
    FLAGS DCP
    INDEX 01 00:00:00
FILE "14 Скит с Сэмом.wav" WAVE
  TRACK 14 AUDIO
    TITLE "Скит с Сэмом"
    PERFORMER "Guf"
    FLAGS DCP
    INDEX 01 00:00:00
FILE "15 Новенький.wav" WAVE
  TRACK 15 AUDIO
    TITLE "Новенький"
    PERFORMER "Guf"
    FLAGS DCP
    INDEX 01 00:00:00
FILE "16 ПНП (feat. TGK).wav" WAVE
  TRACK 16 AUDIO
    TITLE "ПНП (feat. TGK)"
    PERFORMER "Guf"
    FLAGS DCP
    INDEX 01 00:00:00
FILE "17 Начало конца (scratch by Chinmachine).wav" WAVE
  TRACK 17 AUDIO
    TITLE "Начало конца (scratch by Chinmachine)"
    PERFORMER "Guf"
    FLAGS DCP
    INDEX 01 00:00:00
FILE "18 О лени (feat. ОУ74).wav" WAVE
  TRACK 18 AUDIO
    TITLE "О лени (feat. ОУ74)"
    PERFORMER "Guf"
    FLAGS DCP
    INDEX 01 00:00:00
FILE "19 Письмо домой.wav" WAVE
  TRACK 19 AUDIO
    TITLE "Письмо домой"
    PERFORMER "Guf"
    FLAGS DCP
    INDEX 01 00:00:00
FILE "20 Скажи (feat. TAHDEM Foundation).wav" WAVE
  TRACK 20 AUDIO
    TITLE "Скажи (feat. TAHDEM Foundation)"
    PERFORMER "Guf"
    FLAGS DCP
    INDEX 01 00:00:00
FILE "21 Дно.wav" WAVE
  TRACK 21 AUDIO
    TITLE " Дно"
    PERFORMER "Guf"
    FLAGS DCP
    INDEX 01 00:00:00
FILE "22 Наугад (scratch by DJ Shved).wav" WAVE
  TRACK 22 AUDIO
    TITLE "Наугад (scratch by DJ Shved)"
    PERFORMER "Guf"
    FLAGS DCP
    INDEX 01 00:00:00
FILE "23 Выход (scratch by DJ Cave).wav" WAVE
  TRACK 23 AUDIO
    TITLE "Выход (scratch by DJ Cave)"
    PERFORMER "Guf"
    FLAGS DCP
    INDEX 01 00:00:00

Код:

UDIOCHECKER v2.0 beta (build 457) - by Dester - opdester@freemail.hu
~~~~~~~~~~~~~~~~~~~~~~~~~~~~~~~~~~
-=== НЕ РЕДАКТИРУЙТЕ ЭТОТ ФАЙЛ! ===-
Путь: ...\Guf - Сам И
01 -=- 01  Вход.flac -=- CDDA (100%)
02 -=- 02 Хобби.flac -=- CDDA (100%)
03 -=- 03 Спокоен (feat. ОУ74).flac -=- CDDA (99%)
04 -=- 04 На пол.flac -=- CDDA (100%)
05 -=- 05  Сегодня-завтра.flac -=- CDDA (100%)
06 -=- 06  Наш почерк (feat. Смоки Мо).flac -=- CDDA (100%)
07 -=- 07 Распорядок дня.flac -=- CDDA (99%)
08 -=- 08 Бессоница (feat. Murovei).flac -=- CDDA (99%)
09 -=- 09 Баллада.flac -=- CDDA (100%)
10 -=- 10 Мои демоны (feat. Princip, 5 Плюх, Аpxi, scratch by Chinmachine).flac -=- CDDA (100%)
11 -=- 11 Гуф умер (feat. Баста).flac -=- CDDA (100%)
12 -=- 12 Ремесло (feat. ОУ74, scratch by DJ Cave).flac -=- CDDA (100%)
13 -=- 13 Фанзона.flac -=- CDDA (100%)
14 -=- 14 Скит с Сэмом.flac -=- CDDA (100%)
15 -=- 15 Новенький.flac -=- CDDA (100%)
16 -=- 16 ПНП (feat. TGK).flac -=- CDDA (99%)
17 -=- 17 Начало конца (scratch by Chinmachine).flac -=- CDDA (100%)
18 -=- 18 О лени (feat. ОУ74).flac -=- CDDA (100%)
19 -=- 19 Письмо домой.flac -=- CDDA (100%)
20 -=- 20 Скажи (feat. TAHDEM Foundation).flac -=- CDDA (99%)
21 -=- 21  Дно.flac -=- CDDA (100%)
22 -=- 22 Наугад (scratch by DJ Shved).flac -=- CDDA (100%)
23 -=- 23 Выход (scratch by DJ Cave).flac -=- CDDA (100%)
Сводка 99,78% CDDA
info [Профиль]  [ЛС] 
Показать сообщения:    
Ответить на тему

Текущее время: 17-Ноя 03:26

Часовой пояс: GMT + 4



Вы не можете начинать темы
Вы не можете отвечать на сообщения
Вы не можете редактировать свои сообщения
Вы не можете удалять свои сообщения
Вы не можете голосовать в опросах
Вы не можете прикреплять файлы к сообщениям
Вы не можете скачивать файлы