Ошибка

(Symphonic Gothic Metal) Sirenia - Album Discography - 2002 - 2011, FLAC (image+.cue)+artwork, lossless

Тема закрыта
 
Автор Сообщение

Shamik

Пол: Пол:Муж

Стаж: 15 лет

Сообщений: 642

Кокосовые острова
Рейтинг

post 01-Июн-2012 13:55 0[+]

[Цитировать] 

pic="http://s002.youpic.su/pictures/1338494400/ae39a8421d353bacd4fc1c214ec50c0e.jpg"
Sirenia - Album discography

Цитата:

"Много пришлось претерпеть хитроумному Одиссею, царю Итаки, во время своих долгих скитаний по морям после Троянской войны. Однажды его со спутниками занесло к острову, где жили сирены - полуженщины-полуптицы. Своим сладкоголосым пением они завлекали проплывающих мимо моряков и предавали их лютой смерти". Эта история перестала быть мифом пять лет назад, когда на норвежском побережье появилась группа Sirenia и "проплыть мимо" их дебютного альбома не сумел ни один, даже самый суровый и закаленный критик. "Диск 'At Sixes And Sevens' совершенно точно вошёл в плеяду лучших готик-метал альбомов... и должен быть в каждой коллекции" - уверял журнал Legacy и поставил диску 14 пунктов из 15-ти. "Приятный современный готический металл с ненавязчивым, хотя и постоянным использованием электроники… с пристрастным отношением к мельчайшим деталям, с запоминающимися, но отнюдь не пошлыми мелодиями" - таково мнение строгих журналистов Heavy Oder Was?, оценивших работу в 9 баллов из 12-ти. 7,5 из 10-ти ставит уважаемый Rock Hard и добавляет: "Бывший фронтмен Tristania Мортен Веланд возвращается с новой группой и продолжает своё творчество с того же места, где он прервал его, на последнем диске Tristania с его участием, 'Beyond The Veil'". Да, в начале 2001 года талантливый музыкант и композитор Мортен Веланд оставил легендарную группу Tristania, недолго поработал с бывшими музыкантами Theatre Of Tragedy в составе Elusive, а затем записал 9 новых гениальных композиций уже с новым, собственным составом (среди прочих в него вошли известная французская певица Fabienne Gondamin, скрипач Tristania, The Sins Of Thy Beloved и The Scarr Pete Johansen, вокалист Jan Kenneth Barkved, работавший также в Elusive и Tristania и барабанщик Trail Of Tears Jonathan Perez. Результат был выпущен уже "под флагом" Sirenia. "Брэнд Sirenia характеризует особого рода музыка, многомерная и объёмная смесь элементов звука, отдельных инструментов и музыкальных стилей. Причем смесь постоянно меняющаяся, динамичная, хотя и с единой атмосферой. Здесь можно обнаружить все жанры рока и метала, множество вокальных стилей, плюс к тому элементы классики и даже фолка. Но самое главное в наших песнях - эмоции... Сложно точно определить наш стиль, попробуйте сами" - предлагает Веланд. И это действительно трудно, хотя на первый взгляд все составляющие известны и "обкатаны" ещё во времена Tristania. Ну, по крайней мере три слова - "симфо", "готик" и "метал" - должны присутствовать в определении! Спустя два года Веланд превзошел самого себя - второй альбом 'An Elixir For Existence' получился ещё более грандиозным и его ждал ещё более оглушительный успех. Отличным подарком для коллекционеров стал ещё один маленький шедевр, миньон 'Sirenian Shores'. Но настало время для более великих дел - и Мортен Веланд подписал исторический контракт с главным европейским метал-лейблом Nuclear Blast. И третий студийный альбом 'Nine Destinies And A Downfall' (2007) достиг в чарте German Media Control в марте позиции 54! Концертная "одиссея" группы за истекшие пять лет была долгой и поистине кругосветной - от Европы до Мексики в компании Trail Of Tears, Edenbridge, Battlelore, Tiamat, Pain и Theatre Of Tragedy. И норвежские "сирены" даже приплыли к нашим берегам - 24 февраля 2007 года в московском клубе "Точка" состоялся их единственный, уникальный концерт. Четвертый полноформатный студийный альбом 'The 13th Floor' вышел в 2009 году, а новая работа получила название 'The Enigma Of Life' и вышла 21 января 2011 на лейбле Nuclear Blast Records. Диск был записан в студиях Audio Avenue Studios в Норвегии и французской Sound Suite (The Sins Of Thy Beloved, Nightmare, Carpathian Forest, Gehenna, Forlorn, Malignant Eternal, Morgul, Obtained Enslavement, Dismal Euphony, Alastis, Tristania). В записи приняли участие французская скрипачка Stephanie Valentin, а также хор Sirenian Choir, который является неотъемлемой частью музыки группы с самого начала. Мастеринг выполнил Mika Jussila, Finnvox Studios (Korpiklaani, Nightwish, Stratovarius, Sonata Arctica, Sinergy, Amorphis, Therion, To/Die/For). Оформление - Gustavo Sazes (Firewind, Arch Enemy, Dream Evil, Nightrage, Old Mans Child, Sonic Syndicat). Было снято видео на песню "The End Of It All". Клип снимался в шведском городе Гётеборге известным режиссером Patric Ullaeus (Dimmu Borgir, Lacuna Coil) из компании Revolver Film. В российское издание вошли два бонкс-трека - акустическая версия заглавной композиции и номер "Oscura Realidad"
Жанр: Symphonic Gothic Metal | Год выпуска: 2002 - 2011 | Страна: Norway | Формат: FLAC(image) + .cue | Битрейт аудио: lossless | Продолжительность: 04:57:00
Sirenia - At Sixes And Sevens

Исполнитель:............: Sirenia
Альбом:........................: At Sixes And Sevens
Страна:.........................: Russia
Лейбл:...........................: Irond – IROND CD 02-257
Формат:........................: CD
Дата выпуска:...........: 2002
Жанр:............................: Symphonic Gothic Metal
По Disogs:.....................: http://www.discogs.com/Sirenia-At-Sixes-And-Sevens/release/3299581
Формат: FLAC (image+.cue)

Продолжительность: 00:54:00

Треклист:
01. Sirenia - Meridian (6:20)
02. Sirenia - Sister Nightfall (5:38)
03. Sirenia - On The Wane (6:37)
04. Sirenia - In A Manica (6:04)
05. Sirenia - At Sixes And Sevens (6:46)
06. Sirenia - Lethargica (5:31)
07. Sirenia - Manic Aeon (6:27)
08. Sirenia - A Shadow Of Your Own Self (5:58)
09. Sirenia - In Sumerian Haze (4:39)
Exact Audio Copy V0.99 prebeta 5 from 4. May 2009 

EAC extraction logfile from 31. August 2010, 14:05

Sirenia / At Sixes And Sevens

Used drive : Optiarc DVD RW AD-5200S Adapter: 2 ID: 0

Read mode : Secure
Utilize accurate stream : Yes
Defeat audio cache : Yes
Make use of C2 pointers : No

Read offset correction : 48
Overread into Lead-In and Lead-Out : No
Fill up missing offset samples with silence : Yes
Delete leading and trailing silent blocks : No
Null samples used in CRC calculations : Yes
Used interface : Installed external ASPI interface

Used output format : User Defined Encoder
Selected bitrate : 1024 kBit/s
Quality : High
Add ID3 tag : No
Command line compressor : D:\Program Files\Exact Audio Copy\Flac\flac.exe
Additional command line options : -8 -V -T "ARTIST=%a" -T "TITLE=%t" -T "ALBUM=%g" -T "DATE=%y" -T "TRACKNUMBER=%n" -T "GENRE=%m" -T "COMMENT=EAC FLAC -8" %s

TOC of the extracted CD

Track | Start | Length | Start sector | End sector
---------------------------------------------------------
1 | 0:00.00 | 6:20.15 | 0 | 28514
2 | 6:20.15 | 5:38.05 | 28515 | 53869
3 | 11:58.20 | 6:37.07 | 53870 | 83651
4 | 18:35.27 | 6:03.60 | 83652 | 110936
5 | 24:39.12 | 6:46.13 | 110937 | 141399
6 | 31:25.25 | 5:30.62 | 141400 | 166211
7 | 36:56.12 | 6:26.73 | 166212 | 195234
8 | 43:23.10 | 5:58.05 | 195235 | 222089
9 | 49:21.15 | 4:39.10 | 222090 | 243024

Range status and errors

Selected range

Filename D:\Documents and Settings\Admin\Мои документы\Sirenia дискография FLAC\01. At Sixes And Sevens\Sirenia - At Sixes And Sevens.wav

Peak level 97.4 %
Range quality 100.0 %
Test CRC A43D7621
Copy CRC A43D7621
Copy OK

No errors occurred

AccurateRip summary
Track 1 accurately ripped (confidence 9) [B21AAE10]
Track 2 accurately ripped (confidence 7) [5FB80626]
Track 3 accurately ripped (confidence 7) [5A6D5017]
Track 4 accurately ripped (confidence 7) [A76D257B]
Track 5 accurately ripped (confidence 8) [ADA8C303]
Track 6 accurately ripped (confidence 7) [5E398C49]
Track 7 accurately ripped (confidence 7) [D6DA6BC1]
Track 8 accurately ripped (confidence 7) [FFBF05E0]
Track 9 accurately ripped (confidence 7) [F9EDDC09]
All tracks accurately ripped

End of status report

REM GENRE Gothic Metal 
REM DATE 2002
REM DISCID 760CA809
REM COMMENT "ExactAudioCopy v0.99pb5"
PERFORMER "Sirenia"
TITLE "At Sixes And Sevens"
FILE "Sirenia - At Sixes And Sevens.flac" WAVE
TRACK 01 AUDIO
TITLE "Meridian"
PERFORMER "Sirenia"
INDEX 01 00:00:00
TRACK 02 AUDIO
TITLE "Sister Nightfall"
PERFORMER "Sirenia"
INDEX 01 06:20:15
TRACK 03 AUDIO
TITLE "On The Wane"
PERFORMER "Sirenia"
INDEX 01 11:58:20
TRACK 04 AUDIO
TITLE "In A Manica"
PERFORMER "Sirenia"
INDEX 01 18:35:27
TRACK 05 AUDIO
TITLE "At Sixes And Sevens"
PERFORMER "Sirenia"
INDEX 00 24:38:07
INDEX 01 24:39:12
TRACK 06 AUDIO
TITLE "Lethargica"
PERFORMER "Sirenia"
INDEX 00 31:23:25
INDEX 01 31:25:25
TRACK 07 AUDIO
TITLE "Manic Aeon"
PERFORMER "Sirenia"
INDEX 00 36:55:00
INDEX 01 36:56:12
TRACK 08 AUDIO
TITLE "A Shadow Of Your Own Self"
PERFORMER "Sirenia"
INDEX 01 43:23:10
TRACK 09 AUDIO
TITLE "In Sumerian Haze"
PERFORMER "Sirenia"
INDEX 00 49:18:32
INDEX 01 49:21:15

Полиграфия: Присутствует
Тип рипа: image+.cue
Sirenia - An Elixir For Existence

Исполнитель:............: Sirenia
Альбом:........................: An Elixir For Existence
Страна:.........................: Russia
Лейбл:...........................: Irond – IROND CD 04-759
Формат:........................: CD, Album
Дата выпуска:...........: 2004
Жанр:............................: Symphonic Gothic Metal
По Disogs:.....................: http://www.discogs.com/Sirenia-An-Elixir-For-Existence/release/3266452
Формат: FLAC (image+.cue)

Продолжительность: 00:53:49

Треклист:
01. Sirenia - Lithium And A Lover (6:33)
02. Sirenia - Voices Within (6:53)
03. Sirenia - A Mental Symphony (5:26)
04. Sirenia - Euphoria (6:35)
05. Sirenia - In My Darkest Hours (6:05)
06. Sirenia - Save Me From Myself (4:15)
07. Sirenia - The Fall Within (6:49)
08. Sirenia - Star-Crossed (6:29)
09. Sirenia - Seven Sirens And A Silver Tear (4:46)
Exact Audio Copy V0.99 prebeta 5 from 4. May 2009 

EAC extraction logfile from 31. August 2010, 14:28

Sirenia / An Elixir For Existence

Used drive : Optiarc DVD RW AD-5200S Adapter: 2 ID: 0

Read mode : Secure
Utilize accurate stream : Yes
Defeat audio cache : Yes
Make use of C2 pointers : No

Read offset correction : 48
Overread into Lead-In and Lead-Out : No
Fill up missing offset samples with silence : Yes
Delete leading and trailing silent blocks : No
Null samples used in CRC calculations : Yes
Used interface : Installed external ASPI interface

Used output format : User Defined Encoder
Selected bitrate : 1024 kBit/s
Quality : High
Add ID3 tag : No
Command line compressor : D:\Program Files\Exact Audio Copy\Flac\flac.exe
Additional command line options : -8 -V -T "ARTIST=%a" -T "TITLE=%t" -T "ALBUM=%g" -T "DATE=%y" -T "TRACKNUMBER=%n" -T "GENRE=%m" -T "COMMENT=EAC FLAC -8" %s

TOC of the extracted CD

Track | Start | Length | Start sector | End sector
---------------------------------------------------------
1 | 0:00.00 | 6:33.11 | 0 | 29485
2 | 6:33.11 | 6:52.51 | 29486 | 60436
3 | 13:25.62 | 5:25.53 | 60437 | 84864
4 | 18:51.40 | 6:35.00 | 84865 | 114489
5 | 25:26.40 | 6:04.72 | 114490 | 141861
6 | 31:31.37 | 4:14.45 | 141862 | 160956
7 | 35:46.07 | 6:48.65 | 160957 | 191621
8 | 42:34.72 | 6:28.55 | 191622 | 220776
9 | 49:03.52 | 4:45.51 | 220777 | 242202

Range status and errors

Selected range

Filename D:\Documents and Settings\Admin\Мои документы\Sirenia дискография FLAC\02. An Elixir For Existence\Sirenia - An Elixir For Existence.wav

Peak level 99.3 %
Range quality 100.0 %
Test CRC FF457F9E
Copy CRC FF457F9E
Copy OK

No errors occurred

AccurateRip summary
Track 1 accurately ripped (confidence 5) [91FC9944]
Track 2 accurately ripped (confidence 5) [111B5216]
Track 3 accurately ripped (confidence 5) [6F1FAC39]
Track 4 accurately ripped (confidence 5) [2C1FE52E]
Track 5 accurately ripped (confidence 5) [3C83EA90]
Track 6 accurately ripped (confidence 5) [D103130C]
Track 7 accurately ripped (confidence 5) [CDCC2D73]
Track 8 accurately ripped (confidence 5) [AA8D51C2]
Track 9 accurately ripped (confidence 5) [A7248EC4]
All tracks accurately ripped

End of status report

REM GENRE Gothic Metal 
REM DATE 2004
REM DISCID 840C9D09
REM COMMENT "ExactAudioCopy v0.99pb5"
PERFORMER "Sirenia"
TITLE "An Elixir For Existence"
FILE "Sirenia - An Elixir For Existence.flac" WAVE
TRACK 01 AUDIO
TITLE "Lithium And A Lover"
PERFORMER "Sirenia"
INDEX 01 00:00:00
TRACK 02 AUDIO
TITLE "Voices Within"
PERFORMER "Sirenia"
INDEX 01 06:33:11
TRACK 03 AUDIO
TITLE "A Mental Symphony"
PERFORMER "Sirenia"
INDEX 00 13:25:00
INDEX 01 13:25:62
TRACK 04 AUDIO
TITLE "Euphoria"
PERFORMER "Sirenia"
INDEX 00 18:49:55
INDEX 01 18:51:40
TRACK 05 AUDIO
TITLE "In My Darkest Hours"
PERFORMER "Sirenia"
INDEX 00 25:26:00
INDEX 01 25:26:40
TRACK 06 AUDIO
TITLE "Save Me From Myself"
PERFORMER "Sirenia"
INDEX 00 31:29:52
INDEX 01 31:31:37
TRACK 07 AUDIO
TITLE "The Fall Within"
PERFORMER "Sirenia"
INDEX 00 35:44:72
INDEX 01 35:46:07
TRACK 08 AUDIO
TITLE "Star-Crossed"
PERFORMER "Sirenia"
INDEX 00 42:34:11
INDEX 01 42:34:72
TRACK 09 AUDIO
TITLE "Seven Sirens And A Silver Tear"
PERFORMER "Sirenia"
INDEX 00 49:01:67
INDEX 01 49:03:52

Полиграфия: Присутствует
Тип рипа: image+.cue
Sirenia - Sirenian Shores

Исполнитель:............: Sirenia
Альбом:........................: Sirenian Shores
Страна:.........................: Russia
Лейбл:...........................: Irond – IROND CD 04-911
Формат:........................: CD, EP
Дата выпуска:...........: 2004
Жанр:............................: Symphonic Gothic Metal
По Disogs:.....................: http://www.discogs.com/Sirenia-Sirenian-Shores/release/3299604
Формат: FLAC (image+.cue)

Продолжительность: 00:21:31

Треклист:
01. Sirenia - Sirenian Shores (6:02)
02. Sirenia - Save Me From Myself (Remix) (5:05)
03. Sirenia - Meridian (Acoustic) (4:05)
04. Sirenia - First We Take Manhattan (3:56)
05. Sirenia - Obire Mortem (2:23)
Exact Audio Copy V0.99 prebeta 5 from 4. May 2009 

EAC extraction logfile from 31. August 2010, 14:48

Sirenia / Sirenian Shores EP

Used drive : Optiarc DVD RW AD-5200S Adapter: 2 ID: 0

Read mode : Secure
Utilize accurate stream : Yes
Defeat audio cache : Yes
Make use of C2 pointers : No

Read offset correction : 48
Overread into Lead-In and Lead-Out : No
Fill up missing offset samples with silence : Yes
Delete leading and trailing silent blocks : No
Null samples used in CRC calculations : Yes
Used interface : Installed external ASPI interface

Used output format : User Defined Encoder
Selected bitrate : 1024 kBit/s
Quality : High
Add ID3 tag : No
Command line compressor : D:\Program Files\Exact Audio Copy\Flac\flac.exe
Additional command line options : -8 -V -T "ARTIST=%a" -T "TITLE=%t" -T "ALBUM=%g" -T "DATE=%y" -T "TRACKNUMBER=%n" -T "GENRE=%m" -T "COMMENT=EAC FLAC -8" %s

TOC of the extracted CD

Track | Start | Length | Start sector | End sector
---------------------------------------------------------
1 | 0:00.00 | 6:01.68 | 0 | 27142
2 | 6:01.68 | 5:05.03 | 27143 | 50020
3 | 11:06.71 | 4:04.65 | 50021 | 68385
4 | 15:11.61 | 3:56.29 | 68386 | 86114
5 | 19:08.15 | 2:22.62 | 86115 | 96826

Range status and errors

Selected range

Filename D:\Documents and Settings\Admin\Мои документы\Sirenia дискография FLAC\03. Sirenian Shores EP\Sirenia - Sirenian Shores EP.wav

Peak level 99.3 %
Range quality 100.0 %
Test CRC D13A0CF7
Copy CRC D13A0CF7
Copy OK

No errors occurred

AccurateRip summary
Track 1 accurately ripped (confidence 2) [183CC282]
Track 2 accurately ripped (confidence 2) [FC1E405A]
Track 3 accurately ripped (confidence 2) [1000C4E6]
Track 4 accurately ripped (confidence 2) [B8E823C9]
Track 5 accurately ripped (confidence 2) [20D2E4AE]
All tracks accurately ripped

End of status report

REM GENRE Gothic Metal 
REM DATE 2004
REM DISCID 36050B05
REM COMMENT "ExactAudioCopy v0.99pb5"
PERFORMER "Sirenia"
TITLE "Sirenian Shores EP"
FILE "Sirenia - Sirenian Shores EP.flac" WAVE
TRACK 01 AUDIO
TITLE "Sirenian Shores"
PERFORMER "Sirenia"
INDEX 01 00:00:00
TRACK 02 AUDIO
TITLE "Save Me From Myself (Remix)"
PERFORMER "Sirenia"
INDEX 00 06:01:40
INDEX 01 06:01:68
TRACK 03 AUDIO
TITLE "Meridian (Acoustic)"
PERFORMER "Sirenia"
INDEX 00 11:06:42
INDEX 01 11:06:71
TRACK 04 AUDIO
TITLE "First We Take Manhattan"
PERFORMER "Sirenia"
INDEX 00 15:11:24
INDEX 01 15:11:61
TRACK 05 AUDIO
TITLE "Obire Mortem"
PERFORMER "Sirenia"
INDEX 00 19:07:41
INDEX 01 19:08:15

Полиграфия: Присутствует
Тип рипа: image+.cue
Sirenia - Nine Destinies And A Downfall

Исполнитель:............: Sirenia
Альбом:........................: Nine Destinies And A Downfall
Страна:.........................: Russia
Лейбл:...........................: Irond – IROND CD 07-1253
Формат:........................: CD, Album, Enhanced
Дата выпуска:...........: 2007
Жанр:............................: Symphonic Gothic Metal
По Disogs:.....................: http://www.discogs.com/Sirenia-Nine-Destinies-And-A-Downfall/release/1814468
Формат: FLAC (image+.cue)

Продолжительность: 00:46:19

Треклист:
01. Sirenia - The Last Call (4:45)
02. Sirenia - My Mind's Eye (3:38)
03. Sirenia - One By One (5:30)
04. Sirenia - Sundown (5:05)
05. Sirenia - Absent Without Leave (4:54)
06. Sirenia - The Other Side (3:55)
07. Sirenia - Seven Keys And Nine Doors (4:56)
08. Sirenia - Downfall (4:44)
09. Sirenia - Glades Of Summer (5:36)
10. Sirenia - My Mind's Eye (Radio Edit) (3:15)
Exact Audio Copy V0.99 prebeta 5 from 4. May 2009 

EAC extraction logfile from 31. August 2010, 14:48

Sirenia / Sirenian Shores EP

Used drive : Optiarc DVD RW AD-5200S Adapter: 2 ID: 0

Read mode : Secure
Utilize accurate stream : Yes
Defeat audio cache : Yes
Make use of C2 pointers : No

Read offset correction : 48
Overread into Lead-In and Lead-Out : No
Fill up missing offset samples with silence : Yes
Delete leading and trailing silent blocks : No
Null samples used in CRC calculations : Yes
Used interface : Installed external ASPI interface

Used output format : User Defined Encoder
Selected bitrate : 1024 kBit/s
Quality : High
Add ID3 tag : No
Command line compressor : D:\Program Files\Exact Audio Copy\Flac\flac.exe
Additional command line options : -8 -V -T "ARTIST=%a" -T "TITLE=%t" -T "ALBUM=%g" -T "DATE=%y" -T "TRACKNUMBER=%n" -T "GENRE=%m" -T "COMMENT=EAC FLAC -8" %s

TOC of the extracted CD

Track | Start | Length | Start sector | End sector
---------------------------------------------------------
1 | 0:00.00 | 6:01.68 | 0 | 27142
2 | 6:01.68 | 5:05.03 | 27143 | 50020
3 | 11:06.71 | 4:04.65 | 50021 | 68385
4 | 15:11.61 | 3:56.29 | 68386 | 86114
5 | 19:08.15 | 2:22.62 | 86115 | 96826

Range status and errors

Selected range

Filename D:\Documents and Settings\Admin\Мои документы\Sirenia дискография FLAC\03. Sirenian Shores EP\Sirenia - Sirenian Shores EP.wav

Peak level 99.3 %
Range quality 100.0 %
Test CRC D13A0CF7
Copy CRC D13A0CF7
Copy OK

No errors occurred

AccurateRip summary
Track 1 accurately ripped (confidence 2) [183CC282]
Track 2 accurately ripped (confidence 2) [FC1E405A]
Track 3 accurately ripped (confidence 2) [1000C4E6]
Track 4 accurately ripped (confidence 2) [B8E823C9]
Track 5 accurately ripped (confidence 2) [20D2E4AE]
All tracks accurately ripped

End of status report

REM GENRE Gothic Metal 
REM DATE 2004
REM DISCID 36050B05
REM COMMENT "ExactAudioCopy v0.99pb5"
PERFORMER "Sirenia"
TITLE "Sirenian Shores EP"
FILE "Sirenia - Sirenian Shores EP.flac" WAVE
TRACK 01 AUDIO
TITLE "Sirenian Shores"
PERFORMER "Sirenia"
INDEX 01 00:00:00
TRACK 02 AUDIO
TITLE "Save Me From Myself (Remix)"
PERFORMER "Sirenia"
INDEX 00 06:01:40
INDEX 01 06:01:68
TRACK 03 AUDIO
TITLE "Meridian (Acoustic)"
PERFORMER "Sirenia"
INDEX 00 11:06:42
INDEX 01 11:06:71
TRACK 04 AUDIO
TITLE "First We Take Manhattan"
PERFORMER "Sirenia"
INDEX 00 15:11:24
INDEX 01 15:11:61
TRACK 05 AUDIO
TITLE "Obire Mortem"
PERFORMER "Sirenia"
INDEX 00 19:07:41
INDEX 01 19:08:15

Полиграфия: Присутствует
Тип рипа: image+.cue
Sirenia - The 13th Floor

Исполнитель:............: Sirenia
Альбом:........................: The 13th Floor
Страна:.........................: Russia
Лейбл:...........................: Irond – IROND CD 09-1557
Формат:........................: CD, Album, Enhanced
Дата выпуска:...........: 2009
Жанр:............................: Symphonic Gothic Metal
По Disogs:.....................: http://www.discogs.com/Sirenia-The-13th-Floor/release/1814480
Формат: FLAC (image+.cue)

Продолжительность: 00:56:22

Треклист:
01. Sirenia - The Path To Decay (4:18)
02. Sirenia - Lost In Life (3:12)
03. Sirenia - The Mind Maelstrom (4:48)
04. Sirenia - The Seventh Summer (5:22)
05. Sirenia - Beyond Life's Scenery (4:33)
06. Sirenia - The Lusid Door (4:49)
07. Sirenia - Led Astray (4:35)
08. Sirenia - Winterborn 77 (5:33)
09. Sirenia - Sirens Of The Seven Seas (5:14)
10. Sirenia - The Path To Decay (Radio Mix) (3:35)
11. Sirenia - The Mind Maelstrom (Instrumental) (4:50)
12. Sirenia - Winterborn 77 (Instrumental) (5:34)
Exact Audio Copy V0.99 prebeta 5 from 4. May 2009 

EAC extraction logfile from 31. August 2010, 21:25

Sirenia / The 13th Floor

Used drive : Optiarc DVD RW AD-5200S Adapter: 2 ID: 0

Read mode : Secure
Utilize accurate stream : Yes
Defeat audio cache : Yes
Make use of C2 pointers : No

Read offset correction : 48
Overread into Lead-In and Lead-Out : No
Fill up missing offset samples with silence : Yes
Delete leading and trailing silent blocks : No
Null samples used in CRC calculations : Yes
Used interface : Installed external ASPI interface

Used output format : User Defined Encoder
Selected bitrate : 1024 kBit/s
Quality : High
Add ID3 tag : No
Command line compressor : D:\Program Files\Exact Audio Copy\Flac\flac.exe
Additional command line options : -8 -V -T "ARTIST=%a" -T "TITLE=%t" -T "ALBUM=%g" -T "DATE=%y" -T "TRACKNUMBER=%n" -T "GENRE=%m" -T "COMMENT=EAC FLAC -8" %s

TOC of the extracted CD

Track | Start | Length | Start sector | End sector
---------------------------------------------------------
1 | 0:00.00 | 4:17.66 | 0 | 19340
2 | 4:17.66 | 3:12.18 | 19341 | 33758
3 | 7:30.09 | 4:47.40 | 33759 | 55323
4 | 12:17.49 | 5:21.46 | 55324 | 79444
5 | 17:39.20 | 4:33.00 | 79445 | 99919
6 | 22:12.20 | 4:48.46 | 99920 | 121565
7 | 27:00.66 | 4:35.31 | 121566 | 142221
8 | 31:36.22 | 5:33.37 | 142222 | 167233
9 | 37:09.59 | 5:13.43 | 167234 | 190751
10 | 42:23.27 | 3:34.66 | 190752 | 206867
11 | 45:58.18 | 4:49.38 | 206868 | 228580
12 | 50:47.56 | 5:33.73 | 228581 | 253628
13 | 58:53.54 | 2:20.64 | 265029 | 275592

Range status and errors

Selected range

Filename D:\Documents and Settings\Admin\Мои документы\Sirenia дискография FLAC\05. The 13th Floor\Sirenia - The 13th Floor.wav

Peak level 100.0 %
Range quality 100.0 %
Test CRC AF8B4A0A
Copy CRC AF8B4A0A
Copy OK

No errors occurred

AccurateRip summary
Track 1 cannot be verified as accurate (confidence 28) [B7EF0898], AccurateRip returned [8598708F]
Track 2 cannot be verified as accurate (confidence 28) [5C2EEC1C], AccurateRip returned [A7BB1203]
Track 3 cannot be verified as accurate (confidence 28) [5080F91C], AccurateRip returned [0D6EEEBF]
Track 4 cannot be verified as accurate (confidence 28) [7523B7CC], AccurateRip returned [0A5149F1]
Track 5 cannot be verified as accurate (confidence 28) [8910F2D9], AccurateRip returned [D67A2C3C]
Track 6 cannot be verified as accurate (confidence 28) [86876305], AccurateRip returned [F7EBE46B]
Track 7 cannot be verified as accurate (confidence 28) [5FE88F30], AccurateRip returned [E68965B6]
Track 8 cannot be verified as accurate (confidence 28) [2F0FE32D], AccurateRip returned [04215681]
Track 9 cannot be verified as accurate (confidence 28) [6FE75EF2], AccurateRip returned [C89322F7]
Track 10 cannot be verified as accurate (confidence 28) [1999E0C5], AccurateRip returned [827D3BA7]
Track 11 cannot be verified as accurate (confidence 28) [B2443A7E], AccurateRip returned [8394288D]
Track 12 cannot be verified as accurate (confidence 28) [DB4A6C7B], AccurateRip returned [12AA01FD]
No tracks could be verified as accurate
You may have a different pressing from the one(s) in the database

End of status report

REM GENRE Gothic Metal 
REM DATE 2009
REM DISCID AF0E5A0D
REM COMMENT "ExactAudioCopy v0.99pb5"
PERFORMER "Sirenia"
TITLE "The 13th Floor"
FILE "Sirenia - The 13th Floor.flac" WAVE
TRACK 01 AUDIO
TITLE "The Path To Decay"
PERFORMER "Sirenia"
INDEX 01 00:00:00
TRACK 02 AUDIO
TITLE "Lost In Life"
PERFORMER "Sirenia"
INDEX 01 04:17:66
TRACK 03 AUDIO
TITLE "The Mind Maelstrom"
PERFORMER "Sirenia"
INDEX 01 07:30:09
TRACK 04 AUDIO
TITLE "The Seventh Summer"
PERFORMER "Sirenia"
INDEX 01 12:17:49
TRACK 05 AUDIO
TITLE "Beyond Life's Scenery"
PERFORMER "Sirenia"
INDEX 01 17:39:20
TRACK 06 AUDIO
TITLE "The Lusid Door"
PERFORMER "Sirenia"
INDEX 01 22:12:20
TRACK 07 AUDIO
TITLE "Led Astray"
PERFORMER "Sirenia"
INDEX 01 27:00:66
TRACK 08 AUDIO
TITLE "Winterborn 77"
PERFORMER "Sirenia"
INDEX 01 31:36:22
TRACK 09 AUDIO
TITLE "Sirens Of The Seven Seas"
PERFORMER "Sirenia"
INDEX 01 37:09:59
TRACK 10 AUDIO
TITLE "The Path To Decay (Radio Mix)"
PERFORMER "Sirenia"
INDEX 01 42:23:27
TRACK 11 AUDIO
TITLE "The Mind Maelstrom (Instrumental)"
PERFORMER "Sirenia"
INDEX 01 45:58:18
TRACK 12 AUDIO
TITLE "Winterborn 77 (Instrumental)"
PERFORMER "Sirenia"
INDEX 01 50:47:56

Полиграфия: Присутствует
Тип рипа: image+.cue
Sirenia - The Enigma Of Life

Исполнитель:............: Sirenia
Альбом:........................: The Enigma Of Life
Страна:.........................: Russia
Лейбл:...........................: Irond – IROND CD 11-1764
Формат:........................: CD, Album
Дата выпуска:...........: 2011
Жанр:............................: Symphonic Gothic Metal
Доп. инфо:....................: http://www.irond.ru/titles/sirenia__the_enigma_of_life.html
Формат: FLAC (image+.cue)

Продолжительность: 01:04:59

Треклист:
01. Sirenia - The End Of It All (4:31)
02. Sirenia - Fallen Angel (3:59)
03. Sirenia - All My Dreams (4:42)
04. Sirenia - This Darkness (4:00)
05. Sirenia - The Twilight In Your Eyes (4:00)
06. Sirenia - Winter Land (3:55)
07. Sirenia - A Seaside Serenade (5:53)
08. Sirenia - Darkened Days To Come (4:22)
09. Sirenia - Coming Down (4:38)
10. Sirenia - This Lonely Lake (3:33)
11. Sirenia - Fading Star (4:46)
12. Sirenia - The Enigma Of Life (6:14)
13. Sirenia - Oscura Realidad (4:31)
14. Sirenia - The Enigma Of Life - Acoustic Version (5:52)
Exact Audio Copy V0.99 prebeta 5 from 4. May 2009 

EAC extraction logfile from 14. February 2011, 19:33

Sirenia / The Enigma Of Life

Used drive : Optiarc DVD RW AD-5200S Adapter: 2 ID: 0

Read mode : Secure
Utilize accurate stream : Yes
Defeat audio cache : Yes
Make use of C2 pointers : No

Read offset correction : 48
Overread into Lead-In and Lead-Out : No
Fill up missing offset samples with silence : Yes
Delete leading and trailing silent blocks : No
Null samples used in CRC calculations : Yes
Used interface : Installed external ASPI interface

Used output format : Internal WAV Routines
Sample format : 44.100 Hz; 16 Bit; Stereo

TOC of the extracted CD

Track | Start | Length | Start sector | End sector
---------------------------------------------------------
1 | 0:00.00 | 4:31.12 | 0 | 20336
2 | 4:31.12 | 3:59.05 | 20337 | 38266
3 | 8:30.17 | 4:42.01 | 38267 | 59417
4 | 13:12.18 | 4:00.20 | 59418 | 77437
5 | 17:12.38 | 4:00.35 | 77438 | 95472
6 | 21:12.73 | 3:55.00 | 95473 | 113097
7 | 25:07.73 | 5:53.13 | 113098 | 139585
8 | 31:01.11 | 4:22.07 | 139586 | 159242
9 | 35:23.18 | 4:38.23 | 159243 | 180115
10 | 40:01.41 | 3:33.20 | 180116 | 196110
11 | 43:34.61 | 4:46.16 | 196111 | 217576
12 | 48:21.02 | 6:14.05 | 217577 | 245631
13 | 54:35.07 | 4:31.12 | 245632 | 265968
14 | 59:06.19 | 5:52.21 | 265969 | 292389

Range status and errors

Selected range

Filename C:\RUTRACKER.ORG\Sirenia дискография FLAC\06. The Enigma Of Life\Sirenia - The Enigma Of Life.wav

Peak level 100.0 %
Range quality 100.0 %
Copy CRC F89728C9
Copy OK

No errors occurred

AccurateRip summary
Track 1 not present in database
Track 2 not present in database
Track 3 not present in database
Track 4 not present in database
Track 5 not present in database
Track 6 not present in database
Track 7 not present in database
Track 8 not present in database
Track 9 not present in database
Track 10 not present in database
Track 11 not present in database
Track 12 not present in database
Track 13 not present in database
Track 14 not present in database
None of the tracks are present in the AccurateRip database

End of status report

REM GENRE "Gothic Metal" 
REM DATE 2011
REM DISCID B80F3A0E
REM COMMENT "ExactAudioCopy v0.99pb5"
PERFORMER "Sirenia"
TITLE "The Enigma Of Life"
FILE "Sirenia - The Enigma Of Life.flac" WAVE
TRACK 01 AUDIO
TITLE "The End Of It All"
PERFORMER "Sirenia"
INDEX 01 00:00:00
TRACK 02 AUDIO
TITLE "Fallen Angel"
PERFORMER "Sirenia"
INDEX 01 04:31:12
TRACK 03 AUDIO
TITLE "All My Dreams"
PERFORMER "Sirenia"
INDEX 01 08:30:17
TRACK 04 AUDIO
TITLE "This Darkness"
PERFORMER "Sirenia"
INDEX 01 13:12:18
TRACK 05 AUDIO
TITLE "The Twilight In Your Eyes"
PERFORMER "Sirenia"
INDEX 01 17:12:38
TRACK 06 AUDIO
TITLE "Winter Land"
PERFORMER "Sirenia"
INDEX 01 21:12:73
TRACK 07 AUDIO
TITLE "A Seaside Serenade"
PERFORMER "Sirenia"
INDEX 01 25:07:73
TRACK 08 AUDIO
TITLE "Darkened Days To Come"
PERFORMER "Sirenia"
INDEX 01 31:01:11
TRACK 09 AUDIO
TITLE "Coming Down"
PERFORMER "Sirenia"
INDEX 01 35:23:18
TRACK 10 AUDIO
TITLE "This Lonely Lake"
PERFORMER "Sirenia"
INDEX 01 40:01:41
TRACK 11 AUDIO
TITLE "Fading Star"
PERFORMER "Sirenia"
INDEX 01 43:34:61
TRACK 12 AUDIO
TITLE "The Enigma Of Life"
PERFORMER "Sirenia"
INDEX 01 48:21:02
TRACK 13 AUDIO
TITLE "Oscura Realidad"
PERFORMER "Sirenia"
INDEX 01 54:35:07
TRACK 14 AUDIO
TITLE "The Enigma Of Life - Acoustic Version"
PERFORMER "Sirenia"
INDEX 01 59:06:19

Полиграфия: Присутствует
Тип рипа: image+.cue
info [Профиль]  [ЛС] 

post 02-Июн-2012 23:33 (спустя 1 день 9 часов) [-]0[+]

Топик был перенесен из форума Оформление раздач в форум Mеtаl (losslеss)

Shamik
 

Pomu

Стаж: 10 лет

Сообщений: 8

Рейтинг

post 10-Окт-2015 03:25 (спустя 3 года 4 месяца) [-]0[+]

[Цитировать] 

Стоит ли ждать последний альбом?
info [Профиль]  [ЛС] 

post 22-Фев-2018 03:10 (спустя 2 года 4 месяца) [-]0[+]

Топик был перенесен из форума Mеtаl (losslеss) в форум Архив (Зарубежный Rock)

The Buzzhorn
 
Показать сообщения:    
Тема закрыта

Текущее время: 15-Июл 16:06

Часовой пояс: GMT + 4



Вы не можете начинать темы
Вы не можете отвечать на сообщения
Вы не можете редактировать свои сообщения
Вы не можете удалять свои сообщения
Вы не можете голосовать в опросах
Вы не можете прикреплять файлы к сообщениям
Вы не можете скачивать файлы