Ошибка

(Electro Hop) LMFAO - Sorry For Party Rocking - 2011, FLAC (image+.cue)+cover, lossless

Ответить на тему
 
Автор Сообщение

Resistance

Пол: Пол:Муж

Стаж: 12 лет

Сообщений: 3640

Россия
Рейтинг

post 29-Фев-2012 22:24 1[+]

[Цитировать] 

LMFAO - Sorry For Party Rocking


pic="http://i23.fastpic.ru/big/2011/0617/44/f22365dec22960e0dab621429debad44.jpg"


Жанр: Electro Hop
Год издания данного носителя: 2011
Страна-производитель носителя: EU
Лейбл: Interscope Records
Каталоговый номер: 0602527744636
Аудио кодек: FLAC
Тип рипа: image+.cue
Битрейт аудио: lossless
Продолжительность: 00:58:46
Полиграфия: Присутствует
Треклист:
01. Rock The Beat II (1:54)
02. Sorry For Party Rocking (3:24)
03. Party Rock Anthem Featuring Lauren Bennett And Goonrock (4:22)
04. Sexy And I Know It (3:19)
05. Champagne Showers Featuring Natalia Kills (4:24)
06. One Day (3:18)
07. Put That A$$ To Work (3:56)
08. Take It To The Hole Featuring Busta Rhymes (3:37)
09. We Came Here To Party Featuring Goonrock (3:47)
10. Reminds Me Of You With Calvin Harris (3:47)
11. Best Night Featuring Will.I.Am, Goonrock And Eva Simons (4:59)
12. All Night Long Featuring Lisa (3:47)
13. With You (4:15)
14. Hot Dog (2:27)
15. I'm In Miami Bitch (Bonus Track) (3:48)
16. Shots Featuring Lil Jon (Bonus Track) (3:42)
Exact Audio Copy V0.99 prebeta 5 from 4. May 2009 

EAC extraction logfile from 17. June 2011, 18:59

LMFAO / Sorry For Party Rocking

Used drive : SlimtypeBD E DS4E1S Adapter: 0 ID: 1

Read mode : Secure
Utilize accurate stream : Yes
Defeat audio cache : Yes
Make use of C2 pointers : No

Read offset correction : 6
Overread into Lead-In and Lead-Out : No
Fill up missing offset samples with silence : Yes
Delete leading and trailing silent blocks : No
Null samples used in CRC calculations : Yes
Used interface : Native Win32 interface for Win NT & 2000

Used output format : User Defined Encoder
Selected bitrate : 768 kBit/s
Quality : High
Add ID3 tag : No
Command line compressor : C:Program Files (x86)Exact Audio CopyFlacflac.exe
Additional command line options : -8 -V -T "ARTIST=%a" -T "TITLE=%t" -T "ALBUM=%g" -T "DATE=%y" -T "TRACKNUMBER=%n" -T "GENRE=%m" -T "COMMENT=EAC FLAC -8" %s

TOC of the extracted CD

Track | Start | Length | Start sector | End sector
---------------------------------------------------------
1 | 0:00.00 | 1:53.71 | 0 | 8545
2 | 1:53.71 | 3:23.73 | 8546 | 23843
3 | 5:17.69 | 4:22.11 | 23844 | 43504
4 | 9:40.05 | 3:19.36 | 43505 | 58465
5 | 12:59.41 | 4:24.07 | 58466 | 78272
6 | 17:23.48 | 3:17.45 | 78273 | 93092
7 | 20:41.18 | 3:56.12 | 93093 | 110804
8 | 24:37.30 | 3:36.63 | 110805 | 127067
9 | 28:14.18 | 3:46.65 | 127068 | 144082
10 | 32:01.08 | 3:47.06 | 144083 | 161113
11 | 35:48.14 | 4:59.15 | 161114 | 183553
12 | 40:47.29 | 3:47.07 | 183554 | 200585
13 | 44:34.36 | 4:14.44 | 200586 | 219679
14 | 48:49.05 | 2:27.11 | 219680 | 230715
15 | 51:16.16 | 3:48.34 | 230716 | 247849
16 | 55:04.50 | 3:42.23 | 247850 | 264522

Range status and errors

Selected range

Filename F:LMFAO - Sorry For Party Rocking [2011]LMFAO - Sorry For Party Rocking.wav

Peak level 100.0 %
Range quality 100.0 %
Test CRC 7BA7D0FD
Copy CRC 7BA7D0FD
Copy OK

No errors occurred

AccurateRip summary
Track 1 not present in database
Track 2 not present in database
Track 3 not present in database
Track 4 not present in database
Track 5 not present in database
Track 6 not present in database
Track 7 not present in database
Track 8 not present in database
Track 9 not present in database
Track 10 not present in database
Track 11 not present in database
Track 12 not present in database
Track 13 not present in database
Track 14 not present in database
Track 15 not present in database
Track 16 not present in database
None of the tracks are present in the AccurateRip database

End of status report
REM GENRE Electronic 
REM DATE 2011
REM DISCID E00DC610
REM COMMENT "ExactAudioCopy v0.99pb5"
PERFORMER "LMFAO"
TITLE "Sorry For Party Rocking"
FILE "LMFAO - Sorry For Party Rocking.flac" WAVE
TRACK 01 AUDIO
TITLE "Rock The Beat II"
PERFORMER "LMFAO"
INDEX 01 00:00:00
TRACK 02 AUDIO
TITLE "Sorry For Party Rocking"
PERFORMER "LMFAO"
INDEX 01 01:53:71
TRACK 03 AUDIO
TITLE "Party Rock Anthem Featuring Lauren Bennett And Goonrock"
PERFORMER "LMFAO"
INDEX 01 05:17:69
TRACK 04 AUDIO
TITLE "Sexy And I Know It"
PERFORMER "LMFAO"
INDEX 01 09:40:05
TRACK 05 AUDIO
TITLE "Champagne Showers Featuring Natalia Kills"
PERFORMER "LMFAO"
INDEX 01 12:59:41
TRACK 06 AUDIO
TITLE "One Day"
PERFORMER "LMFAO"
INDEX 01 17:23:48
TRACK 07 AUDIO
TITLE "Put That A$$ To Work"
PERFORMER "LMFAO"
INDEX 01 20:41:18
TRACK 08 AUDIO
TITLE "Take It To The Hole Featuring Busta Rhymes"
PERFORMER "LMFAO"
INDEX 01 24:37:30
TRACK 09 AUDIO
TITLE "We Came Here To Party Featuring Goonrock"
PERFORMER "LMFAO"
INDEX 01 28:14:18
TRACK 10 AUDIO
TITLE "Reminds Me Of You With Calvin Harris"
PERFORMER "LMFAO"
INDEX 01 32:01:08
TRACK 11 AUDIO
TITLE "Best Night Featuring Will.I.Am, Goonrock And Eva Simons"
PERFORMER "LMFAO"
INDEX 01 35:48:14
TRACK 12 AUDIO
TITLE "All Night Long Featuring Lisa"
PERFORMER "LMFAO"
INDEX 01 40:47:29
TRACK 13 AUDIO
TITLE "With You"
PERFORMER "LMFAO"
INDEX 01 44:34:36
TRACK 14 AUDIO
TITLE "Hot Dog"
PERFORMER "LMFAO"
INDEX 01 48:49:05
TRACK 15 AUDIO
TITLE "I'm In Miami Bitch (Bonus Track)"
PERFORMER "LMFAO"
INDEX 00 51:15:56
INDEX 01 51:16:16
TRACK 16 AUDIO
TITLE "Shots Featuring Lil Jon (Bonus Track)"
PERFORMER "LMFAO"
INDEX 00 55:04:28
INDEX 01 55:04:50
info [Профиль]  [ЛС] 

ApTeM4iK

Пол: Пол:Муж

Стаж: 12 лет

Сообщений: 50

Украина
Рейтинг

post 01-Мар-2012 14:23 (спустя 15 часов) [-]3[+]

[Цитировать] 


_________________
info [Профиль]  [ЛС] 
Показать сообщения:    
Ответить на тему

Текущее время: 21-Май 16:14

Часовой пояс: GMT + 4



Вы не можете начинать темы
Вы не можете отвечать на сообщения
Вы не можете редактировать свои сообщения
Вы не можете удалять свои сообщения
Вы не можете голосовать в опросах
Вы не можете прикреплять файлы к сообщениям
Вы не можете скачивать файлы