Ошибка

(Electro Hop, R&B, Pop) Dev - The Night The Sun Came Up - 2011, FLAC (tracks+.cue), lossless

Ответить на тему
 
Автор Сообщение

Resistance

Пол: Пол:Муж

Стаж: 12 лет

Сообщений: 3640

Россия
Рейтинг

post 08-Дек-2011 14:50 0[+]

[Цитировать] 

pic="http://i30.fastpic.ru/big/2011/1004/43/5bf11bed1b73fecb49d28eb77b958f43.jpg"
Dev - The Night The Sun Came Up

Жанр: Electro Hop, R&B, Pop | Происхождение исполнителя: USA | Год: 2011 | Аудио кодек: FLAC | Битрейт аудио: lossless | | Тип релиза: tracks+.cue | Продолжительность: 51:24 | Лейбл: Island Records | Каталоговый номер: 2781052
Треклист:
01. Getaway (2:22)
02. In My Trunk (3:18)
03. Me (3:37)
04. Breathe (3:41)
05. Take Her From You (3:26)
06. Lightspeed (4:00)
07. Dancing Shoes (5:04)
08. Perfect Match (3:20)
09. Bass Down Low (3:31)
10. Kiss My Lips (3:28)
11. In The Dark (3:48)
12. Shadows (4:24)
13. Bass Down Low (Tinie Tempah Remix) (3:30)
14. In The Dark (feat. Flo Rida)(3:40)

Код:

Exact Audio Copy V1.0 beta 2 from 29. April 2011

EAC extraction logfile from 14. September 2011, 17:47

Dev / The Night The Sun Came Up

Used drive  : HL-DT-STDVDRAM GH15F   Adapter: 1  ID: 0

Read mode               : Secure
Utilize accurate stream : Yes
Defeat audio cache      : Yes
Make use of C2 pointers : No

Read offset correction                      : 667
Overread into Lead-In and Lead-Out          : No
Fill up missing offset samples with silence : Yes
Delete leading and trailing silent blocks   : No
Null samples used in CRC calculations       : Yes
Used interface                              : Native Win32 interface for Win NT & 2000
Gap handling                                : Appended to previous track

Used output format              : User Defined Encoder
Selected bitrate                : 1024 kBit/s
Quality                         : High
Add ID3 tag                     : No
Command line compressor         : C:\Program Files (x86)\Exact Audio Copy\Flac\flac.exe
Additional command line options : -8 -V -T "TITLE=%title%" -T "ARTIST=%artist%" -T "ALBUMARTIST=%albumartist%" -T "ALBUM=%albumtitle%" -T "DATE=%year%" -T "TRACKNUMBER=%tracknr%" -T "TOTALTRACKS=%numtracks%" -T "DISCNUMBER=%cdnumber%" -T "TOTALDISCS=%totalc

TOC of the extracted CD

     Track |   Start  |  Length  | Start sector | End sector
    ---------------------------------------------------------
        1  |  0:00.00 |  2:21.46 |         0    |    10620   
        2  |  2:21.46 |  3:18.14 |     10621    |    25484   
        3  |  5:39.60 |  3:37.30 |     25485    |    41789   
        4  |  9:17.15 |  3:41.37 |     41790    |    58401   
        5  | 12:58.52 |  3:26.05 |     58402    |    73856   
        6  | 16:24.57 |  4:00.22 |     73857    |    91878   
        7  | 20:25.04 |  5:03.45 |     91879    |   114648   
        8  | 25:28.49 |  3:19.58 |    114649    |   129631   
        9  | 28:48.32 |  3:30.58 |    129632    |   145439   
       10  | 32:19.15 |  3:27.63 |    145440    |   161027   
       11  | 35:47.03 |  3:48.29 |    161028    |   178156   
       12  | 39:35.32 |  4:23.59 |    178157    |   197940   
       13  | 43:59.16 |  3:30.10 |    197941    |   213700   
       14  | 47:29.26 |  3:39.51 |    213701    |   230176   

Track  1

     Filename D:\EAC RIPS\Various Artists - The Night The Sun Came Up - 2011\01 - Getaway - Dev - The Night The Sun Came Up.wav

     Pre-gap length  0:00:02.00

     Peak level 99.8 %
     Extraction speed 2.3 X
     Track quality 100.0 %
     Test CRC E6FA1A14
     Copy CRC E6FA1A14
     Track not present in AccurateRip database
     Copy OK

Track  2

     Filename D:\EAC RIPS\Various Artists - The Night The Sun Came Up - 2011\02 - In My Trunk - Dev - The Night The Sun Came Up.wav

     Peak level 99.8 %
     Extraction speed 2.1 X
     Track quality 99.9 %
     Test CRC BA753303
     Copy CRC BA753303
     Track not present in AccurateRip database
     Copy OK

Track  3

     Filename D:\EAC RIPS\Various Artists - The Night The Sun Came Up - 2011\03 - Me - Dev - The Night The Sun Came Up.wav

     Peak level 99.8 %
     Extraction speed 3.0 X
     Track quality 100.0 %
     Test CRC 93721B3B
     Copy CRC 93721B3B
     Track not present in AccurateRip database
     Copy OK

Track  4

     Filename D:\EAC RIPS\Various Artists - The Night The Sun Came Up - 2011\04 - Breathe - Dev - The Night The Sun Came Up.wav

     Peak level 99.8 %
     Extraction speed 3.3 X
     Track quality 100.0 %
     Test CRC 541869DA
     Copy CRC 541869DA
     Track not present in AccurateRip database
     Copy OK

Track  5

     Filename D:\EAC RIPS\Various Artists - The Night The Sun Came Up - 2011\05 - Take Her From You - Dev - The Night The Sun Came Up.wav

     Pre-gap length  0:00:01.21

     Peak level 99.8 %
     Extraction speed 3.4 X
     Track quality 100.0 %
     Test CRC 95BA78FE
     Copy CRC 95BA78FE
     Track not present in AccurateRip database
     Copy OK

Track  6

     Filename D:\EAC RIPS\Various Artists - The Night The Sun Came Up - 2011\06 - Lightspeed - Dev - The Night The Sun Came Up.wav

     Peak level 99.8 %
     Extraction speed 3.7 X
     Track quality 100.0 %
     Test CRC 58E1F35B
     Copy CRC 58E1F35B
     Track not present in AccurateRip database
     Copy OK

Track  7

     Filename D:\EAC RIPS\Various Artists - The Night The Sun Came Up - 2011\07 - Dancing Shoes - Dev - The Night The Sun Came Up.wav

     Peak level 99.8 %
     Extraction speed 4.1 X
     Track quality 100.0 %
     Test CRC 01D594CC
     Copy CRC 01D594CC
     Track not present in AccurateRip database
     Copy OK

Track  8

     Filename D:\EAC RIPS\Various Artists - The Night The Sun Came Up - 2011\08 - Perfect Match - Dev - The Night The Sun Came Up.wav

     Peak level 99.8 %
     Extraction speed 3.9 X
     Track quality 100.0 %
     Test CRC 88ABBA2B
     Copy CRC 88ABBA2B
     Track not present in AccurateRip database
     Copy OK

Track  9

     Filename D:\EAC RIPS\Various Artists - The Night The Sun Came Up - 2011\09 - Bass Down Low - Dev feat. The Cataracs - The Night The Sun Came Up.wav

     Peak level 99.8 %
     Extraction speed 4.1 X
     Track quality 100.0 %
     Test CRC AA749BEB
     Copy CRC AA749BEB
     Track not present in AccurateRip database
     Copy OK

Track 10

     Filename D:\EAC RIPS\Various Artists - The Night The Sun Came Up - 2011\10 - Kiss My Lips - Dev - The Night The Sun Came Up.wav

     Peak level 99.8 %
     Extraction speed 3.3 X
     Track quality 99.9 %
     Test CRC 9C5B1198
     Copy CRC 9C5B1198
     Track not present in AccurateRip database
     Copy OK

Track 11

     Filename D:\EAC RIPS\Various Artists - The Night The Sun Came Up - 2011\11 - In The Dark - Dev - The Night The Sun Came Up.wav

     Peak level 99.9 %
     Extraction speed 3.5 X
     Track quality 99.9 %
     Test CRC 4FEC1135
     Copy CRC 4FEC1135
     Track not present in AccurateRip database
     Copy OK

Track 12

     Filename D:\EAC RIPS\Various Artists - The Night The Sun Came Up - 2011\12 - Shadows - Dev - The Night The Sun Came Up.wav

     Peak level 99.8 %
     Extraction speed 4.7 X
     Track quality 100.0 %
     Test CRC 58C93121
     Copy CRC 58C93121
     Track not present in AccurateRip database
     Copy OK

Track 13

     Filename D:\EAC RIPS\Various Artists - The Night The Sun Came Up - 2011\13 - Bass Down Low (Tinie Tempah Remix) - Dev - The Night The Sun Came Up.wav

     Peak level 100.0 %
     Extraction speed 3.6 X
     Track quality 99.9 %
     Test CRC 9D47BCF0
     Copy CRC 9D47BCF0
     Track not present in AccurateRip database
     Copy OK

Track 14

     Filename D:\EAC RIPS\Various Artists - The Night The Sun Came Up - 2011\14 - In The Dark - Dev feat. Flo Rida - The Night The Sun Came Up.wav

     Pre-gap length  0:00:00.26

     Peak level 99.8 %
     Extraction speed 5.0 X
     Track quality 100.0 %
     Test CRC 4C563CD4
     Copy CRC 4C563CD4
     Track not present in AccurateRip database
     Copy OK

None of the tracks are present in the AccurateRip database

No errors occurred

End of status report

---- CUETools DB Plugin V2.1.2

[CTDB TOCID: uSswBEuwPh4zfu_tVuLqAb9QW_0-] disk not present in database, Submit result: uSswBEuwPh4zfu_tVuLqAb9QW_0- has been uploaded

==== Log checksum 4C555B6865198E4D5DD45334E6893C42CE8106C03B013221909F380D4BA02710 ====

Код:

REM GENRE Electronic
REM DATE 2011
REM DISCID BA0BFD0E
REM COMMENT "ExactAudioCopy v1.0b2"
CATALOG 0602527810522
PERFORMER "Dev"
TITLE "The Night The Sun Came Up"
FILE "Various Artists - The Night The Sun Came Up - 2011\01 - Getaway - Dev - The Night The Sun Came Up.wav" WAVE
  TRACK 01 AUDIO
    TITLE "Getaway"
    PERFORMER "Dev"
    ISRC USUM71112941
    INDEX 01 00:00:00
FILE "Various Artists - The Night The Sun Came Up - 2011\02 - In My Trunk - Dev - The Night The Sun Came Up.wav" WAVE
  TRACK 02 AUDIO
    TITLE "In My Trunk"
    PERFORMER "Dev"
    ISRC USUM71112943
    INDEX 01 00:00:00
FILE "Various Artists - The Night The Sun Came Up - 2011\03 - Me - Dev - The Night The Sun Came Up.wav" WAVE
  TRACK 03 AUDIO
    TITLE "Me"
    PERFORMER "Dev"
    ISRC USUM71112945
    INDEX 01 00:00:00
FILE "Various Artists - The Night The Sun Came Up - 2011\04 - Breathe - Dev - The Night The Sun Came Up.wav" WAVE
  TRACK 04 AUDIO
    TITLE "Breathe"
    PERFORMER "Dev"
    ISRC USUM71112946
    INDEX 01 00:00:00
  TRACK 05 AUDIO
    TITLE "Take Her From You"
    PERFORMER "Dev"
    ISRC USUM71112948
    INDEX 00 03:40:21
FILE "Various Artists - The Night The Sun Came Up - 2011\05 - Take Her From You - Dev - The Night The Sun Came Up.wav" WAVE
    INDEX 01 00:00:00
FILE "Various Artists - The Night The Sun Came Up - 2011\06 - Lightspeed - Dev - The Night The Sun Came Up.wav" WAVE
  TRACK 06 AUDIO
    TITLE "Lightspeed"
    PERFORMER "Dev"
    ISRC USUM71112950
    INDEX 01 00:00:00
FILE "Various Artists - The Night The Sun Came Up - 2011\07 - Dancing Shoes - Dev - The Night The Sun Came Up.wav" WAVE
  TRACK 07 AUDIO
    TITLE "Dancing Shoes"
    PERFORMER "Dev"
    ISRC USUM71112951
    INDEX 01 00:00:00
FILE "Various Artists - The Night The Sun Came Up - 2011\08 - Perfect Match - Dev - The Night The Sun Came Up.wav" WAVE
  TRACK 08 AUDIO
    TITLE "Perfect Match"
    PERFORMER "Dev"
    ISRC USUM71112952
    INDEX 01 00:00:00
FILE "Various Artists - The Night The Sun Came Up - 2011\09 - Bass Down Low - Dev feat. The Cataracs - The Night The Sun Came Up.wav" WAVE
  TRACK 09 AUDIO
    TITLE "Bass Down Low"
    PERFORMER "Dev feat. The Cataracs"
    ISRC USUM71028032
    INDEX 01 00:00:00
FILE "Various Artists - The Night The Sun Came Up - 2011\10 - Kiss My Lips - Dev - The Night The Sun Came Up.wav" WAVE
  TRACK 10 AUDIO
    TITLE "Kiss My Lips"
    PERFORMER "Dev"
    ISRC USUM71112954
    INDEX 01 00:00:00
FILE "Various Artists - The Night The Sun Came Up - 2011\11 - In The Dark - Dev - The Night The Sun Came Up.wav" WAVE
  TRACK 11 AUDIO
    TITLE "In The Dark"
    PERFORMER "Dev"
    ISRC USUM71105330
    INDEX 01 00:00:00
FILE "Various Artists - The Night The Sun Came Up - 2011\12 - Shadows - Dev - The Night The Sun Came Up.wav" WAVE
  TRACK 12 AUDIO
    TITLE "Shadows"
    PERFORMER "Dev"
    ISRC USUM71112955
    INDEX 01 00:00:00
FILE "Various Artists - The Night The Sun Came Up - 2011\13 - Bass Down Low (Tinie Tempah Remix) - Dev - The Night The Sun Came Up.wav" WAVE
  TRACK 13 AUDIO
    TITLE "Bass Down Low (Tinie Tempah Remix)"
    PERFORMER "Dev"
    ISRC USUM71104843
    INDEX 01 00:00:00
  TRACK 14 AUDIO
    TITLE "In The Dark"
    PERFORMER "Dev feat. Flo Rida"
    ISRC USUM71112409
    INDEX 00 03:29:65
FILE "Various Artists - The Night The Sun Came Up - 2011\14 - In The Dark - Dev feat. Flo Rida - The Night The Sun Came Up.wav" WAVE
    INDEX 01 00:00:00
info [Профиль]  [ЛС] 
Показать сообщения:    
Ответить на тему

Текущее время: 21-Май 17:15

Часовой пояс: GMT + 4



Вы не можете начинать темы
Вы не можете отвечать на сообщения
Вы не можете редактировать свои сообщения
Вы не можете удалять свои сообщения
Вы не можете голосовать в опросах
Вы не можете прикреплять файлы к сообщениям
Вы не можете скачивать файлы